This file was generated by Ched 2.7.0.0.
#TITLE ""
#ARTIST ""
#DESIGNER ""
#DIFFICULTY 0
#PLAYLEVEL
#SONGID ""
#WAVE ""
#WAVEOFFSET 0
#JACKET ""
#REQUEST "ticks_per_beat 480"
#00002: 4
#BPM01: 144
#00008: 01
#TIL00: ""
#VOLUME: ""
#HISPEED 00
#MEASUREHS 00
#0011a:14
#00212:14
#00312:14
#00418:14
#00410:41
#00514:14
#00618:14
#0421a:14
#04212:0014
#00714:14
#0081a:14
#00912:14
#0101a:14
#01112:14
#01618:14
#01610:41
#01718:14
#01814:14
#01914:14
#02818:2616
#02810:41
#03012:0016
#03018:16
#02912:1616
#03212:1616
#03418:0016
#03412:16
#03318:1616
#0431a:14
#04312:0014
#04418:14
#04518:14
#04614:14
#04714:14
#0481a:14
#04810:41
#0491a:14
#05012:14
#05112:14
#06212:0016
#06218:16
#06112:0016
#06118:16
#06110:41
#06012:0016
#0601f:21
#0601f:21
#06018:26
#06618:0016
#06612:16
#06518:0016
#06512:16
#06418:0016
#06412:16
#0521f:11
#05218:0034
#0001a:24
#0221a:3434
#0211a:3434
#0201a:0034
#02612:3434
#02512:3434
#02412:0034
#05814:3434
#05714:3434
#05614:0034
#05418:3434
#05318:3434
#03810:41
#0123a0:1434
#0133a0:3424
#014320:1434
#015320:3424
#0203a0:1434
#0213a0:3434
#0223a0:3434
#023380:24
#024320:1434
#025320:3434
#026320:3434
#027340:24
#031380:1626
#035320:1626
#036380:1434
#037380:3424
#038340:1434
#039340:3424
#040380:1424
#041340:1424
#052380:1434
#053380:3434
#054380:3434
#0553a0:24
#056340:1434
#057340:3434
#058340:3434
#059320:24
#063380:1626
#067320:1626
#0683a0:1400003400003400
#0693a0:0034000024000000
#070320:1400003400003400
#071320:0034000024000000
#072380:14000034
#073380:0024
#074340:14000034
#075340:0024
