This file was generated by Ched 2.7.0.0.
#TITLE ""
#ARTIST ""
#DESIGNER ""
#DIFFICULTY 0
#PLAYLEVEL
#SONGID ""
#WAVE ""
#WAVEOFFSET 0
#JACKET ""
#REQUEST "ticks_per_beat 480"
#00002: 4
#BPM01: 144
#00008: 01
#TIL00: ""
#VOLUME: ""
#HISPEED 00
#MEASUREHS 00
#0521f:11
#05216:0000140014000014
#05212:260000001400001400140000
#0521a:000000000014000014000000
#05218:26
#0741b:13000013
#0741a:00000000000000000000000000000014
#07412:0000000000000014
#07417:0000001300000000
#06718:00001300000000130000000000000000
#06715:13000013000013000000000000000000
#0671b:13130000
#06712:0024
#04912:0000000000000013
#04915:00000013
#04914:0013
#04913:00130000
#0491a:00000000000000000000003400000000
#04919:00000000000000340000000000000000
#04918:00000034000000000000000000000000
#0451b:0000000000000013
#04518:00000013
#04519:0013
#0451a:00130000
#04512:00000000000000000000003400000000
#04513:00000000000000340000000000000000
#04514:00000034000000000000000000000000
#03315:00000013000000002600000013000000
#03318:13000013
#0331b:0013000000130000
#03312:1300001300000000
#02918:00000013000000000000000013000000
#02915:13002613
#02912:0013000000130000
#0291b:1300001300000000
#0351b:0013000000000000
#03518:00000000130000130000000000000000
#03515:00000013000013000000000000000000
#03512:1324
#0341b:00001300000000000000001300000000
#03412:1300001300130000
#03418:0000000000000013
#03415:0026
#0321b:1300000000000013
#03218:00001300000000002600001300000000
#03212:1300000000130000
#03215:0000001300000000
#0311b:13000013
#03115:00000000130000130000000000000000
#03118:00000013000013002600000000000000
#03112:0013000013000000
#03012:00001300000000000000001300000000
#0301b:1300001300130000
#03015:0000000026000013
#02812:1300000026000013
#02815:00001300000000000000001300000000
#0281b:1300000000130000
#02818:0000001300000000
#02810:41
#06118:0013000026001600
#06112:13000013000000001300000013000000
#06115:0000001300130000
#0611b:13
#06110:41
#06415:13000000290000000000001300000000
#06412:0013000026000013
#0641b:1300000000130000
#04312:0013
#04318:0000130000131313
#04315:00000000000013000000001300130013
#0421b:00001313
#04215:00000000130000000000001300000013
#04212:00000000000000000000000000130000
#04218:2300001300130013
#07012:13
#07016:0000001300000000
#07017:13000013
#0701b:0000001300000000
#0681b:13
#06817:0000001300000000
#06816:13000013
#06812:0000001300000000
#0601b:1300001300000013
#06015:00130000
#06012:1313000000130000
#06018:00000000000000002600001300000000
#0601f:21
#05712:1400140014000014
#05716:000000001400001400140000
#0571a:000000000014000014000000
#0561a:0000140014000014
#05616:000000001400001400140000
#05612:260000000014000014000000
#05618:26
#05416:0000140014000014
#05412:140000001400001400140000
#0541a:000000000014000014000000
#05316:0000140014000014
#0531a:140000001400001400140000
#05312:000000000014000014000000
#04815:0000000000001313
#04814:0013
#04813:00130000
#04812:26
#04818:00000000000000000000003400000000
#04817:00000000000000340000000000000000
#04816:00000034000000000000000000000000
#04810:41
#04618:0000000000001313
#04619:0013
#0461a:00130000
#04615:00000000000000340000000000000000
#04614:00000000000000000000003400000000
#04616:00000034000000000000000000000000
#04418:2600000000001313
#04419:0013
#0441a:00130000
#04414:00000000000000000000003400000000
#04415:00000000000000340000000000000000
#04416:00000034000000000000000000000000
#03616:14001400001400140000000014000000
#0361a:00140014000000000000000014000000
#03612:0000141400000000
#03716:14001400001400140000000014000000
#03712:00140014000000000000000014000000
#0371a:0000141400000000
#02516:140000001400001400140000
#02512:000000141400
#0251a:000000140014000000000000
#02416:000000001400001400140000
#0241a:240000141400
#02412:240000140014000000000000
#02212:24140014
#02218:001414
#02214:000000000014001400000000
#0221a:0014
#0211a:14140014
#02114:001414
#02118:000000000014001400000000
#02112:0014
#02012:24140014
#02018:001414
#02014:000000000014001400000000
#0201a:0014
#01512:14001413
#01517:1313000013130000
#0151b:0000131300000000
#01514:00140000
#0751a:00140000000000140000140000000000
#07514:0000001400000000
#07518:00000000001400000000000000000000
#07512:0014140000000000
#07516:14000014000000000000000000000000
#07312:0013
#07316:0013000000001300
#0731b:0013000000130000
#07212:13000013
#0721b:13000013
#07216:0000001300000000
#07112:00000000001400140000140000000000
#07118:0000141400000000
#07114:00140014000000000000000000000000
#0711a:1414000000000000
#06917:0013000000000000
#06916:0013
#06912:0013000000000000
#06918:00000016
#0621b:1313000000000013
#06218:00000000130000002600001300000000
#06212:0000001300000000
#06215:0000000000130000
#06612:1313000026000013
#06615:00000000130000000000001300000000
#0661b:0000001300000000
#06618:0000000000130000
#0651b:13000013000000001300000013000000
#06518:0000001300130000
#06512:13002616
#06515:0013000000000000
#06315:00001300000000130000130000000000
#06318:13000013000013002600000016000000
#06312:13131300
#05918:13000013000013000000000000000000
#05915:00000000130000130000000000000000
#05912:0013000000000000
#0591a:0024
#0551a:14
#05512:00000016
#05515:0016
#05518:00160000
#0511a:00000014
#05112:0000001300001400
#05118:0000000000130000
#05115:0013
#0511b:0013000000000000
#05015:0000000000001313
#05014:0013
#05013:00130000
#05017:00000000000000340000000000000000
#05018:00000000000000000000003400000000
#05016:00000034000000000000000000000000
#04015:1300001313000000
#04012:00000013000000000000001300000000
#0401b:1300000000130000
#04018:00001300001300130000000000000000
#0411b:00000013000000000000002300000000
#04115:00001300001300130000000000000000
#04118:1300001323000000
#04112:1300000000230000
#0391b:1313000013001300
#03915:00130013000000000013000000001300
#03912:00000000001300130000001300000000
#03918:0000131300130000
#01912:00000013000013000000140000000000
#0191a:0014
#01916:14140000
#0191b:0013000000000000
#01812:00001300000000130013001300130013
#0181b:00000013000013000000130000001300
#01816:14141414
#03812:1313000013001300
#03818:00130013000000000013000000001300
#0381b:00000000001300130000001300000000
#03815:0000131300130000
#03810:41
#02715:0000131300000000
#02718:00000013000000130000000000000000
#0271b:13
#02712:0013000024000000
#0111b:00000000001300000000130000000000
#01118:00130013000000130000000000000000
#01115:1300131300000000
#01112:0013000000000000
#01018:13131300
#01015:00130000001300000013000000001300
#0101b:00001300000013000000130000000013
#01012:00000013000000130000000000000000
#00912:00000000130000000000000000000013
#0091b:00000000001300000000130000001300
#00915:0000001300000000
#00918:00000000000000130000000000000000
#00818:00000000001300130000000000000013
#00812:0013000000000013
#0081b:00000013000000000000130000000000
#00815:0000131300000000
#0051b:00130013000000000000000000000000
#00512:0000130000130000
#00515:13001300000000000000000000000013
#00518:00000000001300000000000000001300
#02612:13000000001300000013001300000000
#02615:00001300000000130000000000130013
#0261b:00130000000000001300130000000000
#02618:0000001300001313
#02312:00160016
#02318:0016
#0231a:14
#01715:00131300
#01718:00001300000000130000000000000000
#0171b:1300000000130000
#01712:0000001300000000
#01312:0000000013130000
#01316:1313000014000000
#01314:0000131300000000
#01318:0000140000000013
#0131a:14
#01315:00000013
#01212:2300001313000013
#01216:0013130000131300
#0121a:14141414
#0141b:1300001313000013
#01419:00000013
#01414:00000014
#01417:0013130000130000
#01412:14141400
#0581b:1313131313130000
#05812:00130013000000000013001300130013
#05818:0000000000001313
#05815:00000000001300130000000000000000
#04718:00160016
#04712:0013000016000000
#00215:00001212
#00219:0000001200000012
#00212:1212000000000000
#0031c:00120000
#00312:0000001200000000
#00319:12
#00315:12
#0031a:0024
#00115:1200000012121200
#00119:12001212
#00112:00120000
#0011c:0000001200000000
#00019:00001212
#00015:0000001200000012
#0001c:1212000000000000
#00012:24
#01618:00001300001300130013000000001300
#01615:00130000000013000000130000130013
#01612:0013
#0161b:13
#01610:41
#00412:00130013000000000000130000000000
#00415:00000000001300130000000000000000
#00418:0000131300000000
#0041b:2313000000000000
#00410:41
#00612:00130000001300000000130000000000
#0061b:13130000
#00618:0013001300000000
#00615:00000013000000130000000000000000
#00712:00140000
#0071a:1414
#00714:001400000014000000000000
#00718:001414000000
#06756:00000014
#06755:53
#03556:00000014
#03552:63
#0375a:0000000000000014
#03756:0000000000005414
#03752:00000054
#03652:0000000000000014
#03656:0000000000006414
#0365a:00000064
#02756:00000014
#0275b:53
#00356:00000014
#06455:00190000
#05258:16
#05252:16000054
#05256:0000000000000024
#02252:14000054
#00052:14
#0005c:0052000000000000
#0415b:00000023000000000000001300000000
#04158:5313
#05658:16
#05652:16
#0565a:0000000000000024
#05656:00000054
#04458:1600000000000053
#0245a:14
#02452:14
#02456:00000064
#0745b:63000053
#07457:0000005300000000
#04952:0000000000000053
#0455b:0000000000000063
#03355:00000013
#03358:00000053
#02958:00000013
#02955:00000063
#0345b:0063000000000000
#03258:0053000000000000
#0315b:53000013
#03152:0063
#03052:0053000000000000
#02855:0063000000000000
#06158:00000016
#06152:00000063
#04355:0000001300000000
#04258:0000001300000000
#06055:00230000
#06052:0053000000000000
#05752:1400000000000024
#05756:00000064
#05456:0000000000000024
#05452:14000054
#05356:0000000000000024
#0535a:14000064
#04855:0000000000000063
#04658:0000000000000053
#02556:14000054
#0215a:14000064
#02052:00000054
#01552:14001463
#01554:00140000
#07352:0053
#07356:0063000000006300
#07252:53000053
#07256:0000006300000000
#07056:0000006300000000
#07057:53000053
#0705b:0000006300000000
#06857:0000005300000000
#06856:63000063
#06852:0000005300000000
#06957:0053000000000000
#06956:0063
#06952:0053000000000000
#06958:00000016
#06655:00230000
#06652:0053000000000000
#06552:00000016
#0655b:00000053
#06355:0000000000230000
#06352:0053
#06358:63000016
#06258:00230000
#0625b:0063000000000000
#05958:53
#05956:00000014
#0555a:14
#05552:00000016
#05555:0016
#05558:00160000
#05055:0000000000000063
#0515b:0063000000000000
#04055:6313
#04052:00000023000000000000001300000000
#0395b:00000063
#01952:0000000000140000
#0195a:0014
#01956:00140000
#0115b:0000000000130000
#02352:00160016
#02358:0016
#0235a:14
#0175b:0000000000130000
#01356:0014
#01358:00140000
#0135a:14
#0125a:14141414
#01454:00000014
#01452:14141400
#0085b:0000000000130000
#0095b:0000000000130000
#0105b:0000000000130000
#04758:00160016
#04752:0016
#03852:00000053
#00252:0062000000000000
#00159:00000052
#00452:0000000000130000
#00552:0000000000130000
#00652:0000000000130000
#0075a:0014
#0003c0:0012000000000000
#000390:0000002200000000
#000320:0000000000120000
#000330:000032
#000340:000000000000000000000000000000000032000000000000
#000350:00000022
#001390:0012000000000000
#0013a0:003200000000
#0013b0:000000000032000000000000000000000000000000000000
#0013c0:00220000
#001390:00000012
#0023c0:22
#002320:0012000000000000
#002350:0000002200000000
#0023c0:0000000000120000
#0023b0:000032
#0023a0:000000000000000000000000000000000032000000000000
#002390:00000022
#003350:0012000000000000
#003340:003200000000
#003330:000000000032000000000000000000000000000000000000
#003320:00220000
#0033a0:0014
#003380:0000000000000000000000000000000000340000000000000000000000000000
#003360:00000000000000000034000024000000
#003320:0000000000000013
#004320:23
#0043b0:0000000013230000
#004380:0000000000000013
#005380:23
#005350:0000001323000000
#005381:0000000013230000
#0063b1:0000000013230000
#007321:0000000000000013
#008321:23
#0083b0:1323000000000000
#008320:0000000013230000
#009350:1323000000000000
#009381:0013230000000000
#009351:0000000013230000
#011321:0000000013230000
#015321:00000013
#016351:23
#016321:00000013002300000000000000000000
#0163b1:00000000000000000000001300230000
#0203a1:145454545454240000000000000000000000000000000000
#020391:005400540054005400540054000000000000000000000000000000000000000000000000000000000000000000000000
#020321:00000014
#021361:24
#0213a1:00000014
#022361:24
#022321:00000014
#023361:24
#024361:00000014
#025321:24
#025361:00000014
#0263a1:24
#026381:00000013002300000000000000000000
#0273b1:13
#027381:0023000000000000
#027321:0014
#027341:0000000000000000000000000000000000340000000000000000000000000000
#027361:00000000000000000034000024000000
#028351:0013000000000000
#028321:0000002300000000
#0283b1:0000000000001323
#029321:0000132300000000
#029351:00000013
#030321:23
#030321:0013000000000000
#030351:0000002300000000
#030381:0000000000001323
#0313b1:13
#031381:0023000000000000
#031321:0013
#031351:00000023
#032381:0013000000000000
#0323b1:0000002300000000
#032321:0000000000001323
#0333b1:0000132300000000
#033381:00000013
#0343b1:23
#0343b1:0013000000000000
#034381:0000002300000000
#034351:0000000000001323
#035321:13
#035351:0023000000000000
#035321:0014
#035341:0000000000000000000000000000000000340000000000000000000000000000
#035361:00000000000000000034000024000000
#036321:0000000014000024
#036331:00000000000000000034000000000000
#036341:0000000000340000
#036351:00000000000000000000003400000000
#036361:00000034
#0363a0:00000014
#036360:0000000000000024
#0373a0:0000000014000024
#037390:00000000000000000034000000000000
#037380:0000000000340000
#037370:00000000000000000000003400000000
#037360:00000034
#037321:00000014
#037361:0000000000000024
#038321:00000013
#038351:0000000000000023
#0393b1:00000013
#039381:0000000000000023
#040351:13
#040321:0023000000000000
#040321:00000013000000000000000000000000
#040351:00000000002300000000000000000000
#041381:13
#0413b1:0023000000000000
#0413b1:00000013000000000000000000000000
#041381:00000000002300000000000000000000
#042321:1323000000000000
#0423b0:0013230000000000
#042320:0000001323000000
#0433b0:1323000000000000
#043321:0013230000000000
#0433b1:0000001323000000
#044341:0014000000000000
#044361:00000034240000000000000000000000
#044331:0000001400000000
#044351:00000000000000342400000000000000
#044321:0000000000140000
#044341:00000000000000000000003424000000
#044381:0000000000000013
#0453b1:0023000000000000
#045360:0014000000000000
#045340:00000034240000000000000000000000
#045350:0000001400000000
#045330:00000000000000342400000000000000
#045340:0000000000140000
#045320:00000000000000000000003424000000
#0453b0:0000000000000013
#046380:0023000000000000
#046341:0014000000000000
#046361:00000034240000000000000000000000
#046331:0000001400000000
#046351:00000000000000342400000000000000
#046321:0000000000140000
#046341:00000000000000000000003424000000
#046381:0000000000000013
#0473b1:0023000000000000
#048381:0014000000000000
#048361:00000034240000000000000000000000
#048391:0000001400000000
#048371:00000000000000342400000000000000
#0483a1:0000000000140000
#048381:00000000000000000000003424000000
#048351:0000000000000013
#049321:0023000000000000
#049360:0014000000000000
#049380:00000034240000000000000000000000
#049370:0000001400000000
#049390:00000000000000342400000000000000
#049380:0000000000140000
#0493a0:00000000000000000000003424000000
#049320:0000000000000013
#050350:0023000000000000
#050381:0014000000000000
#050361:00000034240000000000000000000000
#050391:0000001400000000
#050371:00000000000000342400000000000000
#0503a1:0000000000140000
#050381:00000000000000000000003424000000
#050351:0000000000000013
#051321:0023000000000000
#0513b0:0013000000000000
#051380:0000002300000000
#052320:00000014
#052360:0000000000000054
#053320:24
#0533a0:00000014
#053360:0000000000000054
#0543a0:24
#054320:00000014
#054360:0000000000000054
#055320:24
#056360:00000014
#0563a0:0000000000000054
#057360:24
#057360:00000014
#057320:0000000000000054
#058360:24
#059380:13
#0593b0:0023000000000000
#0593a0:0014
#059380:0000000000000000000000000000000000340000000000000000000000000000
#059360:00000000000000000034000024000000
#060320:0013002300000000
#060350:00530000
#060350:0000000000001323
#0613b0:0000132300000000
#061320:00000013
#062360:23
#0623b0:0013002300000000
#062380:00530000
#062320:0000000000001323
#063380:13
#0633b0:0023000000000000
#063320:00001323
#063350:0000000000530000
#064380:0000000000001323
#065320:0000132300000000
#0653b0:00000013
#066370:23
#066320:0013002300000000
#066350:00530000
#0663b0:0000000000001323
#067350:13
#067320:0023000000000000
#067320:0014
#067340:0000000000000000000000000000000000340000000000000000000000000000
#067360:00000000000000000034000024000000
#068360:13000033
#068320:0000003300000000
#069320:0033000000002300
#069360:0033
#068371:0000001300000000
#0683b1:00000023
#069371:0013000000000000
#0693b1:0023
#070370:13000033
#0703b0:0000003300000023
#070361:0000001300000000
#070321:00000023
#070321:0000000000000014
#071361:24
#071361:0014
#0713a1:0000000000240000
#072321:13000033
#072361:0000003300000000
#073361:0033000000003300
#073321:0033
#074321:23
#0743b0:13000033
#074370:0000003300000023
#075360:0014
#075320:0000000000240000
