This file was generated by Ched 2.7.0.0.
#TITLE ""
#ARTIST ""
#DESIGNER ""
#DIFFICULTY 0
#PLAYLEVEL
#SONGID ""
#WAVE ""
#WAVEOFFSET 0
#JACKET ""
#REQUEST "ticks_per_beat 480"
#00002: 4
#BPM01: 144
#00008: 01
#TIL00: ""
#VOLUME: ""
#HISPEED 00
#MEASUREHS 00
#02818:13000013
#02815:0013000000130000
#02812:0000000000000013
#0281b:0023
#02810:41
#02915:0000001300001300
#02918:0000130000130000
#02912:0013000000000000
#0291b:1323
#04718:00140014
#04714:0014
#05115:0000001300000000
#05118:0013
#05112:0013000000001300
#0511b:0013000000001300
#05912:0000001300000000
#05918:0013130000000000
#05915:00000013000000000000000000000000
#0591a:0024
#0121a:14141414
#01215:0013001300130013
#0131a:14
#01314:0013000000000000
#01318:00140000
#01313:0000001300000000
#01316:0014
#01312:0000000000130000
#02715:0013130000000000
#0271b:0000001300000000
#02718:00000013000000000000000000000000
#02712:0024
#06012:1323
#06015:0000000000130000
#06018:00000013
#0601b:0013000000000013
#0601f:21
#06115:0013001300001300
#06118:1323
#06112:00130000
#0611b:0000000000130000
#06110:41
#0621b:0000000000130000
#06218:0013000000001300
#06215:0000000023000013
#06312:1300001300000000
#06318:0013130000000000
#06315:00000013000000000000000000000000
#0631b:0013
#06415:13000013
#06418:0013000000130000
#06412:0000260000000013
#0641b:0023
#06817:0000001300000000
#0681b:13000013
#06917:0013000000000000
#0691b:0013
#07016:0000001300000000
#07012:13
#0701b:0000000000000013
#0521a:24140014
#05218:000000000000000000003400000034000000000000140000
#05217:0014
#0521f:11
#05212:24
#05219:003434
#00012:0013000000000013
#0001b:0013
#00018:0000000000130000
#00015:00000013
#0001a:24
#00118:1313
#00112:00000013
#00115:0000001300130000
#0021b:0013000000000013
#00212:0013
#00215:0000000000130000
#00218:00000013
#00315:13
#00318:0000001300000000
#0031b:0000000000000013
#00312:0024
#0071b:13
#00718:00130000
#00715:13
#00712:0000130000000013
#0071a:003300000033000000000000
#00719:003333000000
#00714:003300000033000000000000
#00713:003333000000
#01412:14141400
#01418:0013001300130000
#01414:00000014
#0141a:0000000000000013
#01512:1414
#01518:0013000000130000
#01514:00140000
#0151a:0000001300000000
#01712:0013000000130000
#0171b:00130000
#01715:0000001300000000
#01718:0013
#02414:000000000000000034140000
#0241a:24
#02412:240000000034000000000000
#02413:000000003400003400000000
#02518:000000000000000034140000
#02519:000000003400003400000000
#0251a:000000000034000000000000
#02612:13333333003333330000000000000000
#0261b:00000000000000001333333333333333
#03118:0013130013000000
#03112:1300001300000000
#03115:00000013000000000000000000000000
#03018:0013000000130000
#0301b:0000000000000013
#03015:00000013
#03012:0023
#03215:13000013
#03218:0013000000130000
#0321b:0000000000000013
#03212:0023
#03318:0000001300001300
#03315:0000130000130000
#0331b:0013000000000000
#03312:1323
#03515:0013130000000000
#0351b:1300001300000000
#03518:00000013000000000000000000000000
#03512:0024
#03415:0013000000130000
#03412:0000000000000013
#03418:00000013
#0341b:0023
#04015:0000000000130000
#04018:00000000000000000000001300000000
#05312:00140014
#05314:000000000000000000003400000034000000000000140000
#05315:0014
#05313:003434
#0541a:00140014
#05418:000000000000000000003400000034000000000000140000
#05417:0014
#05419:003434
#05512:00140014
#0551a:0014
#05619:000000000000000000003400000034000000000000140000
#05617:00140014
#0561a:2414
#05612:24
#05618:003434
#05713:000000000000000000003400000034000000000000140000
#05715:00140014
#05712:0014
#05714:003434
#07118:1313
#07112:00130000
#07115:0013001300000000
#0711b:0000000000130000
#0741b:13
#07417:0000001300000000
#07412:0000000000000013
#07515:1313
#0751b:00130000
#07518:0013001300000000
#07512:0000000000130000
#06518:0013001300001300
#06515:1323
#0651b:00130000
#06512:0000000000130000
#06612:0000000000130000
#06615:0013000000001300
#06618:0000000023000013
#0671b:1300001300000000
#06715:0013130000000000
#06718:00000013000000000000000000000000
#06712:0024
#04218:13131300
#0421b:0000001300000000
#04215:0013001300130013
#04212:23000013
#0431b:0013000013000000
#04315:00130013
#04312:0000001300000013
#04318:1300001300130000
#00418:0013130000130000
#00412:2300001300000013
#00415:00000013000000001300000000000000
#00410:41
#0051b:1300001300000013
#00515:0013130000130000
#00518:00000013000000001300000000000000
#0061b:0000000000130000
#00618:1313
#00615:0013001300000000
#00612:00130000
#00812:0013000000130000
#0081b:1300000000000013
#00818:0000131313000000
#00815:00000000001300130000000000000000
#0091b:0013000000130000
#00912:1300000000000013
#00915:0000131313000000
#00918:00000000001300130000000000000000
#01012:0000000000130000
#01015:13000000000000001300000000001333
#01018:0013001300000000
#0101b:00000000130000000000000000001333
#01112:00000013000000000000000000000000
#01118:00000013000000000000000000000000
#01115:33333300333333330000000000000000
#0111b:33333300333333330000000000000000
#0181b:13000000000000000000001300000000
#01815:0013130000000000
#01818:00000013000013333333330033333333
#01912:0013000000130000
#0191b:00130000
#01915:0000001300000000
#01918:0013
#0201a:000000000000000034140000
#02019:000000003400003400000000
#02018:000000000034000000000000
#02112:000000000000000034140000
#02113:000000003400003400000000
#02114:000000000034000000000000
#0221a:000000000000000034140000
#02214:24
#02219:000000003400003400000000
#02218:000000000034000000000000
#02314:00140014
#02318:0014
#07216:0000001300000000
#07212:13000013
#07316:0013000000000000
#07312:0013
#04812:26
#04810:41
#04118:0000000000230000
#04115:00000000000000000000002300000000
#04112:0023
#04418:26
#0361a:00330000000033000033000000000000
#03618:00000033000000000000003300000000
#03619:00003300003300000000330000000000
#0361b:00000000000000330000000000000000
#03713:00330000000033000033000000000000
#03715:00000033000000000000003300000000
#03714:00003300003300000000330000000000
#03712:00000000000000330000000000000000
#03914:00330000000033000033000000000000
#03912:00000033000000000000003300000000
#03913:00003300003300000000330000000000
#03915:00000000000000330000000000000000
#03819:00330000000033000033000000000000
#0381b:00000033000000000000003300000000
#0381a:00003300003300000000330000000000
#03818:00000000000000330000000000000000
#03810:41
#01610:41
#04758:00140014
#04754:0014
#0125a:14141414
#0135a:14
#01358:00140000
#01356:0014
#06452:00160000
#06857:0000005300000000
#0685b:63000063
#06957:0053000000000000
#0695b:0063
#07056:0000006300000000
#07052:53
#0525a:00640054
#05258:0000000000000024
#05257:0054
#0605b:0053000000000000
#00052:0053000000000000
#00158:53
#00152:00000053
#0025b:0063000000000000
#00355:63
#00352:00000014
#0075b:6313
#00758:00230000
#00755:6313
#00752:00230000
#01452:14141400
#01454:00000014
#01552:1414
#01554:00140000
#01752:0000000000130000
#02454:00000064
#02552:14
#02558:00000054
#02652:53
#0265b:0063
#02752:00000014
#02855:0063000000000000
#03058:0053000000000000
#03158:0053
#02955:00000063
#03258:0053000000000000
#03455:0063000000000000
#03358:00000053
#03552:00000014
#03658:0000000000000013
#03755:0000000000000013
#03952:0000000000000013
#0385b:0000000000000013
#04058:00000000000000000000001300000000
#0405b:0013
#04155:00000000000000000000001300000000
#04152:0013
#04458:16
#0535a:14
#05352:00540064
#05354:0000000000000024
#05355:0064
#05452:14
#0545a:00640054
#05458:0000000000000024
#05457:0054
#0555a:1414
#05552:00140014
#05757:14
#05753:0000000000000024
#05755:00640054
#05752:0054
#05659:0000000000000024
#05657:00540064
#0565a:0064
#0595a:00000014
#06155:00000053
#0745b:63
#07457:0000005300000000
#06258:0053000000000000
#06558:00000063
#06655:0063000000000000
#06752:00000014
#0635b:0053
#00458:0000000000130000
#00555:0000000000130000
#0065b:0000000000130000
#00852:0000000000130000
#0095b:0000000000130000
#01052:0000000000130000
#01055:0000000000000063
#0105b:0000000000000063
#01152:00000023000000000000000000000000
#01155:0000000000130000
#01158:00000023000000000000000000000000
#0115b:0000000000130000
#01858:0000005300000000
#0185b:00000000000000000000002300000000
#01952:0000000000130000
#0205a:00000064
#02152:00000054
#02158:14
#0225a:00000064
#02254:14
#02354:00140014
#02358:1414
#07256:0000006300000000
#07252:53000053
#07356:0063000000000000
#07352:0053
#000320:0013000000000000
#000350:0000002300000000
#001380:13
#0013b0:00230000
#001320:00000013
#002350:23
#0023b0:0013000000000000
#002380:0000002300000000
#003350:13
#003320:00230000
#003320:00000000000000001434000024000000
#003340:0000000000000000000000000000000000340000000000000000000000000000
#0073b0:1323
#0073a0:003300000033000000000000
#007390:003333000000
#007380:00330000
#007351:1323
#007341:003300000033000000000000
#007331:003333000000
#007321:00330000
#010351:00000000000000000000000000001333
#011351:33333300333333333300230000000000
#011321:00000033000000000000000000000000
#0103b0:00000000000000000000000000001333
#0113b0:33333300333333333300230000000000
#011380:00000033000000000000000000000000
#016350:1323
#016340:00330000000000330000000000000000
#016330:0033003300000000
#016320:00000033003300000000000000000000
#016381:0013
#016391:00000000000000000033000000000033
#0163a1:0000000000330033
#0163b1:00000000000000000000003300330000
#017381:23
#018381:00000000000013333333330033333333
#0183b1:00000000000000000000003300000000
#019381:23
#0203a1:000000140000000034340000
#020391:000000003400003400000000
#020381:000000000034340000000000
#021381:24
#021321:000000140000000034340000
#021331:000000003400003400000000
#021341:000000000034340000000000
#022341:24
#0223a1:000000140000000034340000
#022391:000000003400003400000000
#022381:000000000034340000000000
#023381:24
#024341:000000140000000034340000
#024331:000000003400003400000000
#024321:000000000034340000000000
#025321:24
#025381:000000140000000034340000
#025391:000000003400003400000000
#0253a1:000000000034340000000000
#0263a1:24
#026320:13333333003333330000000000000000
#026350:0023
#0263b1:00000000000000001333333333333333
#027381:23
#027321:00000000000000001434000024000000
#027341:0000000000000000000000000000000000340000000000000000000000000000
#028351:0013000000000000
#028321:0000002300000000
#029351:00000013
#030321:23
#030381:0013000000000000
#0303b1:0000002300000000
#031381:0013
#0313b1:00000023
#032381:0013000000000000
#0323b1:0000002300000000
#033381:00000013
#0343b1:23
#034351:0013000000000000
#034321:0000002300000000
#035321:00000000000000001434000024000000
#035341:0000000000000000000000000000000000340000000000000000000000000000
#0363b1:13000000000000333300000000000000
#0363a1:00330000000033000033000000000000
#036391:00003300003300000000330000000000
#036381:00000033330000000000003333002300
#037321:13000000000000333300000000000000
#037331:00330000000033000033000000000000
#037341:00003300003300000000330000000000
#037351:00000033330000000000003333002300
#038381:13000000000000333300000000000000
#038391:00330000000033000033000000000000
#0383a1:00003300003300000000330000000000
#0383b1:00000033330000000000003333002300
#039351:13000000000000333300000000000000
#039341:00330000000033000033000000000000
#039331:00003300003300000000330000000000
#039321:00000033330000000000003333002300
#0403b1:13000000003333332300000000000000
#040381:00003333000000000000000000000000
#041321:13000000003333332300000000000000
#041351:00003333000000000000000000000000
#044341:0014000034340000
#044331:00000034000000340000003400000000
#044321:0000343400003424
#045381:0014000034340000
#045391:00000034000000340000003400000000
#0453a1:0000343400003424
#046341:0014000034340000
#046331:00000034000000340000003400000000
#046321:0000343400003424
#048381:0014000034340000
#048391:00000034000000340000003400000000
#0483a1:0000343400003424
#049341:0014000034340000
#049331:00000034000000340000003400000000
#049321:0000343400003424
#050381:0014000034340000
#050391:00000034000000340000003400000000
#0503a1:0000343400003424
#0523a1:00140034
#052391:003434
#052381:000000000000000000003400000034000000000000540000
#052371:0034
#0533a1:24
#053321:00140034
#053331:003434
#053341:000000000000000000003400000034000000000000540000
#053351:0034
#054321:24
#0543a1:00140034
#054391:003434
#054381:000000000000000000003400000034000000000000540000
#054371:0034
#0553a1:24
#056371:00140034
#056381:003434
#056391:000000000000000000003400000034000000000000540000
#0563a1:0034
#057371:24
#057351:00140034
#057341:003434
#057331:000000000000000000003400000034000000000000540000
#057321:0034
#058351:24
#0583a0:14343434240000000000000000000000
#058341:00000000143434342400000000000000
#058380:00000000000000001434343424000000
#058321:00000000000000000000000014343434
#059321:24
#0593a1:00000000000000001434000024000000
#059381:0000000000000000000000000000000000340000000000000000000000000000
#0603b1:0013000000000000
#060381:0000002300000000
#061351:00000013
#062321:23
#062381:0013000000000000
#0623b1:0000002300000000
#0633b1:0013
#063381:00000023
#065381:00000013
#0663b1:23
#066351:0013000000000000
#066321:0000002300000000
#067321:00000000000000001434000024000000
#067341:0000000000000000000000000000000000340000000000000000000000000000
#0683b1:13000033
#068371:0000003300000000
#069371:0033000000002300
#0693b1:0033
#070321:13000023
#070361:0000003300000000
#072321:13000033
#072361:0000003300000000
#073361:0033000000002300
#073321:0033
#0743b1:13000023
#074371:0000003300000000
