This file was generated by Ched 2.7.0.0.
#TITLE ""
#ARTIST ""
#DESIGNER ""
#DIFFICULTY 0
#PLAYLEVEL
#SONGID ""
#WAVE ""
#WAVEOFFSET 0
#JACKET ""
#REQUEST "ticks_per_beat 480"
#00002: 4
#BPM01: 144
#00008: 01
#TIL00: "64'480:0.01, 64'640:1"
#VOLUME: ""
#HISPEED 00
#MEASUREHS 00
#02716:00000014000000142400000000000000
#02712:1314130000000000
#0271b:13
#0271a:0000001400000000
#02618:00001200000000000000001200000000
#0261a:00000012000000000012000000000000
#0261c:00120000000000000000000000000000
#02617:00000000000012000000000000000012
#02619:00000000000000120000000000120000
#0261b:00000000001200000000000000000000
#02616:0000000000120000
#02615:0000000000000012
#02612:28272625
#02816:000000130000000000000000000000001300000000000000
#0281b:130000130000000000000000000000130013000000000000
#02817:0000001300000013
#02812:1600000000000000333333330000000024000000000000000000000000000000
#0281a:0024
#02810:41
#02916:13
#0291b:1300001300000000
#02917:000000130013000000000000000000130000000000000000
#02912:000013000000240000130000
#0291a:0024
#02312:23141516
#02316:14140000
#02317:0015
#02318:00000016
#04212:1300130000130000
#0421b:23001300000000000000000000130000
#04216:00000000000000000000001414001414
#04217:0000001300000000
#04416:00001400000000000000001200000000
#04412:2c000014000000000000000000000000
#04418:0000000000120000
#04417:0000001300000000
#04414:00000000000000130000000000000000
#04516:1814001300120000
#0451a:00000014000000000000000000000000
#04518:00000000000000000000001200000000
#04519:00000000000000130000000000000000
#01216:1814181418141814
#01212:24141414
#01316:1814001418001400
#01312:1400180014140000
#0131a:0000140000000014
#04812:13001616000015150000141400001300
#04817:0015
#04818:26160000
#04816:00000014
#0481b:0000000000000013
#04810:41
#05012:1316000000140013
#05014:00000016000000000000001400000000
#05016:00160014
#05019:0000001500000000
#05017:00000000000000150000000000000000
#05015:0015
#0501b:0000000000000013
#05018:16
#02015:000000000013001300160000
#02016:000000000000000000000014
#02018:001313
#0201b:00231323
#0201a:24
#02012:0023
#05512:00140014
#0551a:0014
#05516:23160016
#05514:0016
#0551b:13
#06018:000013
#06012:00001300000000130000130000001300
#06015:000000000000000000000000000000000013000000000000
#06017:0013000000000000
#0601b:1300001300000000
#06016:1300000000000000333333330000000024000000000000000000000000000000
#0601f:21
#06019:0000000000000000000000000000000000000000000000000033000000000000
#06116:1313000024001400
#0611b:131300000000
#06112:000000000013000000130000000000000000000000000000
#06110:41
#0641b:130013
#06416:0000000024130000
#06412:0000000000002c0000000000000000000013000000130000
#06419:0000000013000000000000000000000000000000000000000033000000000000
#06414:0013000000000000
#00012:0012000012000012
#0001c:0012000000000000
#00018:000000000000000000120000000000001200000000000000
#0001a:0012
#00014:2800000000120000
#00016:000000000000000000000000000000000012000000000000
#0011c:1200000000120000
#00114:120000000012000000000000000000000000000000000000
#00116:0012001200120012
#00112:00001212
#00118:00001212
#0011a:001200000000
#00417:00130000000000000000000000000000
#00414:0013000000000000
#00419:00000013000000000000000000000000
#00416:00000000130000000013000000000000
#0041b:00000000001300001300000000000000
#00412:2300000013000013
#00418:0000001300000000
#00415:00000000000000130000000000000000
#00410:41
#00515:0000000000000013
#00518:00000000000000000000000000000013
#00512:00130013000013001300000000000000
#00516:00001300000000000013000000000000
#0051b:1300131300000000
#00517:00000000001300001300000000000000
#0061b:00130000130000001300000000000000
#00618:00001300000000130000000000000000
#00615:00000013000013000000000000000000
#00612:13000000001300001300000000000000
#00616:00000000000000000013000000000000
#00617:000000000000000000000000000000000000000000000000000000000000000000000000000000000000000000000000000000000000000000000000000000000000000000000000000000000000000000000000000000000000000000000000000000000000000000000000000000000000000000000000000000000000000000000000000000000000000000000000000000000000000000000000000000000000000000000000000000000000000000000000000000000000000000000000000000000000000000000000000000000000000000000000000000000000000000000000000000000000000000000000000000000000000000000000000000000000000000000000000000000000000000000000000000000000000000000000000000000000000000000000000000000000000000000000000000000000000000000000000000000000000000000000000000000000000000000000000000000000000000000000000000000000000000000000000000000000000000000000000000000000000000000000000000000000000000000000000000000000000000000000000000000000000000000000000000000000000000000000000000000000000000000000000000000000000000000000000000000000000000000000000000000000000000000000000000000000000000000000000000000000000000000000000000000000000000000000000000000000000000000000000000000000000000000000000000000000000000000000000000000000000000000000000000000000000000000000000000000000000000000000000000000000000000000000000000000000000000000000000000000000000000000000000000000000000000000000000000000000000000000000000000000000000000000000000000000000000000000000000000000000000000000000000000000000000000000000000000000000000000000000000000000000000000000000000000000000000000000000000000000000000000000000000000000000000000000000000000000000000000000000000000000000000000000000000000000000000000000000000000000000000000000000000000000000000000000000000000000000000000000000000000000000000000000000000000000000000000000000000000000000000000000000000000000000000000000000000000000000000000000000000000000000000000000000000000000000000000000000000000000000000000000000000000000000000000000000000000000000000000000000000000000000000000000000000000000000000000000000000000000000000000000000000000000000000000000000000000000000000000000000000000000000000000000000000000000000000000000000000000000000000000000000000000000000000000000000000000000000000000000000001300000000000000000000000000000000000000000000000000000000000000000000000000000000000000000000000000000000000000000000000000000000000000000000000000000000000000000000000000000000000000000000000000000000000000000000000000000000000000000000000000000000000000000000000000000000000000000000000000000000000000000000000000000000000000000000000000000000000000000000000000000000000000000000000000000000000000000000000000000000000000000000000000000000000000000000000000000000000000000000000000000000000000000000000000000000000000000000000000000000000000000000000000000000000000000000000000000000000000000000000000000000000000000000000000000000000000000000000000000000000000000000000000000000000000000000000000000000000000000000000000000000000000000000000000000000000000000000000000000000000000000000000000000000000000000000000000000000000000000000000000000000000000000000000000000000000000000000000000000000000000000000000000000000000000000000000000000000000000000000000000000000000000000000000000000000000000000000000000000000000000000000000000000000000000000000000000000000000000000000000000000000000000000000000000000000000000000000000000000000000000000000000000000000000000000000000000000000000000000000000000000000000000000000000000000000000000000000000000000000000000000000000000000000000000000000000000000000000000000000000000000000000000000000000000000000000000000000000000000000000000000000000000000000000000000000000000000000000000000000000000000000000000000000000000000000000000000000000000000000000000000000000000000000000000000000000000000000000000000000000000000000000000000000000000000000000000000000000000000000000000000000000000000000000000000000000000000000000000000000
#01118:00130000130013000000000000000000
#01115:13000000001300130000000000000000
#01112:00001313000000001300000000000000
#0111b:0013
#01117:00000000000000000013000000000000
#01116:000000000000000000000000000000000000000000000000000000000000000000000000000000000000000000000000000000000000000000000000000000000000000000000000000000000000000000000000000000000000000000000000000000000000000000000000000000000000000000000000000000000000000000000000000000000000000000000000000000000000000000000000000000000000000000000000000000000000000000000000000000000000000000000000000000000000000000000000000000000000000000000000000000000000000000000000000000000000000000000000000000000000000000000000000000000000000000000000000000000000000000000000000000000000000000000000000000000000000000000000000000000000000000000000000000000000000000000000000000000000000000000000000000000000000000000000000000000000000000000000000000000000000000000000000000000000000000000000000000000000000000000000000000000000000000000000000000000000000000000000000000000000000000000000000000000000000000000000000000000000000000000000000000000000000000000000000000000000000000000000000000000000000000000000000000000000000000000000000000000000000000000000000000000000000000000000000000000000000000000000000000000000000000000000000000000000000000000000000000000000000000000000000000000000000000000000000000000000000000000000000000000000000000000000000000000000000000000000000000000000000000000000000000000000000000000000000000000000000000000000000000000000000000000000000000000000000000000000000000000000000000000000000000000000000000000000000000000000000000000000000000000000000000000000000000000000000000000000000000000000000000000000000000000000000000000000000000000000000000000000000000000000000000000000000000000000000000000000000000000000000000000000000000000000000000000000000000000000000000000000000000000000000000000000000000000000000000000000000000000000000000000000000000000000000000000000000000000000000000000000000000000000000000000000000000000000000000000000000000000000000000000000000000000000000000000000000000000000000000000000000000000000000000000000000000000000000000000000000000000000000000000000000000000000000000000000000000000000000000000000000000000000000000000000000000000000000000000000000000000000000000000000000000000000000000000000000000000000000000000000001300000000000000000000000000000000000000000000000000000000000000000000000000000000000000000000000000000000000000000000000000000000000000000000000000000000000000000000000000000000000000000000000000000000000000000000000000000000000000000000000000000000000000000000000000000000000000000000000000000000000000000000000000000000000000000000000000000000000000000000000000000000000000000000000000000000000000000000000000000000000000000000000000000000000000000000000000000000000000000000000000000000000000000000000000000000000000000000000000000000000000000000000000000000000000000000000000000000000000000000000000000000000000000000000000000000000000000000000000000000000000000000000000000000000000000000000000000000000000000000000000000000000000000000000000000000000000000000000000000000000000000000000000000000000000000000000000000000000000000000000000000000000000000000000000000000000000000000000000000000000000000000000000000000000000000000000000000000000000000000000000000000000000000000000000000000000000000000000000000000000000000000000000000000000000000000000000000000000000000000000000000000000000000000000000000000000000000000000000000000000000000000000000000000000000000000000000000000000000000000000000000000000000000000000000000000000000000000000000000000000000000000000000000000000000000000000000000000000000000000000000000000000000000000000000000000000000000000000000000000000000000000000000000000000000000000000000000000000000000000000000000000000000000000000000000000000000000000000000000000000000000000000000000000000000000000000000000000000000000000000000000000000000000000000000000000000000000000000000000000000000000000000000000000000000000000000000000000000000000000
#0021c:1212000012000012
#00212:0012000000000000
#00216:000000000000000000120000000000001200000000000000
#00214:0012
#0021a:0000000000120000
#00218:000000000000000000000000000000000012000000000000
#00312:12
#0031a:120000000012000000000000000000000000000000000000
#00318:0012001200000000
#00314:001200000000
#0031b:0000000000000013
#00316:0024
#01015:00000013000013000013000000000000
#01018:00001300001300000000130000000000
#0101b:00130000000000130000000000001313
#01012:13131300
#00918:00000000001300000000000000000013
#00915:0000001300000013
#00916:1313
#00912:00130000
#0091b:00000000000000131300000000000000
#00917:00001300000000000013000000000000
#0081b:13000013001300001300000000000013
#00812:0013001313000013
#00817:00000000000000130013000000000000
#00816:00130000
#00712:1400140014000013
#0071a:14141414
#00716:000000001400000000001400000000140000000000000000
#00714:001400000000000000000000
#00718:001400
#01416:0014001400141814
#01412:18181814
#0141a:14141400
#01512:18181814
#01516:0014001400140014
#0151a:14141400
#01916:00000014140014001400140012001200
#01912:14141400
#0191a:0014001400140000
#01918:00000000000000000000000000120012
#02418:261414
#02416:000000000014001400000014
#02412:26000012120012000000120000000000
#02414:0024
#0241a:00240024
#02514:001414
#02516:000000000014001400000014
#0251c:00000012120012000000120000000000
#0251a:24
#02518:0024
#02512:00240024
#01615:00130000001300001300130000130000
#01618:13001300000013000013000000001300
#0161b:00000013000000130000001300000013
#01612:00000013000000000000001300000000
#01610:41
#01716:0000141414140000
#01716:0000000000140000
#01716:0000000000140000
#01712:00000000000000140000140000000000
#0171a:0014
#05916:00000014000000142400000000000000
#0591b:13130000
#0591a:0014000000000000
#05912:1300001400000000
#05816:28001200000000000000001200000000
#05814:00000012000000000012000000000000
#05812:00120000000000000000000000000000
#05817:00000000270012000000000000000012
#05815:00000000000000120000000000120000
#05813:00000000001200000000000000000000
#05818:0000000026120000
#05819:0000000000002512
#05614:001414
#05612:260000000014001400000014
#0561c:00000012120012000000120000000000
#05616:00242424
#05618:26
#05712:00000012120012000000120000000000
#0571a:000000000014001400000014
#05718:001414
#05716:24242424
#03018:16
#03017:000000130000000000000000000000001300000000000000
#03012:000000130000000000000000240000130013000000000000
#03016:0000001300000013
#0301a:0024
#0301b:0000000000000000333333330000000000000000000000000000000000000000
#03117:13000000000000130000000000000000
#03112:1300001324000000
#03116:000000130013000000000000000000130000000000000000
#0311b:000013000000000000130000
#0311a:0024
#03212:1613000024000000
#0321b:0000001300130013
#03215:000013
#03218:000000000000000000000000000000000013000000000000
#03217:0013000000000000
#0321a:0024
#03216:0000000000000000333333330000000000000000000000000000000000000000
#03612:00000000000000000013001313000000
#03616:0000000013130000
#0361b:1313000000001300
#03614:00000000001300130000000000000000
#03617:00130013000000000000000000000000
#03619:0000131300000000
#03618:0000000000000013
#0371b:00000000000000000013001313000000
#03717:0000000013130000
#03712:1313000000001300
#03719:00000000001300130000000000000000
#03716:00130013000000000000000000000000
#03714:0000131300000000
#03715:0000000000000013
#03316:0000000000130000
#03317:1313001300000000
#03312:130013000000240000130000
#0331b:000000000013000000000000000000000000000000000000
#0331a:0024
#03418:160013
#03412:0000001324130013
#03415:000000000000000000000000000000000013000000000000
#0341b:0013000000000000
#03416:0013000000000000
#0341a:0024
#03417:0000000000000000333333330000000000000000000000000000000000000000
#03516:1313001324000000
#0351b:130000000000000013000000000000000000000000130000000000000000000000000000000000000000000000000000
#03512:000000000013000000000000000000000000000000000000
#03816:00130000140000000000000014001400
#03818:0014000000000000
#03814:00000013000014000000140000000000
#03812:00000000001300001400000000000000
#03817:00000000000000130000000000000000
#0381a:14
#03819:00000000000000000013000000000000
#0381b:00000000000000000000001300000000
#03810:41
#03917:00130000000000000000000000000000
#03914:00001400000000000013000000000000
#03919:00000013000000000000000000000000
#03918:0000001400140000
#0391b:00000000001300000000000000000000
#03916:00000000140000130000000014001400
#0391a:0014
#03912:14000000000000000000001300000000
#04012:00000019000000000000001600001300
#0401b:00001300000000130000000000001300
#04015:1900001316000000
#04018:00000000001300000000130000000000
#04115:00000019001300002600230000000000
#04112:19001300000000130000000000000000
#04118:00000000000013000000002600000000
#0431b:13130000
#04312:1313000000000000
#04316:00000000000013000000141414141414
#0491a:00000000000000000000141400000000
#04918:00001616000000000000000000000000
#04919:00000000000015150000000000000000
#04914:0015
#04912:1600160000000013
#04916:00000014
#0491b:1300000000000013
#0511b:1300131300130000
#05112:1613000013001300
#05117:0013000000001300
#05116:0000001300130013
#02116:140000000000000000000014
#02115:000000001300000013160000
#02118:000000000013001300000000
#02112:23231323
#0211b:00132300
#06817:0000001300001300
#06812:0000131300001300
#06816:13
#0681b:1300000000130000
#0681a:0024
#06916:1313000000000000
#0691b:0013000000000000
#06917:0000001300000000
#06912:0013
#0691a:00002414
#07016:0000001300001300
#0701b:0000131300001313
#07017:13
#07012:1300000024130000
#07112:13000000001300002400000000001300
#07115:00130000160013000000130000000000
#07118:00001300000000130000000000000000
#0711b:00000013000000001300000000000000
#07117:00000013
#02215:000000000013001300160000
#02216:240000000000000000000014
#02218:001313
#0221b:23231323
#02212:00132300
#06212:1300001300000000
#0621b:00001300000000130000130000001300
#06216:0013000024000000
#06218:000000000000000000000000000000000013000000000000
#06215:000013
#06217:0000000000000000333333330000000000000000000000000000000000000000
#06214:0000000000000000000000000000000000000000000000000033000000000000
#06317:1313000000000000
#06312:130000000000000013000000000000000000000000130000000000000000000000000000000000000000000000000000
#06316:00002414
#0631b:000000000013000000130000000000000000000000000000
#0651b:1313001300130000
#06512:000013000000000000140000
#06517:000000000013000000000000000000000000000000000000
#06516:0024
#06617:1313000000130000
#06616:0000001324000000
#06612:000000130000000000000000000000001300000000000000
#0661b:000000000000000000000000000000000000000000000000330000330000330000330000000000000000130000000000000000000000000000000000000000000000000013000000000000000000000000000000130000000000000000000000
#06614:0000000000000000000000000000000000000000000000000033000000000000
#06712:1313001300000000
#06716:000000000013000000000000240000000000000000000000
#0671b:000000000000000013000000000000000000000000130000000000000000000000000000000000000000000000000000
#07518:00130000000013001600130000000000
#0751b:00000000001300000000000000000000
#07512:16000013000000001300000016000000
#07515:00001300160000130000000000000000
#07418:00000000000000000000000000000013
#0741b:0000000000000013
#07417:00000013000000000013000000000000
#07412:1300001300001300
#07216:00000013000000000013000000000013
#0721b:1300001300001300
#07212:16000016
#07312:0016000000160000
#07316:00000000001300000000000000000000
#07317:00000013
#0731b:0013000013000000
#05217:001300
#05219:000000000013000000000000
#05212:00002313
#0521b:000000230000130000000013
#05216:240013
#05214:000000000000001300000000
#05215:00130000
#0521f:11
#05218:00000023
#0531b:13002313
#05316:231300
#05314:000000000013000000000000
#05312:000000230000130000000013
#05317:000013
#05319:000000000000001300000000
#05318:00130000
#05315:00000023
#05412:13002313
#05417:231300
#05419:000000000013000000000000
#0541b:000000230000130000000013
#05416:000013
#05414:000000000000001300000000
#05415:00130000
#05418:00000023
#0181a:00000000000000001400000000140000
#01812:16000000160014000000001400000000
#01818:16000000160000000000140000000014
#01814:00000000000000000014000000001400
#01816:00001414000000140000000014000000
#0471b:0000001313000000
#04715:00190019
#04712:0013130019001300
#04717:0000001300000000
#04716:1813000000000000
#04612:18000000000000000000001200000000
#0461a:0014000000000000
#04616:00000014000013000000000000000000
#04614:0000000000120000
#04613:00000000000000130000000000000000
#06452:001c0000
#02856:0063000000000000
#02452:16
#02458:16
#02352:00444546
#02356:14440000
#02357:0045
#02358:00000046
#01256:48484848
#02055:00000056
#0205a:14
#05552:00340034
#0555a:0044
#05556:00360036
#05554:0046
#0555b:13
#00052:0052000000000000
#00054:18
#00457:0000000000130000
#00452:0000000053330053
#0045b:0023
#00456:00000000000000000023000000000000
#00152:00000062
#00156:0000000000000022
#0025c:0062000000000000
#00356:00000014
#0035b:0000000000000063
#00552:0000000053330000
#00557:0053
#0055b:0000000000130000
#00556:00000000000000000023000000000000
#00652:0000000053330000
#00656:00000000000000000023000000000000
#0065b:0000000063430000
#00657:000000000000000000000000000000000000000000000000000000000000000000000000000000000000000000000000000000000000000000000000000000000000000000000000000000000000000000000000000000000000000000000000000000000000000000000000000000000000000000000000000000000000000000000000000000000000000000000000000000000000000000000000000000000000000000000000000000000000000000000000000000000000000000000000000000000000000000000000000000000000000000000000000000000000000000000000000000000000000000000000000000000000000000000000000000000000000000000000000000000000000000000000000000000000000000000000000000000000000000000000000000000000000000000000000000000000000000000000000000000000000000000000000000000000000000000000000000000000000000000000000000000000000000000000000000000000000000000000000000000000000000000000000000000000000000000000000000000000000000000000000000000000000000000000000000000000000000000000000000000000000000000000000000000000000000000000000000000000000000000000000000000000000000000000000000000000000000000000000000000000000000000000000000000000000000000000000000000000000000000000000000000000000000000000000000000000000000000000000000000000000000000000000000000000000000000000000000000000000000000000000000000000000000000000000000000000000000000000000000000000000000000000000000000000000000000000000000000000000000000000000000000000000000000000000000000000000000000000000000000000000000000000000000000000000000000000000000000000000000000000000000000000000000000000000000000000000000000000000000000000000000000000000000000000000000000000000000000000000000000000000000000000000000000000000000000000000000000000000000000000000000000000000000000000000000000000000000000000000000000000000000000000000000000000000000000000000000000000000000000000000000000000000000000000000000000000000000000000000000000000000000000000000000000000000000000000000000000000000000000000000000000000000000000000000000000000000000000000000000000000000000000000000000000000000000000000000000000000000000000000000000000000000000000000000000000000000000000000000000000000000000000000000000000000000000000000000000000000000000000000000000000000000000000000000000000000000000000000000000000000002300000000000000000000000000000000000000000000000000000000000000000000000000000000000000000000000000000000000000000000000000000000000000000000000000000000000000000000000000000000000000000000000000000000000000000000000000000000000000000000000000000000000000000000000000000000000000000000000000000000000000000000000000000000000000000000000000000000000000000000000000000000000000000000000000000000000000000000000000000000000000000000000000000000000000000000000000000000000000000000000000000000000000000000000000000000000000000000000000000000000000000000000000000000000000000000000000000000000000000000000000000000000000000000000000000000000000000000000000000000000000000000000000000000000000000000000000000000000000000000000000000000000000000000000000000000000000000000000000000000000000000000000000000000000000000000000000000000000000000000000000000000000000000000000000000000000000000000000000000000000000000000000000000000000000000000000000000000000000000000000000000000000000000000000000000000000000000000000000000000000000000000000000000000000000000000000000000000000000000000000000000000000000000000000000000000000000000000000000000000000000000000000000000000000000000000000000000000000000000000000000000000000000000000000000000000000000000000000000000000000000000000000000000000000000000000000000000000000000000000000000000000000000000000000000000000000000000000000000000000000000000000000000000000000000000000000000000000000000000000000000000000000000000000000000000000000000000000000000000000000000000000000000000000000000000000000000000000000000000000000000000000000000000000000000000000000000000000000000000000000000000000000000000000000000000000000000000000000000000000
#01058:0000000000130000
#00956:6363
#0095b:0000000063430000
#00957:00005300000000000023000000000000
#00952:0000000000130000
#00752:0000000054000053
#0075a:0014
#00756:0000000000240000
#0085b:6300000063430000
#00852:0023
#00857:00000000000000000023000000000000
#00856:0000000000130000
#01456:00000048
#01452:38383800
#01356:4848
#01352:00380000
#01552:38383854
#01556:0000000000000024
#01956:00140000
#01952:5434
#0195a:0000000000440000
#03556:00000014
#02756:00000014
#0275b:63
#02752:00530000
#01756:00140000
#0175a:0044
#01752:0000000000340000
#05952:53
#0595b:00630000
#05956:00000014
#03057:0053000000000000
#03652:00000063
#03655:0000000000000013
#03658:0000000000000013
#0375b:00000053
#03755:0000000000000013
#03758:0000000000000013
#03252:0053000000000000
#0345b:0063000000000000
#03852:0000000000000014
#03856:0000000000006414
#03956:0000000000005414
#0395a:0000000000000014
#04052:00000069000000000000003600000000
#04055:6936
#04155:00000059000000004600000000000000
#04152:59
#04158:00000000000000000000004600000000
#04257:0000004300000000
#04252:53
#0425b:0063000000000000
#0435b:63
#04352:0053000000000000
#04356:0000003300000000
#04858:00460000
#04857:0045
#04856:00000044
#04954:0035
#04952:00360000
#04956:00000034
#05056:00460044
#05055:0035
#05152:0053000000005300
#0515b:0000006300000000
#05156:0000000000000023
#02156:14
#02155:00000066
#05256:14
#05252:00000063
#05652:36
#05658:46
#06857:00000063
#06852:0000006300000000
#0685b:53
#06956:0053000000000000
#06952:0063
#0695a:00000014
#07056:00000053
#0705b:0000005300000053
#07052:63
#0715b:0063
#07157:00000063
#07155:0000000000630000
#02255:00000056
#02256:14
#06356:00000014
#0625b:0063000000000000
#02952:00000013
#0315b:00000013
#03352:00000013
#06052:0053000000000000
#06552:00000014
#06657:0053000000000000
#0115b:0000000063430000
#01157:00000000000000000023000000000000
#01152:0000000053330000
#01156:000000000000000000000000000000000000000000000000000000000000000000000000000000000000000000000000000000000000000000000000000000000000000000000000000000000000000000000000000000000000000000000000000000000000000000000000000000000000000000000000000000000000000000000000000000000000000000000000000000000000000000000000000000000000000000000000000000000000000000000000000000000000000000000000000000000000000000000000000000000000000000000000000000000000000000000000000000000000000000000000000000000000000000000000000000000000000000000000000000000000000000000000000000000000000000000000000000000000000000000000000000000000000000000000000000000000000000000000000000000000000000000000000000000000000000000000000000000000000000000000000000000000000000000000000000000000000000000000000000000000000000000000000000000000000000000000000000000000000000000000000000000000000000000000000000000000000000000000000000000000000000000000000000000000000000000000000000000000000000000000000000000000000000000000000000000000000000000000000000000000000000000000000000000000000000000000000000000000000000000000000000000000000000000000000000000000000000000000000000000000000000000000000000000000000000000000000000000000000000000000000000000000000000000000000000000000000000000000000000000000000000000000000000000000000000000000000000000000000000000000000000000000000000000000000000000000000000000000000000000000000000000000000000000000000000000000000000000000000000000000000000000000000000000000000000000000000000000000000000000000000000000000000000000000000000000000000000000000000000000000000000000000000000000000000000000000000000000000000000000000000000000000000000000000000000000000000000000000000000000000000000000000000000000000000000000000000000000000000000000000000000000000000000000000000000000000000000000000000000000000000000000000000000000000000000000000000000000000000000000000000000000000000000000000000000000000000000000000000000000000000000000000000000000000000000000000000000000000000000000000000000000000000000000000000000000000000000000000000000000000000000000000000000000000000000000000000000000000000000000000000000000000000000000000000000000000000000000000000000000000002300000000000000000000000000000000000000000000000000000000000000000000000000000000000000000000000000000000000000000000000000000000000000000000000000000000000000000000000000000000000000000000000000000000000000000000000000000000000000000000000000000000000000000000000000000000000000000000000000000000000000000000000000000000000000000000000000000000000000000000000000000000000000000000000000000000000000000000000000000000000000000000000000000000000000000000000000000000000000000000000000000000000000000000000000000000000000000000000000000000000000000000000000000000000000000000000000000000000000000000000000000000000000000000000000000000000000000000000000000000000000000000000000000000000000000000000000000000000000000000000000000000000000000000000000000000000000000000000000000000000000000000000000000000000000000000000000000000000000000000000000000000000000000000000000000000000000000000000000000000000000000000000000000000000000000000000000000000000000000000000000000000000000000000000000000000000000000000000000000000000000000000000000000000000000000000000000000000000000000000000000000000000000000000000000000000000000000000000000000000000000000000000000000000000000000000000000000000000000000000000000000000000000000000000000000000000000000000000000000000000000000000000000000000000000000000000000000000000000000000000000000000000000000000000000000000000000000000000000000000000000000000000000000000000000000000000000000000000000000000000000000000000000000000000000000000000000000000000000000000000000000000000000000000000000000000000000000000000000000000000000000000000000000000000000000000000000000000000000000000000000000000000000000000000000000000000000000000000000000000
#07552:0053
#07558:0000000000530000
#07457:00000023000000000023000000000000
#07452:5300005300005300
#07256:00000023000000000023000000000023
#0725b:6300006300006300
#07252:66000066
#07352:0066000000660000
#07356:00000000002300000000000000000000
#07357:00000053
#0735b:0063000063000000
#04452:4c
#0535b:13000053
#05452:13000063
#06756:00000014
#06156:00000014
#01858:00460000
#01852:36
#01652:00000013000000000000001300000000
#0165b:00000013000000000000001300000000
#04755:00490049
#04752:0039
#000320:0012000000000000
#000360:0000002200000000
#0003a0:0000000000001222
#001380:0000122200000000
#001320:00000012
#001360:0000000000000052
#002320:22
#0023c0:0012000000000000
#002380:0000002200000000
#002340:0000000000001222
#003360:0000122200000000
#003360:00000000000000001434000024000000
#003370:000000000000000000000000000000000000000000000000003600000000000000000000000000000000000000000000
#003330:000000000000000000000000003600000000000000000000
#0033b0:0000000000000013
#004370:23
#0043b0:0013
#004370:0000000000230000
#004321:0000000013230000
#004361:00000000000000000053000000000000
#004321:0000000000000013
#005361:23
#005371:0013
#0053b1:0000000000230000
#005320:0000000013230000
#005360:00000000000000000053000000000000
#006320:0000000013230000
#006360:00000000000000000053000000000000
#0063b1:0000000013230000
#006371:000000000000000000000000000000000000000000000000000000000000000000000000000000000000000000000000000000000000000000000000000000000000000000000000000000000000000000000000000000000000000000000000000000000000000000000000000000000000000000000000000000000000000000000000000000000000000000000000000000000000000000000000000000000000000000000000000000000000000000000000000000000000000000000000000000000000000000000000000000000000000000000000000000000000000000000000000000000000000000000000000000000000000000000000000000000000000000000000000000000000000000000000000000000000000000000000000000000000000000000000000000000000000000000000000000000000000000000000000000000000000000000000000000000000000000000000000000000000000000000000000000000000000000000000000000000000000000000000000000000000000000000000000000000000000000000000000000000000000000000000000000000000000000000000000000000000000000000000000000000000000000000000000000000000000000000000000000000000000000000000000000000000000000000000000000000000000000000000000000000000000000000000000000000000000000000000000000000000000000000000000000000000000000000000000000000000000000000000000000000000000000000000000000000000000000000000000000000000000000000000000000000000000000000000000000000000000000000000000000000000000000000000000000000000000000000000000000000000000000000000000000000000000000000000000000000000000000000000000000000000000000000000000000000000000000000000000000000000000000000000000000000000000000000000000000000000000000000000000000000000000000000000000000000000000000000000000000000000000000000000000000000000000000000000000000000000000000000000000000000000000000000000000000000000000000000000000000000000000000000000000000000000000000000000000000000000000000000000000000000000000000000000000000000000000000000000000000000000000000000000000000000000000000000000000000000000000000000000000000000000000000000000000000000000000000000000000000000000000000000000000000000000000000000000000000000000000000000000000000000000000000000000000000000000000000000000000000000000000000000000000000000000000000000000000000000000000000000000000000000000000000000000000000000000000000000000000000000000000000000000005300000000000000000000000000000000000000000000000000000000000000000000000000000000000000000000000000000000000000000000000000000000000000000000000000000000000000000000000000000000000000000000000000000000000000000000000000000000000000000000000000000000000000000000000000000000000000000000000000000000000000000000000000000000000000000000000000000000000000000000000000000000000000000000000000000000000000000000000000000000000000000000000000000000000000000000000000000000000000000000000000000000000000000000000000000000000000000000000000000000000000000000000000000000000000000000000000000000000000000000000000000000000000000000000000000000000000000000000000000000000000000000000000000000000000000000000000000000000000000000000000000000000000000000000000000000000000000000000000000000000000000000000000000000000000000000000000000000000000000000000000000000000000000000000000000000000000000000000000000000000000000000000000000000000000000000000000000000000000000000000000000000000000000000000000000000000000000000000000000000000000000000000000000000000000000000000000000000000000000000000000000000000000000000000000000000000000000000000000000000000000000000000000000000000000000000000000000000000000000000000000000000000000000000000000000000000000000000000000000000000000000000000000000000000000000000000000000000000000000000000000000000000000000000000000000000000000000000000000000000000000000000000000000000000000000000000000000000000000000000000000000000000000000000000000000000000000000000000000000000000000000000000000000000000000000000000000000000000000000000000000000000000000000000000000000000000000000000000000000000000000000000000000000000000000000000000000000000000000000000
#007321:00001424
#007361:0000000000540000
#007321:0000000000000013
#008361:23
#0083b0:13
#008370:0023000000000000
#008320:0013
#008360:0000000000230000
#0083b1:0000000013230000
#008371:00000000000000000053000000000000
#009361:13
#009321:0023000000000000
#009370:0013000000000000
#0093b0:00230000
#009360:0013
#009320:0000000000230000
#0093b1:0000000013230000
#009371:00000000000000000053000000000000
#0113b1:0000000013230000
#011371:00000000000000000053000000000000
#011320:0000000013230000
#011360:000000000000000000000000000000000000000000000000000000000000000000000000000000000000000000000000000000000000000000000000000000000000000000000000000000000000000000000000000000000000000000000000000000000000000000000000000000000000000000000000000000000000000000000000000000000000000000000000000000000000000000000000000000000000000000000000000000000000000000000000000000000000000000000000000000000000000000000000000000000000000000000000000000000000000000000000000000000000000000000000000000000000000000000000000000000000000000000000000000000000000000000000000000000000000000000000000000000000000000000000000000000000000000000000000000000000000000000000000000000000000000000000000000000000000000000000000000000000000000000000000000000000000000000000000000000000000000000000000000000000000000000000000000000000000000000000000000000000000000000000000000000000000000000000000000000000000000000000000000000000000000000000000000000000000000000000000000000000000000000000000000000000000000000000000000000000000000000000000000000000000000000000000000000000000000000000000000000000000000000000000000000000000000000000000000000000000000000000000000000000000000000000000000000000000000000000000000000000000000000000000000000000000000000000000000000000000000000000000000000000000000000000000000000000000000000000000000000000000000000000000000000000000000000000000000000000000000000000000000000000000000000000000000000000000000000000000000000000000000000000000000000000000000000000000000000000000000000000000000000000000000000000000000000000000000000000000000000000000000000000000000000000000000000000000000000000000000000000000000000000000000000000000000000000000000000000000000000000000000000000000000000000000000000000000000000000000000000000000000000000000000000000000000000000000000000000000000000000000000000000000000000000000000000000000000000000000000000000000000000000000000000000000000000000000000000000000000000000000000000000000000000000000000000000000000000000000000000000000000000000000000000000000000000000000000000000000000000000000000000000000000000000000000000000000000000000000000000000000000000000000000000000000000000000000000000000000000000000000000000000005300000000000000000000000000000000000000000000000000000000000000000000000000000000000000000000000000000000000000000000000000000000000000000000000000000000000000000000000000000000000000000000000000000000000000000000000000000000000000000000000000000000000000000000000000000000000000000000000000000000000000000000000000000000000000000000000000000000000000000000000000000000000000000000000000000000000000000000000000000000000000000000000000000000000000000000000000000000000000000000000000000000000000000000000000000000000000000000000000000000000000000000000000000000000000000000000000000000000000000000000000000000000000000000000000000000000000000000000000000000000000000000000000000000000000000000000000000000000000000000000000000000000000000000000000000000000000000000000000000000000000000000000000000000000000000000000000000000000000000000000000000000000000000000000000000000000000000000000000000000000000000000000000000000000000000000000000000000000000000000000000000000000000000000000000000000000000000000000000000000000000000000000000000000000000000000000000000000000000000000000000000000000000000000000000000000000000000000000000000000000000000000000000000000000000000000000000000000000000000000000000000000000000000000000000000000000000000000000000000000000000000000000000000000000000000000000000000000000000000000000000000000000000000000000000000000000000000000000000000000000000000000000000000000000000000000000000000000000000000000000000000000000000000000000000000000000000000000000000000000000000000000000000000000000000000000000000000000000000000000000000000000000000000000000000000000000000000000000000000000000000000000000000000000000000000000000000000000000000000000
#015320:00000014
#015360:0000000000000054
#016320:24
#017320:1424000000000000
#0173a1:0014240000000000
#019321:14
#019361:0024000000000000
#020321:18565855575456545553545253515251220000000000000000000000000000000000000000000000000000000000000000000000000000000000000000000000
#020351:00000016
#020321:000000000000000000000023
#021351:00000016
#0213b1:000000000000000000000023
#022351:00000016
#022321:000000000000000000000023
#024321:0000000000000000000000000000000000000000000000001232320032003200
#025321:22
#0253c1:0000000000000000000000000000000000000000000000001232320032003200
#0263c1:22
#0273b1:13
#027371:0023000000000000
#027321:00130000
#027361:0000002300000000
#027361:00000000000000001434000024000000
#027371:000000000000000000000000000000000000000000000000003600000000000000000000000000000000000000000000
#027331:000000000000000000000000003600000000000000000000
#028361:0013000000000000
#028321:0000000000000000333333332300000000000000000000000000000000000000
#028361:00000013
#028351:0000000000000000000000000000000000000000000000000033000000000000
#028341:00000000000000000000000000330000
#028321:0000000000000023
#029321:00130000
#029361:0000002300000000
#0293b1:0000000000001323
#029360:0000000000000013
#029350:0000000000000000000000000000000000000000000000000000000000330000
#029340:00000000000000000000000000000033
#029330:0000000000000000000000000000000000000000000000000000000000000033
#030320:23
#030370:0013000000000000
#0303b0:0000000000000000333333332300000000000000000000000000000000000000
#030370:00000013
#030380:0000000000000000000000000000000000000000000000000033000000000000
#030390:00000000000000000000000000330000
#0303b0:0000000000000023
#0313b0:00130000
#031370:0000002300000000
#031320:0000000000001323
#031371:0000000000000013
#031381:0000000000000000000000000000000000000000000000000000000000330000
#031391:00000000000000000000000000000033
#0313a1:0000000000000000000000000000000000000000000000000000000000000033
#0323b1:23
#032321:0013000000000000
#032361:0000000000000000333333332300000000000000000000000000000000000000
#032321:00000013
#032331:0000000000000000000000000000000000000000000000000033000000000000
#032341:00000000000000000000000000330000
#032361:0000000000000023
#033361:00130000
#033321:0000002300000000
#033371:00000013
#0333b1:0000000000000023
#033360:0000000000000013
#033350:0000000000000000000000000000000000000000000000000000000000330000
#033340:00000000000000000000000000000033
#033330:0000000000000000000000000000000000000000000000000000000000000033
#034320:23
#0343b0:0013000000000000
#034370:0000000000000000333333332300000000000000000000000000000000000000
#0343b0:00000013
#0343a0:0000000000000000000000000000000000000000000000000033000000000000
#034390:00000000000000000000000000330000
#034370:0000000000000023
#035370:00130000
#0353b0:0000002300000000
#035360:00000000000000001434000024000000
#035330:000000000000000000000000000000000000000000000000003600000000000000000000000000000000000000000000
#035370:000000000000000000000000003600000000000000000000
#036320:00000013
#036350:0000000000000023
#0373b0:00000013
#037380:0000000000000023
#038360:00000014
#038320:0000000000000024
#039360:00000014
#0393a0:0000000000000024
#040350:1923000000000000
#040320:00000019002300000000000000000000
#041320:19
#041380:0023000000000000
#041350:00000019000000000000000000000000
#0413b0:00000000002300000000000000000000
#042320:13
#042360:0023000000000000
#0423b1:0013000000000000
#042371:00230000
#042321:0000001300000000
#042361:0023
#0423b0:0000000013230000
#0433b0:13
#043370:0023000000000000
#043321:0013000000000000
#043361:00230000
#0433b1:0000001300000000
#043371:0023
#043320:0000000013230000
#0443a0:0000142400000000
#0443b0:0000000013230000
#0443c0:0000000000001222
#044321:0000000000000012
#045321:22
#045321:0000142400000000
#045321:0000000013230000
#045321:0000000000001222
#0453c0:0000000000000012
#0463c0:22
#0463a0:0000142400000000
#046380:0000000013230000
#046360:0000000000001222
#046321:0000000000000012
#047321:22
#051321:0013000000000000
#051361:00230000
#0513b1:0000001300000000
#051371:0023
#051321:00000013
#051361:0000000000000053
#052321:23
#052321:00000013
#052361:000000000000000000000023
#0533b1:00000013
#053371:000000000000000000000023
#054321:00000013
#054361:000000000000000000000023
#0563c1:0000000000000000000000000000000000000000000000001232320032003200
#0573c1:22
#057321:0000000000000000000000000000000000000000000000001232320032003200
#058321:22
#059321:13
#059361:0023000000000000
#0593b1:00130000
#059371:0000002300000000
#059361:00000000000000001434000024000000
#059331:000000000000000000000000000000000000000000000000003500000000000000000000000000000000000000000000
#059381:000000000000000000000000003500000000000000000000
#060321:0013000000000000
#060361:0000000000000000333333332300000000000000000000000000000000000000
#0603b1:0000000013230000
#0603b1:00000013
#060391:0000000000000000000000000000000000000000000000000033000000000000
#060371:00000000000000000000000000332300
#061371:00130000
#0613b1:0000002300000000
#061321:0013
#061351:00000000000000000053230000000000
#061380:0000000000130000
#0613b0:00000000000000000000005323000000
#0613b0:0000000000000013
#0613a0:0000000000000000000000000000000000000000000000000000000000330000
#061390:00000000000000000000000000000033
#061380:0000000000000000000000000000000000000000000000000000000000000033
#062370:23
#0623b0:0013000000000000
#062370:0000000000000000333333332300000000000000000000000000000000000000
#062320:0000000013230000
#062320:00000013
#062340:0000000000000000000000000000000000000000000000000033000000000000
#062360:00000000000000000000000000332300
#063360:00130000
#063320:0000002300000000
#0633b0:0013
#063380:00000000000000000053230000000000
#063351:0000000000130000
#063321:00000000000000000000005323000000
#063321:0000000000000013
#063331:0000000000000000000000000000000000000000000000000000000000330000
#063341:00000000000000000000000000000033
#063351:0000000000000000000000000000000000000000000000000000000000000033
#064361:23
#0643b1:0000000013230000
#064371:00000013
#064391:0000000000000000000000000000000000000000000000000033000000000000
#0643b1:00000000000000000000000000332300
#065361:13
#065321:0023000000000000
#065321:00130000
#065361:0000002300000000
#065321:0013
#065361:00000000000000000053230000000000
#065371:00000013
#0653b1:00000000000000000000000000532300
#065360:0000000000000013
#065350:0000000000000000000000000000000000000000000000000000000000330000
#065340:00000000000000000000000000000033
#065330:0000000000000000000000000000000000000000000000000000000000000033
#066320:23
#066370:0013000000000000
#0663b0:0000000000000000333333332300000000000000000000000000000000000000
#066320:0000000013230000
#066360:00000013
#066340:0000000000000000000000000000000000000000000000000033000000000000
#066320:00000000000000000000000000332300
#067370:13
#0673b0:0023000000000000
#0673b0:00130000
#067370:0000002300000000
#067360:00000000000000001434000024000000
#067380:000000000000000000000000000000000000000000000000003500000000000000000000000000000000000000000000
#067330:000000000000000000000000003500000000000000000000
#0683b0:13
#068370:00230000
#068320:0000001300000000
#068360:0000000000230000
#068370:00000013
#0693b0:23
#069360:0013000000000000
#069320:0000002300000000
#069320:0013
#069360:00000023
#070320:13
#070360:00230000
#0703b0:0000001300000000
#070370:0000000000230000
#070360:00000013
#070320:0000000000000023
#0703b1:0000000000000013
#071371:23
#0713b1:0013
#071381:0000000000230000
#071350:0000000000130000
#071320:00000023
#071371:00000013
#0713b1:0000000000000023
#072321:1653230000000000
#0723b0:1300003300003300
#072360:00000053000000000053000000000053
#0733b0:0033000033000000
#073360:00000000005300000000000000000000
#073370:00000033
#0743b0:23
#072321:0000000000001653
#073321:23
#073321:0016532300000000
#073321:0000000000165323
#074321:1300003300003300
#074371:00000053000000000053000000000000
#074361:0000000000000023
#075321:0013
#075351:0000000000230000
#075380:0000000000130000
#0753b0:00000023
