This file was generated by Ched 2.7.0.0.
#TITLE ""
#ARTIST ""
#DESIGNER ""
#DIFFICULTY 0
#PLAYLEVEL
#SONGID ""
#WAVE ""
#WAVEOFFSET 0
#JACKET ""
#REQUEST "ticks_per_beat 480"
#00002: 4
#BPM01: 144
#00008: 01
#TIL00: ""
#VOLUME: ""
#HISPEED 00
#MEASUREHS 00
#04718:00140014
#04718:00000014
#04714:1414
#01212:1414
#0121a:00140014
#01312:14
#01318:00140000
#01314:0014
#00012:00140014
#0001a:2414
#05512:00140014
#0551a:0014
#00118:1414
#00114:00140014
#00212:00140014
#0021a:1414
#00314:00140000
#00318:1424
#00414:14141400
#00410:41
#00518:14141400
#00612:14141400
#00814:14
#00813:00140000
#00812:0014
#00918:14
#00919:00140000
#0091a:0014
#01012:14
#01013:00140000
#01014:0014
#0111a:14
#01119:00140000
#01118:0014
#0141a:1414
#01412:00140014
#0151a:14
#01514:00140000
#01518:0014
#02314:00140014
#02318:0014
#02612:00140014
#0261a:0014
#02718:1424
#02714:00140000
#0441a:14000014
#04412:00140000
#04416:0014
#0601a:14
#06012:00140000
#06018:00001414
#06014:0000000000140014
#0601f:21
#0601f:21
#06114:0014
#06118:0000000000140000
#06110:41
#0621a:00140000
#06214:00001414
#06218:0000000000140014
#0641a:14001414
#06414:0000000000140014
#06412:00260000
#06512:0014
#06518:0000000000140000
#06612:00001414
#06618:0000000000140014
#0661a:00140000
#02812:14
#0281a:00140000
#02814:00001414
#02818:0000000000140000
#02810:41
#0291a:14
#02912:00140000
#02918:00001414
#02914:0000000000140000
#03012:14
#0301a:00140000
#03014:00001414
#03018:0000000000140000
#0321a:1414
#03212:00140000
#03214:0000000000140000
#03218:00000014
#03312:1414
#0331a:00140000
#03318:0000000000140000
#03314:00000014
#0341a:1414
#03412:00140000
#03414:0000000000140000
#03418:00000014
#03512:1424
#0351a:00140000
#0421a:14
#04212:00140000
#04218:0014
#04214:00000014
#0431a:14
#04312:00140000
#04318:0014
#04314:00000014
#0451a:00140000
#04516:0014
#04512:14000014
#0461a:14000014
#04612:00140000
#04616:0014
#04812:14
#0481a:00140000
#04818:0014
#04816:00000014
#04810:41
#0491a:14
#04912:00140000
#04914:0014
#04916:00000014
#05012:14
#0501a:00140000
#05018:0014
#05016:00000014
#05112:00140014
#05112:00000014
#0511a:1414
#05818:00140014
#05814:0014
#05912:1424
#0591a:00140000
#06712:14
#06716:00140000
#0671a:0024
#0631a:0014
#06316:00140000
#06312:14000014
#0521f:11
#05212:24
#0521a:24
#0561a:24
#05612:24
#02012:24
#02418:24
#01819:00000034
#01818:00340000
#07314:0034000000000000
#07214:0000003400000000
#07418:0000003400000000
#07518:0034000000000000
#03810:41
#01610:41
#06452:00160000
#00358:00000014
#03552:00000014
#05952:00000014
#0675a:00000014
#0075a:0014
#02758:00000014
#04058:0014
#04154:0014
#003380:0000000000000000000000000000000014343400000000002400000000000000
#0073a0:1424
#016320:14
#016350:0034
#017320:34
#017350:0024
#0183a0:14
#018380:00340000
#018370:0034
#018390:00000034
#0193a0:34
#019370:0024
#0203a0:00140000
#020390:0034
#020380:00000034
#021380:24
#021320:00140000
#021330:0034
#021340:00000034
#022340:24
#0223a0:00140000
#022390:0034
#022380:00000034
#023380:24
#024340:00140000
#024330:0034
#024320:00000034
#025320:24
#025380:00140000
#025390:0034
#0253a0:00000034
#0263a0:24
#027380:0000000000000000000000000000000014343400000000002400000000000000
#0313a0:14
#031380:00240000
#031320:0014
#031340:00000024
#035320:0000000000000000000000000000000014343400000000002400000000000000
#0363a0:1434
#036380:00340024
#037320:1434
#037340:00340024
#038380:1434
#0383a0:00340024
#039340:1434
#039320:00340024
#040380:1424
#041340:1424
#0523a0:00140034
#052380:0034
#0533a0:24
#053320:00140034
#053340:0034
#054320:24
#0543a0:00140034
#054380:0034
#0553a0:24
#056380:00140034
#0563a0:0034
#057380:24
#057340:00140034
#057320:0034
#058340:24
#059320:0000000000000000000000000000000014343400000000002400000000000000
#0613a0:14240000
#061320:00000014
#062320:24
#065380:14240000
#065340:00000014
#066340:24
#0673a0:0000000000000000000000000000000014343400000000002400000000000000
#068320:14000034
#068340:0000003400000000
#069340:0034000000000000
#069320:00003424
#0703a0:14000034
#070380:0000003400000000
#071380:0034000000000000
#0713a0:00003424
#072320:14
#072340:0000003400000000
#072350:00000034
#073340:0034000000000000
#073320:00003424
#0743a0:14
#074380:0000003400000000
#074370:00000034
#075380:0034000000000000
#0753a0:00003424
