This file was generated by Ched 2.6.4.0.
#TITLE ""
#ARTIST ""
#DESIGNER ""
#DIFFICULTY 0
#PLAYLEVEL
#SONGID ""
#WAVE ""
#WAVEOFFSET 0
#JACKET ""
#REQUEST "ticks_per_beat 480"
#00002: 4
#BPM01: 170
#00008: 01
#TIL00: ""
#HISPEED 00
#MEASUREHS 00
#0011a:14
#0021a:14
#00312:14
#00412:14
#00518:14
#00618:14
#00714:14
#0121a:14
#01312:14
#0201a:14
#02010:41
#02214:14
#0211a:14
#02314:14
#06714:14
#0141a:14
#01512:14
#01618:14
#01714:14
#01818:14
#01914:14
#02418:14
#02612:14
#02518:14
#02712:14
#0281a:14
#03114:14
#03218:14
#03210:41
#03512:14
#03018:14
#02912:14
#0341a:14
#03314:14
#03714:0014
#03819:14
#03813:0014
#03918:14
#03912:0014
#04418:2616
#04410:41
#04512:1616
#04618:16
#04612:0016
#04718:16
#04712:0016
#04912:1616
#04818:1616
#05212:2616
#05318:1616
#05518:0016
#05512:26
#05618:16
#05612:0016
#05818:16
#05812:0016
#05918:16
#05912:0016
#0601a:14
#06112:14
#06218:14
#06314:14
#0641a:14
#06410:41
#06512:14
#06618:14
#0681a:14
#0681f:11
#06912:14
#07212:14
#0731a:14
#0761a:14
#07712:14
#07818:14
#07914:14
#08212:0016
#08218:26
#0821f:21
#08318:16
#08312:0016
#08310:41
#08418:1616
#08512:1616
#08618:16
#08612:0016
#08712:0016
#08718:16
#09018:0016
#09012:26
#09112:16
#09118:0016
#09312:0016
#09318:26
#09418:16
#09412:0016
#09612:16
#09618:0016
#09712:16
#09718:0016
#09814:14
#09918:14
#10014:14
#0801a:14
#08112:14
#04112:0014
#04219:14
#04213:0014
#0431a:14
#04314:0014
#05412:26
#05418:0026
#05410:41
#09212:26
#09215:0026
#008340:1434
#009340:3434
#010340:34343434
#011340:24
#0363a0:14
#0373a0:24
#040380:14
#041380:24
#050380:1636
#051380:0026
#057320:1626
#070380:14
#071380:24
#074340:14
#075340:24
#088380:1636
#089380:0026
#095380:1626
