This file was generated by Ched 2.6.4.0.
#TITLE ""
#ARTIST ""
#DESIGNER ""
#DIFFICULTY 0
#PLAYLEVEL
#SONGID ""
#WAVE ""
#WAVEOFFSET 0
#JACKET ""
#REQUEST "ticks_per_beat 480"
#00002: 4
#BPM01: 170
#00008: 01
#TIL00: ""
#HISPEED 00
#MEASUREHS 00
#0681f:11
#06818:0000000000000013
#06816:00000013
#06814:0000000000130000
#06812:1313
#06815:00130000
#0681b:13131313
#06612:13130013
#06615:0013001300130013
#06618:00000013
#0661b:0000000000130013
#01315:0013000013001300
#01318:0000001300130000
#0131b:0013000000000000
#01312:0000001300000000
#01718:0013000013001300
#01712:0013000000000000
#01715:0000001300130000
#0171b:0000001300000000
#0841b:0013000000130000
#08418:1300001300001300
#08412:1300000000000013
#08415:0000130000130000
#08516:00130000000000000000000000000000
#08518:0000130000130000
#08512:0000000013000013
#08515:00000013
#0851b:0013
#01612:00000000130000000000001300000000
#01618:13000000000000000000001300000000
#01615:0000000013000013
#0161b:0000000000000013
#01912:0013000000000013
#01915:0000001300230000
#0191b:00130000
#01918:13001323
#01815:0013000013000013
#01812:00000000000000000000001300000000
#01818:13130000
#0181b:0000001300000000
#01518:0000001300230000
#0151b:0013000000000000
#01512:00130000
#01515:13001323
#01418:0013000013000013
#0141b:00000000000000000000001300000000
#01415:13130000
#01412:0000001300000000
#01218:0000000013000013
#0121b:00000000000000000000001300000000
#01215:00000000000000000000001300000000
#01212:0000000000000013
#0531b:1313
#05315:0013000023000000
#05312:23000013
#05318:00230023
#0831b:1313
#08319:0013000000000000
#08312:00130000
#08315:0000000000000013
#08318:00000013
#08316:2323
#08317:00230000
#08310:41
#0471b:00130000000000001300000000000000
#04715:00130013
#04712:0000000000000013
#04718:0000000000130000
#04618:0000130000130013
#04615:0000001300000000
#0461b:13
#09019:0000000000130013
#0901b:00000013
#09016:00000023
#09017:0023
#09018:00230000
#09012:23
#09112:13001313
#09114:0013000000000000
#0911b:00130000
#09117:2323
#09116:00230000
#09118:00000023
#09814:0000001200000000
#09812:12000012
#09818:0012
#0981a:00120000
#0981c:12
#0921b:00130000
#09218:00000023
#09212:00000023
#09215:00230000
#07815:00000013
#07818:00130000
#0781b:00000013
#07812:00130000
#07715:13130013
#0771b:00001313
#07712:0013000013000000
#07712:0013
#07718:0000001300000000
#05412:00000013
#0541b:00130000
#05415:00230000
#05418:00000023
#05410:41
#04812:00232313
#04815:2300001300000013
#0481b:13
#04818:0013000013002300
#04915:00130023
#04918:0013000023000000
#04912:0000000000000013
#0491b:2300230000130000
#01114:00000012
#0111a:0012
#01112:00120000
#0111c:12
#0521b:2300130000130000
#05215:13000013
#05218:0000000000000013
#05212:00231300
#04412:2300130000130000
#04418:13000013
#04415:0000000000000013
#0441b:00231300
#04410:41
#0421b:0000000000000013
#04218:00131300
#04215:0000001300001313
#04212:00131300
#03812:0000000000000013
#03815:00131300
#03818:0000001300001313
#0381b:00131300
#02512:00131300
#02518:0013
#0251b:1313001300001300
#02515:0013001300000000
#0211b:00130013
#02115:00130013
#02118:0013
#02112:13
#0071b:00130000
#00712:00000013
#00718:0000000000130000
#00715:1313
#00312:00130000
#0031b:00000013
#00315:0000000000130000
#00318:1313
#0001b:00000013
#05715:00130013
#05718:13130013
#05712:0013
#0741b:00130013
#07419:0013
#07418:13
#07412:13131313
#0731b:00130013
#07317:1313
#07319:0013001300000000
#07312:13131313
#07012:00130013
#07014:0013
#07015:13
#0701b:13131313
#0931b:00001313
#09317:0000130000000013
#09315:0000001300000000
#09312:00130013
#09316:0000000000130000
#09418:0000130000000013
#09412:13000013
#0941b:13000013
#09415:0013
#08716:2300130000130000
#08718:0013000000000000
#08717:0000000000000013
#0871b:00232323
#08712:0023
#08614:0000000000000013
#08617:00231313
#08615:0000001300000000
#08619:0013000000000000
#08616:13
#08612:00002323
#0861b:23
#09912:00000012
#0991c:00120012
#09918:0012
#09916:12
#0391b:0013000000001300
#03912:00131300
#03918:00131300
#03915:0000001300002300
#09712:13
#09718:13001414
#09716:00140000
#0971a:00140000
#09714:0000000000140014
#0961b:0000130013000013
#09612:00001313
#09618:0000001300001300
#09615:0000130000130000
#0761b:13130013
#07612:13000013
#07618:0000000000130013
#07615:0013
#04315:00131313
#0431b:00131323
#04318:0000001300000000
#04312:0013000000000000
#03512:0013130000001300
#0351b:0013
#03518:00000023
#0341b:1300000000000013
#03418:00131313
#03415:1300001300130000
#03412:0013000013000000
#03315:00130013
#03318:0000000013000013
#0331b:0013000000001300
#03212:1300000013000013
#0321b:1313
#03215:0013001300001300
#03218:0000130000130000
#03210:41
#03012:1300000000000013
#03015:00131313
#03018:1300001300130000
#0301b:0013000013000000
#0311b:0013130000000000
#03118:0000000000230013
#03112:0013
#03115:00000023
#02918:00130013
#02915:0000000013000013
#02912:0013000000001300
#0281b:2300000013000013
#02818:0013001300001300
#02815:0000130000130000
#02812:2313
#0051b:1313
#00515:1300001300000013
#00512:00000013
#00518:00130000
#00112:1313
#00118:0000001300000013
#0011b:00000013
#00115:00130000
#06912:00130013
#06916:1313
#06914:0013001300000000
#0691b:13131313
#08015:00001313
#0801b:13
#09512:0000001300000000
#09515:13130023
#09518:00130023
#0951b:0013
#08917:00000000001300000000000000000000
#08915:00000013
#08918:0000000000000013
#08914:0033
#08913:33
#08816:00130000
#0881b:0000002323000000
#08812:23
#08116:00130000
#08112:13000023
#0811b:00130023
#08117:23
#0791b:0000001300001300
#07918:0000130000130000
#07915:0000000013000013
#07912:00130013
#05612:13000013
#0561b:00000013
#05618:0013
#05512:0000001300001300
#05515:0000130000130000
#05518:0000000013000013
#0551b:00130013
#05116:00000000001300000000000000000000
#05115:0000000000000013
#05118:00000013
#0511a:33
#05119:0033
#05017:00130000
#05012:0000002323000000
#0501b:23
#02015:0000001300000013
#02012:23130000
#0201b:0000001300000000
#02018:00130013
#02010:41
#02212:1300001300001300
#02215:0000130000130000
#02218:0000000013000013
#0221b:00130013
#02318:0013000013000013
#0231b:1300001300000000
#02312:00130013
#02315:1300000000130000
#02718:0013000000001300
#0271b:1300000013130000
#02712:0000131300001300
#02715:1300000013000013
#04118:2300001300000013
#0411b:00130013
#04112:2300001300000013
#04115:00130013
#03715:2300001300000013
#03712:00130013
#0371b:2300001300000013
#03718:00130013
#00618:13130000
#00215:13130000
#02618:1300001300130013
#02612:1300131300000013
#02615:00001313
#0261b:0013
#02412:1300000013000013
#02418:0000130013000013
#02415:0000001300001300
#0241b:1300001300000000
#06312:0013
#06315:0000001300001300
#06318:00130000
#0631b:0013000000000000
#05812:00130000
#05912:13130000
#05915:0000000000130000
#05918:0013
#0591b:00130000
#05916:00000024
#08214:0000000000130013
#08212:00000013
#0821b:0013
#0821f:21
#08217:00000023
#08216:0023
#08218:23
#08215:23
#04512:1313
#04518:0013000023001300
#04515:0000230000000013
#0451b:23
#0651b:0013000000000013
#06515:0000001300001300
#06512:0013
#06518:00130000
#06418:0000130013000013
#0641b:23000000000000000000001300000000
#06412:23130000
#06415:0000001300000000
#06410:41
#06718:0000002300001300
#0671b:0023
#06715:00230000
#06712:0023000000000000
#06215:0000000000131300
#06218:00001300000013000000001300001300
#06212:0000000000000013
#0621b:13130000
#06112:0013000000000013
#06118:0000001300001300
#0611b:0013
#06115:00130000
#06015:0000130013000013
#06012:23000000000000000000001300000000
#0601b:23130000
#06018:0000001300000000
#07515:0000000000000013
#07518:00000013
#07512:13131313
#07215:0000000000000013
#07217:00000013
#07219:0000000000130000
#0721b:1313
#07218:00130000
#07212:13131313
#07118:0000000000000013
#07115:00000013
#0711b:13131313
#00418:0000000013000013
#00412:00000013
#00415:1300000000130000
#0041b:0000001300000000
#04018:0000230000232300
#0401b:2300000023000023
#04015:00000000000000002300002300002300
#04012:0000232300000000
#03615:0000230000232300
#03612:2300000023000023
#03618:00000000000000002300002300002300
#0361b:0000232300000000
#01014:00000000000024000024002400240024
#01018:0024000024242424
#0101a:2400002400000000
#01012:0024240000000000
#0091a:24000024
#00914:00000024
#00912:00242400
#00918:00240000
#0081b:23000023
#00815:00000023
#00812:00232300
#00818:00230000
#0845b:0023000000630043
#08458:5300001300002300
#08452:1300000000000053
#08455:0000000000130000
#04652:0000000000000013
#04658:0000000000130053
#04655:0000001300000000
#0465b:13
#09255:0000630000000013
#0925b:0000630000000013
#09252:0000001300005300
#09258:00000053
#07852:0000530000000013
#07858:0000530000000013
#07855:0000001300006300
#0785b:00000063
#07758:0000000000000013
#07755:00000063
#0775b:00000063
#0545b:0000630000000013
#05455:0000630000000013
#05458:0000001300005300
#05452:00000053
#05355:0000000000000013
#05358:00000053
#05352:00000053
#0425b:4300000000000023
#04255:43
#04258:0053
#0415b:00634363
#04155:00634363
#04158:0000002300000023
#04152:0000002300000023
#0945b:13001363
#09455:00130000
#09458:0000530000000023
#09452:53
#0965b:13
#09652:13
#08852:5333
#0885b:4363
#08856:00230000
#0915b:0000000000000013
#09158:00000053
#09152:00000053
#08752:00005333
#0875b:00004363
#08756:0000000000230000
#08757:0000000000000023
#08252:00330000
#0825b:00430000
#08258:23
#08255:23
#08058:0013
#08052:00130000
#08055:00000063
#0805b:13
#05655:0013
#0565b:00130000
#05652:13000053
#05852:13
#0585b:13
#04055:13
#0405b:13
#03852:3300000000000023
#03858:33
#03855:0063
#03752:00533353
#03758:00533353
#03755:0000002300000023
#0375b:0000002300000023
#03658:13
#03652:13
#08157:53
#08156:00230000
#08152:53
#0815b:00230000
#09558:00000053
#09555:00630063
#09552:0000002300000000
#09058:00130000
#09052:13
#05956:00000014
#05052:0053
#0505b:63
#05057:00230000
#05252:00130000
#0525b:13630000
#05255:63
#04955:00000063
#04958:0053
#04952:0000000000000023
#0495b:0000000000230000
#0445b:00130000
#04452:13530000
#04458:53
#08556:00230000000000000000000000000000
#01955:0000001300000000
#01952:0013000000000000
#01755:0000001300000000
#01758:0013000000000000
#01558:0000001300000000
#0155b:0013000000000000
#01358:0000001300000000
#01355:0013000000000000
#0475b:00230000000000000000000000000000
#01154:00000052
#0115a:0062
#01152:00520000
#0115c:62
#02552:0053
#0215b:00000063
#02155:00230000
#0075b:00630000
#00752:00000053
#00352:00530000
#0035b:00000063
#0005b:00000023
#05755:00000063
#05758:00530053
#0745b:00630063
#07459:0053
#07458:53
#0735b:00000063
#07357:0053
#07052:00530053
#07054:0063
#07055:63
#09952:00000052
#0995c:00000062
#0765b:00630000
#07652:53
#04355:00000063
#03552:00530000
#0345b:0000000000000063
#03355:00630000
#03252:0000000000000053
#03052:0000000000000053
#0315b:00630000
#02958:00530000
#0285b:0000000000000063
#0055b:0063
#00152:0053
#06952:00000053
#06956:0063
#09355:0000002300000000
#09352:00530000
#08957:00000000002300000000000000000000
#0795b:0000002300000000
#07958:00530000
#05552:0000002300000000
#05555:00630000
#05156:00000000002300000000000000000000
#02055:0000002300000000
#02052:00530000
#0205b:0000002300000000
#02058:00530000
#02252:0000002300000000
#02255:00630000
#02358:0023000000000000
#0235b:63
#02758:0023000000000000
#0275b:63
#09756:00640000
#0003b0:00000013
#001380:23
#001320:0013
#001350:00000023
#0023b0:00130023
#002370:0033
#002321:0013
#002361:00000033
#003321:23
#003321:00130000
#003351:0023
#0033b1:00000013
#004381:23
#0053b1:0013
#005381:00000023
#006321:00130023
#006361:0033
#0063b0:0013
#006370:00000033
#0073b0:23
#0073b0:00130000
#007380:0023
#007320:00000013
#008350:23
#0113c0:12
#0113a0:00220000
#011321:00120000
#011341:0022
#0113a0:0012
#011380:00000022
#011341:00000012
#012361:22
#0123b0:13230000
#012321:00132300
#0133b1:00000013
#0143b1:23
#014321:0000000013000023
#014351:00000000000000000000003300000000
#015381:0000000000132300
#015350:00000013
#016350:23
#0163b0:00132300
#017320:00000013
#018320:23
#0183b0:0000000013000023
#018380:00000000000000000000003300000000
#019350:0000000000132300
#019381:00000013
#020381:23
#020381:00132300
#0203b1:0000005300000000
#020320:00132300
#020350:0000005300000000
#021350:00130000
#021320:0023
#0213b0:00000013
#022380:23
#022350:00132300
#022320:0000005300000000
#0233b0:13230000
#023380:0053000000000000
#025320:0013
#025350:00000023
#0273b0:13230000
#027380:0053000000000000
#0283b0:0000000000000013
#029380:0023000000000000
#029380:00130000
#0293b0:0023
#030320:0000000000000013
#031350:0023000000000000
#0313b0:00130000
#031380:0023
#032320:0000000000000013
#033350:0023000000000000
#033350:00130000
#033320:0023
#0343b0:0000000000000013
#035380:0023000000000000
#035320:00130000
#035350:0023
#035380:00000013
#036380:23
#037320:00132300
#037350:0000005300000000
#037381:00132300
#0373b1:0000005300000000
#037321:00000013
#037351:0000000000000053
#038321:23
#037380:00000013
#0373b0:0000000000000053
#038380:23
#038350:0013
#038320:00000023
#038320:0000000000000013
#039350:0023000000000000
#039350:00000013
#040350:23
#0413b0:00132300
#041380:0000005300000000
#041351:00132300
#041321:0000005300000000
#0413b1:00000013
#041381:0000000000000053
#0423b1:23
#041350:00000013
#041320:0000000000000053
#042350:23
#042380:0013
#0423b0:00000023
#0423b0:0000000000000013
#043380:0023000000000000
#043350:00000013
#044320:23
#044381:13
#0443b1:00230000
#044320:00130000
#044350:0023
#046320:13230000
#046320:0000000000130023
#046381:0000000000000013
#0473b1:00530000000000000000000000000000
#047381:00230000
#049381:00001323
#0493b1:0000000000530000
#049350:00000013
#049320:0000000000000053
#050350:23
#0503b1:1323
#050371:00530000
#050320:0013
#051360:00000000005300000000000000000000
#051320:00000023
#050381:0000000000000013
#0513a1:33
#0513b1:0023000000000000
#0513b1:0000001300000000
#051391:0033
#051381:0000000000230000
#052350:13
#052320:00230000
#0523b1:00130000
#052381:0023
#053381:00000013
#0533b1:0000000000000023
#053320:00000013
#053350:0000000000000023
#054350:00130000
#054320:0000002300000000
#0543b1:00130000
#054381:0000002300000000
#054381:00000013
#0543b1:0000000000000023
#054320:00000013
#054350:0000000000000023
#055350:00132300
#055320:0000005300000000
#0563b0:13230000
#056351:00132300
#056321:00000013
#057351:23
#057381:00130000
#0573b1:0023
#057351:00000013
#058321:23
#057380:00000013
#0583b0:23
#058380:00132300
#058351:00001323
#0583b0:00000013
#0593b0:23
#0603b0:0000000013000023
#060380:00000000000000000000003300000000
#061380:0013000000000000
#0613b0:00230000
#061320:0000001300000000
#061350:0023
#061350:0000000000130000
#061340:000033
#061330:000000000000000000000000000000000033000000000000
#061320:00000023
#062350:13330000
#062320:0033002300000000
#0633b0:00001323
#064320:0000000013000023
#064350:00000000000000000000003300000000
#065350:0013000000000000
#065320:00230000
#0653b0:0000001300000000
#065380:0023
#065380:0000000000130000
#065390:000033
#0653a0:000000000000000000000000000000000033000000000000
#0653b0:00000023
#066380:13330000
#0663b0:0033002300000000
#067320:00001323
#069360:0013
#069320:00000033
#070350:33
#070320:00330033
#070340:0033
#071330:23
#073370:0013
#0733b0:00000033
#074380:33
#0743b0:00330033
#074390:0033
#0753a0:23
#076320:13
#076350:00230000
#0763b1:00130000
#076381:0023
#077351:00000013
#077321:0000000000000023
#0773b0:00000013
#077380:0000000000000023
#078380:00130000
#0783b0:0000002300000000
#078321:00130000
#078351:0000002300000000
#078351:00000013
#078321:0000000000000023
#0783b0:00000013
#078380:0000000000000023
#079380:00132300
#0793b0:0000005300000000
#080320:13230000
#080381:00132300
#080351:00000013
#081321:3323
#081361:00530000
#081370:1323
#0813b0:00530000
#082350:13
#082320:00230000
#082381:13
#0823b1:00230000
#084381:13230000
#0843b1:0053000000000000
#0843b1:0000000000130023
#084381:00000053
#084320:0000000000000013
#085360:00530000000000000000000000000000
#085320:00230000
#087320:00001323
#087360:0000000000530000
#0873b1:00000013
#087371:0000000000000053
#0883b1:23
#088320:1323
#088360:00530000
#0883b1:0013
#089371:00000000005300000000000000000000
#0893b1:00000023
#088350:0000000000000013
#089330:33
#089320:0023000000000000
#089320:0000001300000000
#089340:0033
#089350:0000000000230000
#0903b1:13
#090381:0053230000000000
#090350:00130000
#090320:0000005323000000
#091320:00000013
#091350:0000000000000023
#091381:00000013
#0913b1:0000000000000023
#0923b1:00130000
#092381:0000002300000000
#092350:00130000
#092320:0000002300000000
#092320:00000013
#092350:0000000000000023
#092381:00000013
#0923b1:0000000000000023
#093321:00132300
#093351:0000005300000000
#094321:13
#094351:00230000
#094380:00130000
#0943b0:0023
#0943b0:00000013
#094380:0000000000000053
#0953b0:23
#095350:00132300
#095320:0000005300000000
#095380:00000013
#0963b0:23
#095351:00000013
#096321:23
#097361:00140000
#097321:0024
#098381:00000012
#0993c1:22
#099361:00120000
#099321:0022
#099321:00000012
#100361:22
#0993c0:00000012
#100380:22
