This file was generated by Ched 2.6.4.0.
#TITLE ""
#ARTIST ""
#DESIGNER ""
#DIFFICULTY 0
#PLAYLEVEL
#SONGID ""
#WAVE ""
#WAVEOFFSET 0
#JACKET ""
#REQUEST "ticks_per_beat 480"
#00002: 4
#BPM01: 170
#00008: 01
#TIL00: ""
#HISPEED 00
#MEASUREHS 00
#00118:0000001300000013
#00112:0013
#00115:00130000
#00215:13000013
#00218:00130000
#0051b:1313
#00515:1300001300000013
#00518:00130000
#0041b:0000001300000000
#00418:0000000013000013
#00415:0000000000130000
#00412:00000013
#0381b:00130000
#03815:0000001300000013
#03818:0013
#03915:0000001300002300
#03918:0013
#0391b:00130000
#04518:0013000023001300
#04515:0000230000000013
#04512:0013
#0451b:00130000
#04514:23
#0461b:13
#04618:0000001300000013
#04612:00130000
#04615:0000000000130000
#0471b:0013
#04712:0000000000000013
#04715:0000000000130000
#04718:00000013
#09718:00001414
#09714:0000000000140014
#0971b:13130000
#09712:13130000
#09818:1212
#09816:00120000
#06812:1300000000000013
#06815:0000000000130000
#0681b:00000013
#06818:0013
#0681f:11
#0691b:1313
#06912:0013000000000000
#06918:00130000
#06915:0000001300000000
#06917:00000013
#07115:00000013
#0711b:00000013
#07518:00000013
#07515:0000000000000013
#05118:00000013
#05112:0000000000000013
#05518:0000000000130013
#05512:00000013
#05515:00130000
#0591b:00130000
#05912:00130000
#05918:00001323
#05915:0000000000130000
#06015:00130000
#06018:0000001300000000
#06012:2314
#06016:00000000000000000000001400000000
#0601a:0000000000000014
#0601b:23
#06112:0013000000000000
#0611b:0013
#06118:0000130000000013
#06115:0000001300000000
#06212:13
#0621b:0000001300000000
#06215:0013000000130000
#06218:00000000130000000000001300000000
#07615:0013
#0761b:0000000000130000
#07612:00000013
#07618:1300000000000013
#07715:1300001300000013
#0771b:0013000000000013
#07718:00130000
#07712:0013
#08318:23230013
#08315:0013000023000013
#08312:00130000
#0831b:0013
#08310:41
#0851b:0013
#08518:0000000000130000
#08515:00000013
#08512:0000000000000013
#08618:0013001300000000
#08615:0000230000000013
#0861b:2323
#08612:00000023
#08215:1300000000130000
#0821b:0000000000000013
#08218:13000023
#08212:0023
#0821f:21
#09315:0000000000130013
#0931b:00130000
#09318:00000013
#09412:1313
#09412:0013
#09418:1313
#0941b:00130000
#09415:00130013
#09615:00131313
#09618:0000001300130013
#02018:00000013
#02015:0000130000000013
#0201b:23
#02010:41
#0211b:13
#02115:0013
#02112:00130013
#02215:0000000000130000
#0221b:00130013
#02212:0000000000000013
#0231b:0000001300000013
#02312:00000013
#02318:1300000000130000
#02315:0013
#02718:0000000013000013
#02715:0000000000130000
#02712:00000013
#0271b:0000001300000000
#02415:1300001300001300
#02418:0000130000000013
#0241b:0013
#02815:23130000
#0281b:0013000000000013
#02818:0000001300000000
#02812:0013
#03012:0000130000000013
#03018:1300001300130000
#03015:0013000013000000
#0301b:00000013
#03718:00130013
#03712:00130013
#0371b:23
#05612:00130013
#0561b:1313
#05618:00130000
#05615:1313
#08112:13000023
#0811b:23000023
#0991a:00000012
#09914:00000012
#05712:00000013
#0571b:00130013
#0001b:00000013
#01518:0013000013002300
#01515:0000130000230000
#01512:0000001300000000
#08418:13
#08412:00130000
#0841b:0000001300000013
#08415:0000000000130000
#00315:0000000000130000
#00318:00000013
#0031b:00130000
#00618:13000013
#00615:00130000
#00718:0000000000130000
#00712:00130000
#00715:00000013
#01315:0013000013001300
#01312:0000001300000000
#01318:0000001300130000
#0131b:0013000000000000
#01718:0013000013001300
#0171b:0000001300000000
#01715:0000001300130000
#01712:0013000000000000
#01912:0000000000000013
#01915:0013000013002300
#01918:0000130000230000
#0191b:0000001300000000
#02512:13
#02518:0013
#0251b:00130013
#02618:0000000000130000
#02612:00130013
#0261b:0000001300000000
#02615:0013
#02915:00130000
#0291b:0000000000000013
#0311b:00130000
#03115:0000000000000013
#03218:13130013
#03212:0013000000130013
#03215:0000001300000000
#0321b:0013
#03210:41
#0341b:0000130000000013
#03415:1300001300130000
#03418:0013000013000000
#03412:00000013
#03318:00130000
#03312:0000000000000013
#03512:00130000
#03518:00000023
#04212:00130000
#04218:0000001300000013
#04215:0013
#04318:0000001300000000
#04315:0013
#04312:00130000
#0431b:00000023
#04115:00130013
#0411b:00130013
#04112:23
#04412:2313
#0441a:0000000000130000
#04413:00000013
#04419:0000000000000013
#04418:00230000
#04410:41
#04815:0013000000002300
#04812:0000001300000000
#04818:2300000023000013
#0481b:00230000
#0491b:0013000023000000
#04915:00232300
#04912:23
#05315:0013000023000000
#0531b:0013
#05312:0000130000000013
#05318:0000230000002313
#05319:23
#0521b:2313
#05213:0000000000130000
#0521a:00000013
#05214:0000000000000013
#05215:00230000
#05415:0000001300000000
#0541b:0000001300000000
#05410:41
#0631b:0013000000000000
#06318:00130000
#06315:0000001300000000
#06418:00130000
#06415:0000001300000000
#0641a:0014
#06416:00000000000000000000001400000000
#06412:2300000000000014
#0641b:23
#06410:41
#0651b:0013000000000000
#06512:0013
#06515:0000130000000013
#06518:0000001300000000
#0661b:13
#06612:0000001300000000
#06618:0013000000130013
#06615:00130013
#0721b:1300000000000013
#07218:0000000000130000
#07212:00000013
#07215:0013
#07312:1313
#0731b:0013000000000000
#07315:00130000
#07318:0000001300000000
#07316:00000013
#07413:1313
#07415:00130000
#07414:00000013
#0701a:1313
#07018:00130000
#07019:00000013
#07818:0000001300000000
#07812:0000001300000000
#07915:0000000000130013
#0791b:00000013
#07918:00130000
#08012:1313
#08015:00130000
#0801b:00130000
#08018:1313
#08715:0013000023000000
#08718:2323
#08712:00230000
#08918:00000013
#08915:0000000000000013
#09018:0000000000130000
#09012:0000230000000013
#0901b:2323
#09015:00000023
#0911b:0000130000000013
#09112:0000000013002313
#09118:0013000023000000
#09115:23230000
#09518:00130000
#0951b:00000023
#09512:00000023
#09219:00130000000000000000000000000000
#09214:00130000000000000000000000000000
#09212:0000001300000000
#0921b:0000001300000000
#09218:00000000000000000013000000000000
#09215:00000000000000000013000000000000
#01112:00130013
#0111b:0013
#05018:0013
#05015:0013
#0501b:23
#05012:23
#08815:0013
#08812:23000000000000000000000000000013
#08818:0013
#0881b:23000000000000000000000000000013
#06718:0000002300001300
#06712:0023000000001300
#06715:00230000
#0671b:0023
#0361b:0000002300000000
#03612:0000000023000023
#03615:00000000230000000000002300000000
#03618:0000000000232300
#04012:0000002300000000
#0401b:0000000023000023
#04018:00000000230000000000002300000000
#04015:0000000000232300
#00818:23
#00815:0023
#00918:24
#00914:0024
#0101a:0024
#01018:2400240000340000
#01014:0024002400000000
#01019:00000000000000000034000000000000
#01017:00000000000000000000003400000000
#01016:00000000000000000000000034343434
#04458:00130000
#04452:13
#0465b:13
#04658:0000001300000053
#04655:0000000000130000
#05855:13
#05858:13
#05958:00000013
#03758:00530053
#03752:00530053
#05555:00630000
#05652:00000053
#08152:53000053
#0815b:63000063
#00152:0053
#0285b:0000000000000063
#02852:0053
#0995a:00000062
#09954:00000052
#05752:00000053
#0575b:00630063
#0005b:00000023
#03658:13
#08458:13
#0845b:0000001300000063
#08455:0000000000130000
#00258:00530000
#00255:00000063
#00358:00000053
#0035b:00630000
#0055b:0063
#00655:00630000
#00658:00000053
#00752:00530000
#02055:00630000
#02155:0063
#02152:00530053
#0225b:00630000
#02558:0053
#0255b:00630063
#02652:00000053
#02955:00630000
#0315b:00630000
#03052:0000000000000053
#03252:0000000000000053
#03358:00530000
#03552:00530000
#0345b:0000000000000063
#03858:0053
#03855:0000000000000023
#04155:00630063
#0415b:00630063
#04255:0063
#04258:0000000000000023
#04055:13
#04955:0063
#0495b:0063
#0525b:13
#05255:00130000
#05458:0000000000000013
#05452:0000000000000013
#05455:0000006300000000
#0545b:0000006300000000
#05358:0000000000000053
#05352:0000000000000053
#06852:53
#0725b:63
#07352:0053
#07356:00000063
#07453:5353
#07455:00630000
#07454:00000063
#0695b:0063
#06957:00000053
#0705a:6363
#07058:00530000
#07059:00000053
#07658:53
#07755:0000000000000063
#0775b:0000000000000063
#07858:0000005300000000
#07852:0000005300000000
#0785b:0000000000000013
#07855:0000000000000013
#07958:00530000
#0825b:00130000
#08258:53
#08255:63
#08252:00130000
#08758:0053
#08755:0063
#0905b:13
#09052:00130000
#09252:0000005300000014
#0925a:0000000000000014
#09259:00230000000000000000000000000000
#09254:00230000000000000000000000000000
#0925b:0000006300000000
#09258:00000000000000000023000000000000
#09255:00000000000000000023000000000000
#09152:0000000000000053
#0915b:0000000000000063
#09658:13
#09655:13
#0955b:00000063
#09552:00000053
#09558:00530000
#0935b:00630000
#09455:00000063
#0505b:63
#05052:53
#05058:0053
#05055:0063
#08852:53000000000000000000000000000023
#0885b:63000000000000000000000000000023
#08855:0063
#08858:0053
#0003b0:00000013
#001380:23
#001320:0013
#001350:00000023
#002380:00130000
#0023b0:0023
#002350:00000013
#003320:23
#0033b0:00130000
#003380:0023
#003380:00000013
#0043b0:23
#0053b0:0013
#005380:00000023
#006350:00130000
#006320:0023
#006380:00000013
#0073b0:23
#007320:00130000
#007350:0023
#008380:13230000
#008350:00001323
#009380:14240000
#009340:00001424
#0103a0:0014
#010390:00000000000000000034000000000000
#010380:0000000000340000
#010370:00000000000000000000003400000000
#010360:00000000000000000000000034343434
#011360:24
#0123b0:13230000
#012320:0000000013000023
#012350:00000000000000000000003300000000
#014380:13230000
#014350:0000000013000023
#014320:00000000000000000000003300000000
#016320:13230000
#0163b0:0000000013000023
#016380:00000000000000000000003300000000
#018350:13230000
#018380:0000000013000023
#0183b0:00000000000000000000003300000000
#020350:00130000
#020320:0023
#021320:00130033
#021350:0033
#022350:23
#0223b0:00130000
#022380:0023
#0253b0:00130033
#025380:0033
#026380:23
#026320:00000013
#027350:23
#028320:0013
#028350:00000023
#0283b0:0000000000000013
#029380:0023000000000000
#029350:00130000
#029320:0023
#030320:0000000000000013
#031350:0023000000000000
#0313b0:00130000
#031380:0023
#032320:0000000000000013
#033350:0023000000000000
#033380:00130000
#0333b0:0023
#0343b0:0000000000000013
#035380:0023000000000000
#035320:00130000
#035350:0023
#035380:00000013
#036380:23
#037380:00130000
#0373b0:0023
#037321:00130000
#037351:0023
#037381:00000013
#0383b1:23
#037320:00000013
#038350:23
#038380:0013
#0383b0:00000023
#038350:0000000000000013
#039320:0023000000000000
#039350:00000013
#040350:23
#041350:00130000
#041320:0023
#0413b1:00130000
#041381:0023
#041351:00000013
#042321:23
#0413b0:00000013
#042380:23
#042350:0013
#042320:00000023
#042380:0000000000000013
#0433b0:0023000000000000
#046380:0000000000000013
#0473b0:00230000
#049350:0013
#049320:00000023
#0493b1:0013
#049381:00000023
#0503b1:13
#050381:0000003333000000
#0513b1:0023
#050320:13
#050350:0000003333000000
#051320:0023
#053320:0000000000001333
#054350:0000333300000000
#054320:0000000000003323
#053381:0000000000001333
#0543b1:0000333300000000
#054381:0000000000003323
#055351:00130000
#055321:0023
#056321:00000013
#057351:23
#0573b1:00130000
#057381:0023
#057321:00000013
#058351:23
#0573b0:00000013
#058380:23
#0583b0:00132300
#058320:00000013
#059320:23
#061350:0000000000130000
#061340:000033
#061330:000000000000000000000000000000000033000000000000
#061320:00000023
#062350:0000000000001323
#063320:00001323
#065380:0000000000130000
#065390:000033
#0653a0:000000000000000000000000000000000033000000000000
#0653b0:00000023
#068320:13
#068350:00230000
#0693b0:0013
#069370:00000033
#0703a0:3333
#070380:00330000
#070390:00000033
#0713a0:33332300
#0723b0:13
#072380:00230000
#073320:0013
#073360:00000033
#074330:3333
#074350:00330000
#074340:00000033
#075330:33332300
#076380:13
#0763b0:00230000
#0773b0:0000000000001333
#078380:0000333300000000
#0783b0:0000000000003323
#077351:0000000000001333
#078321:0000333300000000
#078351:0000000000003323
#079381:00130000
#0793b1:0023
#080321:00000013
#081321:33
#081351:0023
#0813b0:13
#081380:0023
#0813b0:00000013
#082380:33
#0823b0:00230000
#081321:00000013
#082351:33
#082321:00230000
#0843b1:0000000000000013
#085381:00230000
#087381:0013
#0873b1:00000023
#087350:0013
#087320:00000023
#088320:13000000000000000000000000000053
#088350:0000003333000000
#089350:0023
#0883b1:13000000000000000000000000000053
#088381:0000003333000000
#089381:0023
#0913b1:0000000000001333
#092391:00530000000000000000000000000000
#0923b1:0000333300000000
#092381:00000000000000000053000000000000
#0923a1:0000000000003424
#091320:0000000000001333
#092340:00530000000000000000000000000000
#092320:0000333300003424
#092350:00000000000000000053000000000000
#0933b0:00130000
#093380:0023
#094350:00000013
#095320:23
#095380:00130000
#0953b0:0023
#0953b0:00000013
#096380:23
#095321:00000013
#096351:23
#098361:00000012
#099361:22
#099381:00122200
#0993a1:00000012
#100381:22
#099340:00000012
#100360:22
