This file was generated by Ched 2.6.4.0.
#TITLE ""
#ARTIST ""
#DESIGNER ""
#DIFFICULTY 0
#PLAYLEVEL
#SONGID ""
#WAVE ""
#WAVEOFFSET 0
#JACKET ""
#REQUEST "ticks_per_beat 480"
#00002: 4
#BPM01: 170
#00008: 01
#TIL00: ""
#HISPEED 00
#MEASUREHS 00
#01217:0013000013000013
#01212:00000000000000001313000000001300
#0121b:13000000000013000000001313000000
#01216:00130013
#01316:0013000000000000
#01312:13131300
#01317:0000001300000000
#01315:0000000000130000
#01318:00000000000000000000001300001300
#0131b:13130013
#01512:1300001300000000
#01517:00130022
#0151b:1313000013000000
#01516:0013
#01519:0000000000220000
#01415:0000000000000013
#01412:00001300130000000013000000000000
#01417:00000013000000001300000000000000
#0141b:0000001300000000
#01418:00000000000000000000000000000013
#01416:1300001300001300
#0381b:00130013
#03816:0000131313130000
#03817:0000000000000013
#03812:0000000013001313
#03814:00000000000000000000001300000000
#0391b:0013130000232300
#03916:1300130000000013
#03914:0000001300000000
#03912:0000000013232300
#03917:0013
#04716:00131300
#04712:1300000000130000
#0471b:13130013
#04717:0000000000000013
#04714:0013000000000000
#04812:0013001300000000
#0481b:0000000000000013
#04816:2323
#04815:00230000
#04817:00000023
#09716:1414001414000000
#09714:00000018
#09715:0000000000160000
#09712:001414000000001c
#0971a:1400001400000000
#0511b:00130013
#05112:0000130000000013
#05118:1300001600000000
#05116:0012000014001300
#05114:0000000000120000
#05117:0000000000000013
#0591b:0013
#05919:0000000000130000
#05912:00000014000000001300000000000000
#05914:00140000001400000000130000000000
#05916:14000000000000140000000000000000
#05918:0014001400000000
#0591a:00140000
#05917:00000022
#0761b:1300000013130000
#07619:00000013
#07616:0000001300130000
#07617:0013000000000013
#07612:0000130000000013
#07614:00000013
#07716:13001313
#0771b:13130013
#07717:0013001300000000
#07712:0013001300000000
#0441b:13231313
#04412:2300001300130000
#04417:0013000000000000
#04416:00130013
#04419:0000000000000013
#04410:41
#08316:1313230000001300
#08312:0000130000000013
#08317:0000000013000013
#0831b:2300001323001300
#08310:41
#08217:0013000013132300
#08212:2300000000001313
#08216:000000000000000000000000000000000000000000000000000000000000000000000000000000000000000000000000000000000000000000000000000000000000000000000000000000000000000000000000000000000000000000000000000000000000000000000000000000000000000000000000000000000000000000000000000000000000000000000000000000000000000000000000000000000000000000000000000000000000000000000000000000000000000000000000000000000000000000000000000000000000000000000000000000000000000000000000000000000000000000000000001300000000000000000000000000000000000000000000000000000000000000000000000000000000000000000000000000000000000000000000000000000000000000000000000000000000000000000000000000000000000000000000000000000000000000000000000000000000000000000000000000000000000000000000000000000000000000000000000000000000000000000000000000000000000000000000000000000000000000000000000000000000000000000000000000000000000000000000000000000000000000000000000000000000000000000000000000000000000000000000000000000000000000000000000000000000000000000000000000000000000000000000000000000000000000000000000000000000000000000000000000000000000000000000000000000000000000000000000000000000000000000000000000000000000000000000000000000000000000000000000000000000000000000000000000000000000000000000000000000000000000000000000000000000000000000000000000000000000000000000000000000000000000000000000000000000000000000000000000000000000000000000000000000000000000000000000000000000000000000000000000000000000000000000000000000000000000000000000000000000000000000000000000000000000000000000000000000000000000000000000000000000000000000000000000000000000000000000000000000000000000000000000000000000000000000000000000000000000000000000000000000000000000000000000000000000000000000000000000000000000000000000000000000000000000000000000000000000000000000000000000000000000000000000000000000000000000000000000000000000000000000000000000000000000000000000000000000000000000000000000000000000000000000000000000000000000000000000000000000000000000000000000000000000000000000000000000000000000000000000000000000000000000000000000000000000000000000000000000000000000000000000000000000000000000000000000000000000000000000000000000000000000000000000000000000000000000000000000000000000000000000000000000000000000000000000000000000000000000000000000000000000000000000000000000000000000000000000000000000000000000000000000000000000000000000000000000000000000000000000000000000000000000000000000000000000000000000000000000000000000000000000000000000000000000000000000000000000000000000000000000000000000000000000000000000000000000000000000000000000000000000000000000000000000000000000000000000000000000000000000000000000000000000000000000000000000000000000000000000000000000000000000000000000000000000000000000000000000000000000000000000000000000000000000000000000000000000000000000000000000000000000000000000000000000000000000000000000000000000000000000000000000000000000000000000000000000000000000000000000000000000000000000000000000000000000000000000000000000000000000000000000000000000000000000000000000000000000000000000000000000000000000000000000000000000000000000000000000000000000000000000000000000000000000000000000000000000000000000000000000000000000000000000000000000000000000000000000000000000000000000000000000000000000000000000000000000000000000000000000000000000000000000000000000000000000000000000000000000000000000000000000000000000000000000000000000000000000000000000000000000000000000000000000000000000000000000000000000000000000000000000000000000000000000000000000000000000000000000000000000000000000000000000000000000000000000000000000000000000000000000000000000000000000000000000000000000000000000000000000000000000000000000000000000000000000000000000000000000000000000000000000000000000000000000000000000000000000000000000000000000000000000000000000000000000000000000000000000000000000
#0821b:2323
#0821f:21
#0201b:00000013
#02012:23120000
#02017:0000121200001212
#0201c:0000001200000000
#02010:41
#02117:12121200
#02112:1300130000120000
#0211c:0000001200000012
#02118:00000012
#0221b:0000130000130000
#02217:0000001213000000
#02212:1300120000000013
#02219:00000013
#02214:00000013
#02317:0012001212121212
#0231b:0013
#02316:13
#02312:00130013
#0231c:12
#02412:00131313
#02416:1400001414000014
#0241b:1300001300000013
#02417:0013000000000000
#02716:14141414
#02719:0000001300000000
#02712:00001300000000001300000000130000
#02714:0000000000130000
#0271b:00130013
#02718:0000000000000013
#02715:00000000000000000000000000000013
#02612:0000001300000013
#02615:00000013
#02618:0000000000130000
#0261b:00000000130000001300000000000013
#02616:1400001414000014
#02816:0000130000001313
#02812:2313
#02814:0013001300130000
#0281a:14141414
#02912:13000013
#02916:0000130000000013
#0291a:14141414
#03014:1300130000130000
#03016:0000001313000013
#03012:0013000000001300
#0301a:14141414
#03117:0000000000000013
#0311a:14141414
#03112:00130000
#03116:0000001300230000
#03114:00000023
#00112:00120000
#00114:0000001200000012
#00116:00001212
#0011b:1300001313000013
#00212:12
#0021b:0013001313001300
#00217:00120000
#00213:0012
#00216:00000012
#00314:0000000000120000
#0031b:1300001313000013
#00316:0000001200001200
#00312:0000120000000012
#00416:0000001200000012
#00414:00001212
#00412:0000000000120000
#0041b:0013001313001300
#01112:12
#06215:0000001300130000
#06218:00000000000000000000001300000000
#0621b:13001313
#06219:0013000000000000
#06217:0000130000000013
#06212:13131300
#0631b:13131313
#06312:0000000013130000
#06316:13130023
#06314:0000001300000000
#06318:0013000000000000
#06317:0000000000230000
#06016:00131300
#06012:2300001300000013
#0601b:23130000
#06014:00000000000000000000001300000000
#06017:0000000000001313
#0611b:1300000000000013
#06116:1300000000141413
#0611a:000000000000000000000000000000000014000000000000
#06112:000014
#0251b:13131300
#02516:0014001414000013
#02512:1313001300001300
#02517:0000000000130000
#04212:00130013
#04217:0000131313130000
#04216:0000000000000013
#0421b:0000000013001313
#04219:00000000000000000000001300000000
#04312:0013000016000000
#04317:13000022
#04316:00120000
#04318:0000221426000000
#04314:0000002400000000
#08116:0013000000000000
#08117:0000001300000000
#08112:00231300
#08118:00000000000000000013001300130013
#08115:0000000000132313
#0811b:23132300
#04612:1613000000160000
#0461b:13
#04615:00161616
#04616:0013000000000000
#04618:0000001600000016
#04919:0000000000130000
#04914:0000000000000013
#0491b:0013000023000000
#04916:0023
#04917:00230023
#04912:00000023
#04918:23
#05012:00132300
#05016:23000013000023000000000000000000
#0501a:0000000000000014
#0501b:23000013
#05017:000000000000000000000000000000000000000000000000230000000000000000000000001300000000000000000000
#0451b:0000130000000013
#04512:2300001300001300
#04516:0000230023000013
#04517:1300001300001300
#04514:0013000000000000
#05212:13231313
#0521b:2300001300130000
#05214:0000000000000013
#05216:0013000000000000
#05217:00130013
#05316:1300001300000000
#0531b:2300001300000000
#05319:0013000000000000
#05317:00232313
#05312:00130023
#0561b:00000013
#05615:00000013
#05617:0000000000000013
#05612:0000000000000013
#05712:00130013
#05718:00130000
#05716:0000001300000000
#0571b:0000001300001300
#05717:000000000000000000000000000000000000000000000000000000000000000000000000000000000000000000000000000000000000000000000000000000000000000000000000000000000000000000000000000000000000000000000000000000000000000000000000000000000000000000000000000000000000000000000000000000000000000000000000000000000000000000000000000000000000000000000000000000000000000000000000000000000000000000000000000000000000000000000000000000000000000000000000000000000000000000000000000000000000000000000000000000000000000000000000000000000000000000000000000000000000000000000000000000000000000000000000000000000000000000000000000000000000000000000000000000000000000000000000000000000000000000000000000000000000000000000000000000000000000000000000000000000000000000000000000000000000000000000000000000000000000000000000000000000000000000000000000000000000000000000000000000000000000000000000000000000000000000000000000000000000000000000000000000000000000000000000000000000000000000000000000000000000000000000000000000000000000000000000000000000000000000000000000000000000000000000000000000000000000000000000000000000000000000000000000000000000000000000000000000000000000000000000000000000000000000000000000000000000000000000000000000000000000000000000000000000000000000000000000000000000000000000000000000000000000000000000000000000000000000000000000000000000000000000000000000000000000000000000000000000000000000000000000000000000000000000000000000000000000000000000000000000000000000000000000000000000000000000000000000000000000000000000000000000000000000000000000000000000000000000000000000000000000000000000000000000000000000000000000000000000000000000000000000000000000000000000000000000000000000000000000000000000000000000000000000000000000000000000000000000000000000000000000000000000000000000000000000000000000000000000000000000000000000000000000000000000000000000000000000000000000000000000000000000000000000000000000000000000000000000000000000000000000000000000000000000000000000000000000000000000000000000000000000000000000000000000000000000000000000000000000000000000000000000000000000000000000000000000000000000000000000000000000000000000000000000000000000000000000000000000000000000000000000000000000000000000000000000000000000000000000000000000000000000000000000000000000000000000000000000000000000000000000000000000000000000000000000000000000000000000000000000000000000000000000000000000000000000000000000000000000000000000000000000000000000000000000000000000000000000000000000000000000000000000000000000000000000000000000000000000000000000000000000000000000000000000000000000000000000000000000000000000000000000000000000000000000000000000000000000000000000000000000000000000000000000000000000000000000000000000000000000000000000000000000000000000000000000000000000000000000000000000000000000000000000000000000000000000000000000000000000000000000000000000000000000000000000000000000000000000000000000000000000000000000000000000000000000000000000000000000000000000000000000000000000000000000000000000000000000000000000000000000000000000000000000000000000000000000000000000000000000000000000000000000000000000000000000000000000000000000000000000000000000000000000000000000000000000000000000000000000000000000000000000000000000000000000000000000000000000000000000000000000000000000000000000000000000000000000000000000000000000000000000000000000000000000000000000000000000000121200000000000000000000000000000000000000000000000000000000000000000000000000000000000000000000000000000000000000000000000000000000000000000000000000000000000000000000000000000000000000000000000000000000000000000000000000000000000000000000000000000000000000000000000000000000000000000000000000000000000000000000000000000000000000000000000000000000000000000000000000000000000000000000000000000000000000000000000000000000000000000000000000000000000000000000000000000000000000000000
#05816:00141414
#06612:1300000013000013
#06614:0013000000000000
#06616:00130000
#06618:0000001300000000
#0661b:13131300
#06617:0000000000130000
#06716:0000002600001300
#0671b:00000013
#06712:0026000000000000
#06714:00260000
#06718:0026
#06417:00131300
#0641b:2300001300000013
#06412:23130000
#06419:00000000000000000000001300000000
#06416:0000000000001313
#06410:41
#06512:130000000000000000000000000000000014000000130000
#06517:1300000000000013
#06516:0000000000141400
#0651a:000014
#06812:14141414
#0681b:1313
#06819:0000000000130000
#06817:0000000000001313
#0681f:11
#06919:13130000
#0691b:0013000000000000
#06917:0000001313000000
#06912:14141414
#07012:14141414
#0701b:1300000000000013
#07016:0000000000130000
#07112:14141414
#07116:0013
#0721a:14141414
#07212:1313
#07214:0000000000130000
#07216:0000000000001313
#07314:13130000
#07312:0013000000000000
#07316:0000001313130000
#0731a:14141414
#0741a:14141414
#07412:13
#07417:0000000000000013
#0751a:14141414
#07512:0000000000130000
#05517:0000001300130000
#05516:00131300
#05512:0000000000131300
#0551b:00131323
#07916:0000001300130000
#07917:00131300
#0791b:0000000000131300
#07912:00131323
#0801b:00000013
#08016:0000000000000013
#08012:00000013
#08412:1300001600130016
#08418:1600000000160000
#08416:00141414
#0841b:0013001300000013
#08417:0013000000000000
#0851b:13131313
#08512:13130000
#08516:0014000000000000
#08517:0000000000130013
#08714:0000000000130000
#08719:0000000000000013
#08716:0013000000002300
#08712:23132300
#08717:0023
#0871b:00230023
#0881b:00132300
#08817:23000013000023000000000000000000
#08812:2300000000001314
#08816:000000000000000000000000000000000000000000000000230000000000000000000000001300000000000000000000
#08612:0013000023000000
#08617:0000001300002300
#0861b:0000230013000013
#08616:23
#09016:0000230013132300
#0901b:2300000000001313
#09017:0013000000000000
#09012:2323
#09117:1313230000002300
#09116:0000000013000023
#0911b:00130000
#09112:2300001323002300
#09212:00130000000000000000000023000000
#0921b:00000000230000000013000000000000
#09217:0000002300001300
#09216:00130000
#08912:0000131600001300
#0891b:0000130000000013
#08917:00000013
#08916:0000000014000013
#0891a:0000000000120000
#08915:13
#08918:0012000000000000
#0931b:0000001300132300
#09312:00131313
#09316:0000000000130000
#09317:00131300
#09416:00000013
#0941b:0000000000000013
#09412:00002313
#09418:0000000000000013
#09419:0023000000000000
#09414:00230000
#09517:000000000000000000000000000000000000000000000000000000000000000000000000000000000000000000000000000000000000000000000000000000000000000000000000000000000000000000000000000000000000000000000000000000000000000000000000000000000000000000000000000000000000000000000000000000000000000000000000000000000000000000000000000000000000000000000000000000000000000000000000000000000000000000000000000000000000000000000000000000000000000000000000000000000000000000000000000000000000000000000000000000000000000000000000000000000000000000000000000000000000000000000000000000000000000000000000000000000000000000000000000000000000000000000000000000000000000000000000000000000000000000000000000000000000000000000000000000000000000000000000000000000000000000000000000000000000000000000000000000000000000000000000000000000000000000000000000000000000000000000000000000000000000000000000000000000000000000000000000000000000000000000000000000000000000000000000000000000000000000000000130000000000000000000000000000000000000000000000000000000000000000000000000000000000000000000000000000000000000000000000000000000000000000000000000000000000000000000000000000000000000000000000000000000000000000000000000000000000000000000000000000000000000000000000000000000000000000000000000000000000000000000000000000000000000000000000000000000000000000000000000000000000000000000000000000000000000000000000000000000000000000000000000000000000000000000000000000000000000000000000000000000000000000000000000000000000000000000000000000000000000000000000000000000000000000000000000000000000000000000000000000000000000000000000000000000000000000000000000000000000000000000000000000000000000000000000000000000000000000000000000000000000000000000000000000000000000000000000000000000000000000000000000000000000000000000000000000000000000000000000000000000000000000000000000000000000000000000000000000000000000000000000000000000000000000000000000000000000000000000000000000000000000000000000000000000000000000000000000000000000000000000000000000000000000000000000000000000000000000000000000000000000000000000000000000000000000000000000000000000000000000000000000000000000000000000000000000000000000000000000000000000000000000000000000000000000000000000000000000000000000000000000000000000000000000000000000000000000000000000000000000000000000000000000000000000000000000000000000000000000000000000000000000000000000000000000000000000000000000000000000000000000000000000000000000000000000000000000000000000000000000000000000000000000000000000000000000000000000000000000000000000000000000000000000000000000000000000000000000000000000000000000000000000000000000000000000000000000000000000000000000000000000000000000000000000000000000000000000000000000000000000000000000000000000000000000000000000000000000000000000000000000000000000000000000000000000000000000000000000000000000000000000000000000000000000000000000000000000000000000000000000000000000000000000000000000000000000000000000000000000000000000000000000000000000000000000000000000000000000000000000000000000000000000000000000000000000000000000000000000000000000000000000000000000000000000000000000000000000000000000000000000000000000000000000000000000000000000000000000000000000000000000000000000000000000000000000000000000000000000000000000000000000000000000000000000000000000000000000000000000000000000000000000000000000000000000000000000000000000000121200000000000000000000000000000000000000000000000000000000000000000000000000000000000000000000000000000000000000000000000000000000000000000000000000000000000000000000000000000000000000000000000000000000000000000000000000000000000000000000000000000000000000000000000000000000000000000000000000000000000000000000000000000000000000000000000000000000000000000000000000000000000000000000000000000000000000000000000000000000000000000000000000000000000000000000000000000000000000000000
#09512:0000001300002300
#0951b:00130023
#09515:0000001300000000
#03517:0000001300000013
#03512:1400140014000013
#0351b:00130023
#03516:00000023
#07817:00130000
#07812:00130000
#07816:00000013
#0781b:00000013
#05412:00000013
#05416:00130000
#0541b:00230000
#05417:00000023
#05410:41
#0071b:1300001313130000
#00714:0000120000120000
#00716:0012
#00712:00000012
#0061b:0013001313001300
#00612:12
#00617:00120000
#00613:0012
#00616:00000012
#0051b:1300001313000013
#00512:12120000
#00514:0000001200000012
#00516:00001212
#01619:13
#01616:00130000000000001300000000001300
#01613:0013000000000000
#0161b:00000000000000001313000000001300
#01612:00000000000013000000001313000000
#01617:00130013
#01717:0013000000000000
#0171b:13131300
#01716:0000001300000000
#01718:0000000000130000
#01715:00000000000000000000001300001300
#01712:13130013
#0191b:1300001300000000
#01916:00130000
#01912:1313000013000013
#01917:00001322
#01915:0000000000220000
#01818:0000000000000013
#0181b:00001300130000000013000000000000
#01816:00000013000000001300000000000000
#01812:0000001300000000
#01815:00000000000000000000000000000013
#01817:1300001300001300
#0981b:13130013
#09812:1200001200000012
#09815:00120000
#09817:0012000013000000
#09814:0012
#09819:00000012000013000000000000000000
#09816:00000000000000000000001200000000
#09917:0012000013000000
#0991b:00130000
#09916:00000012
#09915:00000012000012000000000000000000
#09919:13
#09912:0000000012000012
#09918:00000012
#0991c:0000000000000012
#09913:00120000
#09617:0000001300001300
#0961b:0000130000000013
#09612:0013
#09616:0000000000130000
#03217:0000130000001313
#0321b:1313
#03219:0013001300130000
#03212:14141414
#03210:41
#0331b:13000013
#03317:0000130000000013
#03312:14141414
#03419:1300130000130000
#03417:0000001313000013
#0341b:0013000000001300
#03412:14141414
#00017:00000012
#0101a:2424240024000000
#01012:24000000240024000024000000000000
#01018:0000000000240000
#01014:00000000000000000000002400000028
#01016:00000000000000000000000024240000
#01015:0000000000000026
#03617:00230000
#03619:0000002300000000
#03616:0000000023000023
#03618:0000000000230000
#03615:00000000000000000000002300000000
#03612:00230023
#0361b:0000000023000023
#00815:23002323
#00818:23232300
#00918:24242400
#00914:24002424
#04017:2300000023000023
#04016:00230000
#04014:0000002300000000
#04015:0000000000230000
#04018:00000000000000000000002300000000
#0401b:00230023
#04012:0000000023000023
#0411b:23
#04116:23
#03712:23
#03717:23
#05957:00000012
#07752:0023000000000013
#07756:63000063
#0775b:00630063
#07757:0000002300000000
#0825b:63430000
#08252:53330000
#08256:000000000000000000000000000000000000000000000000000000000000000000000000000000000000000000000000000000000000000000000000000000000000000000000000000000000000000000000000000000000000000000000000000000000000000000000000000000000000000000000000000000000000000000000000000000000000000000000000000000000000000000000000000000000000000000000000000000000000000000000000000000000000000000000000000000000000000000000000000000000000000000000000000000000000000000000000000000000000000000000000002300000000000000000000000000000000000000000000000000000000000000000000000000000000000000000000000000000000000000000000000000000000000000000000000000000000000000000000000000000000000000000000000000000000000000000000000000000000000000000000000000000000000000000000000000000000000000000000000000000000000000000000000000000000000000000000000000000000000000000000000000000000000000000000000000000000000000000000000000000000000000000000000000000000000000000000000000000000000000000000000000000000000000000000000000000000000000000000000000000000000000000000000000000000000000000000000000000000000000000000000000000000000000000000000000000000000000000000000000000000000000000000000000000000000000000000000000000000000000000000000000000000000000000000000000000000000000000000000000000000000000000000000000000000000000000000000000000000000000000000000000000000000000000000000000000000000000000000000000000000000000000000000000000000000000000000000000000000000000000000000000000000000000000000000000000000000000000000000000000000000000000000000000000000000000000000000000000000000000000000000000000000000000000000000000000000000000000000000000000000000000000000000000000000000000000000000000000000000000000000000000000000000000000000000000000000000000000000000000000000000000000000000000000000000000000000000000000000000000000000000000000000000000000000000000000000000000000000000000000000000000000000000000000000000000000000000000000000000000000000000000000000000000000000000000000000000000000000000000000000000000000000000000000000000000000000000000000000000000000000000000000000000000000000000000000000000000000000000000000000000000000000000000000000000000000000000000000000000000000000000000000000000000000000000000000000000000000000000000000000000000000000000000000000000000000000000000000000000000000000000000000000000000000000000000000000000000000000000000000000000000000000000000000000000000000000000000000000000000000000000000000000000000000000000000000000000000000000000000000000000000000000000000000000000000000000000000000000000000000000000000000000000000000000000000000000000000000000000000000000000000000000000000000000000000000000000000000000000000000000000000000000000000000000000000000000000000000000000000000000000000000000000000000000000000000000000000000000000000000000000000000000000000000000000000000000000000000000000000000000000000000000000000000000000000000000000000000000000000000000000000000000000000000000000000000000000000000000000000000000000000000000000000000000000000000000000000000000000000000000000000000000000000000000000000000000000000000000000000000000000000000000000000000000000000000000000000000000000000000000000000000000000000000000000000000000000000000000000000000000000000000000000000000000000000000000000000000000000000000000000000000000000000000000000000000000000000000000000000000000000000000000000000000000000000000000000000000000000000000000000000000000000000000000000000000000000000000000000000000000000000000000000000000000000000000000000000000000000000000000000000000000000000000000000000000000000000000000000000000000000000000000000000000000000000000000000000000000000000000000000000000000000000000000000000000000000000000000000000000000000000000000000000000000000000000000000000000000000000000000000000000000000000000000000000000000000000000000000000000000000000000000000000000000000000000000000000000000000000000000
#08257:0023000000000000
#0915b:0000000000000013
#09156:0000000000000063
#09157:00000053
#03757:0033
#03752:0033
#02052:00520000
#02057:0000522200000000
#0205c:0000002200000000
#0505b:63
#05056:00000023000000000000000000000000
#05057:000000000000000000000000000000000000000000000000000000000000000000000000002300000000000000000000
#05052:0053
#02856:0000000000000063
#0765b:63
#07657:0023000000000000
#07652:00530000
#07656:0000002300000000
#03956:2300000000000023
#0395b:00000043
#03952:0000000000335300
#0365b:4343
#03656:43
#03652:00330000
#03857:33
#03852:3300000000000053
#0535b:0000000000000013
#05357:00000053
#05352:00530053
#05356:0000002300000000
#05452:0000001300005300
#0545b:0000630000000013
#05456:0000630000000013
#05457:00000053
#04052:3333
#04057:33
#0405b:00430000
#04156:0043
#0415b:0043
#04256:43
#0425b:4300000000000063
#04357:23
#0785b:0000001300006300
#07852:0000530000000013
#07857:0000530000000013
#07856:00000063
#0445b:63430000
#04457:0023000000000000
#04456:00630000
#04452:3300002300000000
#04652:3600000000360000
#0465b:63
#04656:0023000000000000
#04658:0000004600000046
#0485b:0043
#04952:00330000
#05252:53330000
#05256:0023000000000000
#05257:00530000
#0525b:4300002300000000
#0575b:4300002300006300
#05757:430000000000000000000000000000000000000000000000000000000000000000000000000000000000000000000000000000000000000000000000000000000000000000000000000000000000000000000000000000000000000000000000000000000000000000000000000000000000000000000000000000000000000000000000000000000000000000000000000000000000000000000000000000000000000000000000000000000000000000000000000000000000000000000000000000000000000000000000000000000000000000000000000000000000000000000000000000000000000000000000000000000000000000000000000000000000000000000000000000000000000000000000000000000000000000000000000000000000000000000000000000000000000000000000000000000000000000000000000000000000000000000000000000000000000000000000000000000000000000000000000000000000000000000000000000000000000000000000000000000000000000000000000000000000000000000000000000000000000000000000000000000000000000000000000000000000000000000000000000000000000000000000000000000000000000000000000000000000000000000000000000000000000000000000000000000000000000000000000000000000000000000000000000000000000000000000000000000000000000000000000000000000000000000000000000000000000000000000000000000000000000000000000000000000000000000000000000000000000000000000000000000000000000000000000000000000000000000000000000000000000000000000000000000000000000000000000000000000000000000000000000000000000000000000000000000000000000000000000000000000000000000000000000000000000000000000000000000000000000000000000000000000000000000000000000000000000000000000000000000000000000000000000000000000000000000000000000000000000000000000000000000000000000000000000000000000000000000000000000000000000000000000000000000000000000000000000000000000000000000000000000000000000000000000000000000000000000000000000000000000000000000000000000000000000000000000000000000000000000000000000000000000000000000000000000000000000000000000000000000000000000000000000000000000000000000000000000000000000000000000000000000000000000000000000000000000000000000000000000000000000000000000000000000000000000000000000000000000000000000000000000000000000000000000000000000000000000000000000000000000000000000000000000000000000000000000000000000000000000000000000000000000000000000000000000000000000000000000000000000000000000000000000000000000000000000000000000000000000000000000000000000000000000000000000000000000000000000000000000000000000000000000000000000000000000000000000000000000000000000000000000000000000000000000000000000000000000000000000000000000000000000000000000000000000000000000000000000000000000000000000000000000000000000000000000000000000000000000000000000000000000000000000000000000000000000000000000000000000000000000000000000000000000000000000000000000000000000000000000000000000000000000000000000000000000000000000000000000000000000000000000000000000000000000000000000000000000000000000000000000000000000000000000000000000000000000000000000000000000000000000000000000000000000000000000000000000000000000000000000000000000000000000000000000000000000000000000000000000000000000000000000000000000000000000000000000000000000000000000000000000000000000000000000000000000000000000000000000000000000000000000000000000000000000000000000000000000000000000000000000000000000000000000000000000000000000000000000000000000000000000000000000000000000000000000000000000000000000000000000000000000000000000000000000000000000000000000000000000000000000222200000000000000000000000000000000000000000000000000000000000000000000000000000000000000000000000000000000000000000000000000000000000000000000000000000000000000000000000000000000000000000000000000000000000000000000000000000000000000000000000000000000000000000000000000000000000000000000000000000000000000000000000000000000000000000000000000000000000000000000000000000000000000000000000000000000000000000000000000000000000000000000000000000000000000000000000000000000000000000000
#05752:00533353
#05758:00530000
#05756:0000002333000000
#0565b:00000063
#05655:00001363
#05657:0000000000000023
#05652:0000000013000023
#05656:13
#05654:00130000
#06356:00000033
#06357:0000000000430000
#07452:53
#07457:0000000000000063
#07552:0000000000530000
#0705b:6300000000000063
#07056:0000000000530000
#07156:0053
#06957:0053
#0685b:63
#07252:53
#07356:0000000000630000
#05556:00630000
#07957:00530000
#08452:5300003600000036
#08458:4600000000460000
#08457:0023000000000000
#08857:13000023000000000000000000000000
#08852:53
#08856:000000000000000000000000000000000000000000000000130000000000000000000000002300000000000000000000
#0885b:0063
#0865b:0043
#08752:00330000
#08757:0013
#08756:00000013
#09256:0000630000000013
#09252:00230000000013000000000053000000
#0925b:00000000000000000023000000001300
#09257:0000005300005300
#09052:33
#0905b:63430000
#09057:0023000000000000
#09352:00530000
#09552:3300002300005300
#09556:33
#09557:000000000000000000000000000000000000000000000000000000000000000000000000000000000000000000000000000000000000000000000000000000000000000000000000000000000000000000000000000000000000000000000000000000000000000000000000000000000000000000000000000000000000000000000000000000000000000000000000000000000000000000000000000000000000000000000000000000000000000000000000000000000000000000000000000000000000000000000000000000000000000000000000000000000000000000000000000000000000000000000000000000000000000000000000000000000000000000000000000000000000000000000000000000000000000000000000000000000000000000000000000000000000000000000000000000000000000000000000000000000000000000000000000000000000000000000000000000000000000000000000000000000000000000000000000000000000000000000000000000000000000000000000000000000000000000000000000000000000000000000000000000000000000000000000000000000000000000000000000000000000000000000000000000000000000000000000000000000000000000000000630000000000000000000000000000000000000000000000000000000000000000000000000000000000000000000000000000000000000000000000000000000000000000000000000000000000000000000000000000000000000000000000000000000000000000000000000000000000000000000000000000000000000000000000000000000000000000000000000000000000000000000000000000000000000000000000000000000000000000000000000000000000000000000000000000000000000000000000000000000000000000000000000000000000000000000000000000000000000000000000000000000000000000000000000000000000000000000000000000000000000000000000000000000000000000000000000000000000000000000000000000000000000000000000000000000000000000000000000000000000000000000000000000000000000000000000000000000000000000000000000000000000000000000000000000000000000000000000000000000000000000000000000000000000000000000000000000000000000000000000000000000000000000000000000000000000000000000000000000000000000000000000000000000000000000000000000000000000000000000000430000000000000000000000000000000000000000000000000000000000000000000000000000000000000000000000000000000000000000000000000000000000000000000000000000000000000000000000000000000000000000000000000000000000000000000000000000000000000000000000000000000000000000000000000000000000000000000000000000000000000000000000000000000000000000000000000000000000000000000000000000000000000000000000000000000000000000000000000000000000000000000000000000000000000000000000000000000000000000000000000000000000000000000000000000000000000000000000000000000000000000000000000000000000000000000000000000000000000000000000000000000000000000000000000000000000000000000000000000000000000000000000000000000000000000000000000000000000000000000000000000000000000000000000000000000000000000000000000000000000000000000000000000000000000000000000000000000000000000000000000000000000000000000000000000000000000000000000000000000000000000000000000000000000000000000000000000000000000000000000000000000000000000000000000000000000000000000000000000000000000000000000000000000000000000000000000000000000000000000000000000000000000000000000000000000000000000000000000000000000000000000000000000000000000000000000000000000000000000000000000000000000000000000000000000000000000000000000000000000000000000000000000000000000000000000000000000000000000000000000000000000000000000000000000000000000000000000000000000000000000000000000000000000000000000000000000000000000000000000000222200000000000000000000000000000000000000000000000000000000000000000000000000000000000000000000000000000000000000000000000000000000000000000000000000000000000000000000000000000000000000000000000000000000000000000000000000000000000000000000000000000000000000000000000000000000000000000000000000000000000000000000000000000000000000000000000000000000000000000000000000000000000000000000000000000000000000000000000000000000000000000000000000000000000000000000000000000000000000000000
#0955b:00634363
#09555:0000002300000000
#09456:00000053
#0945b:1300000000000023
#09452:00001353
#09458:0000000000000023
#09459:0013
#09454:00130000
#0965a:44
#09652:34
#08056:0000000000000023
#08052:00000053
#08057:13
#08059:00130000
#0805b:0013
#08058:0013
#0355b:00630063
#03556:00000063
#03557:0000002300000023
#03552:0000000000000023
#00257:00620000
#00253:0052
#00256:00000062
#00356:0000002200006200
#00352:0000520000000022
#0135b:00000013
#01356:0013000000000000
#01357:0000001300000000
#01552:0000001300000000
#0155b:0013000000000000
#01757:0013000000000000
#01756:0000001300000000
#01752:00000013
#0195b:0000001300000000
#01952:0013000000000000
#09956:00000062
#09952:0000000000000022
#09958:00000052
#0995c:0000000000000022
#09756:0024002400000000
#0975a:64
#09752:00540000
#0455b:00630000
#04557:0000002300000000
#0585a:44
#05852:34
#00657:00620000
#00653:0052
#00656:00000062
#03154:00000033
#03156:0000002300330000
#03152:00530000
#03056:0000000000000063
#03257:0000000000000053
#03457:0000000000000053
#0335b:23
#03357:00530000
#02952:23
#02956:00630000
#0215c:0000002200000022
#02157:00526200
#02152:0000000000220000
#02158:00000052
#02252:00520000
#02257:0000002200000000
#0235c:62
#02357:0022000000000000
#0255b:0063
#02557:0000000000230000
#02552:00000053
#02556:0000000000000023
#0245b:63
#02457:0023000000000000
#0185b:00630000
#01857:0000002300000000
#01452:00530000
#01456:0000002300000000
#0125b:63
#01257:0023000000000000
#00057:00000062
#000370:00000012
#001320:22
#002370:00120000
#002330:0032
#002360:00000032
#003320:22
#003320:00122200
#003360:0000005200000000
#003360:00000012
#003320:0000000000000052
#004360:22
#006370:00120000
#006330:0032
#006360:00000032
#007320:22
#008350:13230000
#008380:00001323
#009340:14240000
#009380:00001424
#010320:1424000000000000
#0103a0:0000142400000000
#0113c0:12
#0113a0:00220000
#011381:00120000
#011361:0022
#011380:0012
#011360:00000022
#011341:00000012
#012321:22
#0123b0:13230000
#012370:0053000000000000
#0133b0:0000000013230000
#013320:0000000000001323
#0143b0:13
#014370:0023000000000000
#014320:00132300
#014360:0000005300000000
#0143b0:00000000000000000000001323000000
#015360:0013000000000000
#015320:00230000
#015390:0000000000122200
#015371:00000012
#016371:22
#017321:0000000013230000
#0173b1:0000000000001323
#018321:13
#018361:0023000000000000
#0183b1:00132300
#018371:0000005300000000
#018321:00000000000000000000001323000000
#019371:0013000000000000
#0193b1:00230000
#019351:0000000000122200
#019370:00000012
#020370:22
#020320:00122200
#020370:0000005200000000
#020371:00122200
#0203c1:0000005200000000
#021371:00120000
#0213c1:0000005200000000
#021391:0022
#021370:0012
#021320:0000000000520000
#021360:00000022
#021381:00000012
#0213c1:0000000000000052
#022371:22
#022321:00122200
#022371:0000005200000000
#0233c1:12220000
#023371:0052000000000000
#0243b1:13230000
#024371:0053000000000000
#0253b1:00001323
#025371:0000000000530000
#025320:00000013
#025360:0000000000000053
#026320:23
#028360:0000000000000013
#029320:53
#029360:0023000000000000
#029360:00130000
#029320:0023
#030360:0000000000000013
#031320:0023000000000000
#031320:00132300
#031360:0000005300000000
#032370:0000000000000013
#0333b0:53
#033370:0023000000000000
#033370:00130000
#0333b0:0023
#034370:0000000000000013
#0353b0:0023000000000000
#0353b0:00132300
#035370:0000005300000000
#035360:00000013
#035320:0000000000000053
#036360:23
#0353b1:00000013
#035371:0000000000000053
#0363b1:23
#037371:00132300
#0373b1:00000000005300530000000000000000
#037320:00132300
#037360:00000000005300530000000000000000
#037370:00000013
#0373b0:00000000000000000000000000530053
#038370:23
#037321:00000013
#037361:00000000000000000000000000530053
#038321:23
#038321:0000000000000013
#039361:53
#039321:0023000000000000
#039321:00000013
#039361:0000000000000053
#040321:23
#041361:00132300
#041321:00000000005300530000000000000000
#0413b0:00132300
#041370:00000000005300530000000000000000
#041360:00000013
#041320:00000000000000000000000000530053
#042360:23
#0413b1:00000013
#041371:00000000000000000000000000530053
#0423b1:23
#0423b1:0000000000000013
#043371:53
#0433b1:0023000000000000
#0443b1:13230000
#044371:0053000000000000
#044360:00132300
#044320:0000005300000000
#0453b0:00132300
#045370:0000005300000000
#0463b0:13230000
#046360:0053000000000000
#0473b0:0013
#047370:0000000000230000
#047360:00000013
#047320:0000000000000023
#0483b0:1323
#048360:0033003300000000
#048390:00330000
#048320:00000013
#048370:0000000000000033
#049340:33
#049370:0033000000000000
#049320:00230000
#0503b0:1300002300000000
#050360:00000053000000000000000000000000
#050320:0013
#050370:000000000000000000000000000000000000000000000000000000000000000000000000005300000000000000000000
#051320:0023000000000000
#052320:13230000
#052360:0053000000000000
#052371:00132300
#0523b1:0000005300000000
#053321:00132300
#053361:0000005300000000
#053321:00000013
#053361:00000000000000000000000000532300
#053370:00000013
#0533b0:00000000000000000000000000532300
#0543b0:00130000
#054370:00000000005323000000000000000000
#054361:00130000
#054321:00000000005323000000000000000000
#054321:00000013
#054361:00000000000000000000000000532300
#054370:00000013
#0543b0:00000000000000000000000000532300
#055360:00130000
#055320:0000002300000000
#0553b0:0000000000001353
#055360:00000000000000000000000000000053
#056390:5353000000000000
#056340:00000053000000000000000000000000
#056370:0000535300000000
#056320:00000000000000530000000000000000
#056350:0023
#055361:0000000000000013
#055391:00000000000000000000000000000053
#056361:23
#056341:0013230000000000
#056371:00000053000000000000000000000000
#056321:0000001323000000
#056351:00000000000000530000000000000000
#0563b1:00000013
#056371:0000000000000053
#0573b1:23
#056350:00000013
#056320:0000000000000053
#057370:23
#057320:00132300
#057360:0000005300000000
#057381:00130000
#0573b1:0000005300000000
#057361:0023
#0573b1:00000013
#057371:0000000000000052
#0583a1:24
#057320:00000013
#057370:000000000000000000000000000000000000000000000000000000000000000000000000000000000000000000000000000000000000000000000000000000000000000000000000000000000000000000000000000000000000000000000000000000000000000000000000000000000000000000000000000000000000000000000000000000000000000000000000000000000000000000000000000000000000000000000000000000000000000000000000000000000000000000000000000000000000000000000000000000000000000000000000000000000000000000000000000000000000000000000000000000000000000000000000000000000000000000000000000000000000000000000000000000000000000000000000000000000000000000000000000000000000000000000000000000000000000000000000000000000000000000000000000000000000000000000000000000000000000000000000000000000000000000000000000000000000000000000000000000000000000000000000000000000000000000000000000000000000000000000000000000000000000000000000000000000000000000000000000000000000000000000000000000000000000000000000000000000000000000000000000000000000000000000000000000000000000000000000000000000000000000000000000000000000000000000000000000000000000000000000000000000000000000000000000000000000000000000000000000000000000000000000000000000000000000000000000000000000000000000000000000000000000000000000000000000000000000000000000000000000000000000000000000000000000000000000000000000000000000000000000000000000000000000000000000000000000000000000000000000000000000000000000000000000000000000000000000000000000000000000000000000000000000000000000000000000000000000000000000000000000000000000000000000000000000000000000000000000000000000000000000000000000000000000000000000000000000000000000000000000000000000000000000000000000000000000000000000000000000000000000000000000000000000000000000000000000000000000000000000000000000000000000000000000000000000000000000000000000000000000000000000000000000000000000000000000000000000000000000000000000000000000000000000000000000000000000000000000000000000000000000000000000000000000000000000000000000000000000000000000000000000000000000000000000000000000000000000000000000000000000000000000000000000000000000000000000000000000000000000000000000000000000000000000000000000000000000000000000000000000000000000000000000000000000000000000000000000000000000000000000000000000000000000000000000000000000000000000000000000000000000000000000000000000000000000000000000000000000000000000000000000000000000000000000000000000000000000000000000000000000000000000000000000000000000000000000000000000000000000000000000000000000000000000000000000000000000000000000000000000000000000000000000000000000000000000000000000000000000000000000000000000000000000000000000000000000000000000000000000000000000000000000000000000000000000000000000000000000000000000000000000000000000000000000000000000000000000000000000000000000000000000000000000000000000000000000000000000000000000000000000000000000000000000000000000000000000000000000000000000000000000000000000000000000000000000000000000000000000000000000000000000000000000000000000000000000000000000000000000000000000000000000000000000000000000000000000000000000000000000000000000000000000000000000000000000000000000000000000000000000000000000000000000000000000000000000000000000000000000000000000000000000000000000000000000000000000000000000000000000000000000000000000000000000000000000000000000000000000000000000000000000000000000000000000000000000000000000000000000000005200000000000000000000000000000000000000000000000000000000000000000000000000000000000000000000000000000000000000000000000000000000000000000000000000000000000000000000000000000000000000000000000000000000000000000000000000000000000000000000000000000000000000000000000000000000000000000000000000000000000000000000000000000000000000000000000000000000000000000000000000000000000000000000000000000000000000000000000000000000000000000000000000000000000000000000000000000000000000000000
#058320:24
#0583a0:00142400
#058320:00000014
#059320:24
#0603b0:0013
#060370:00000000000000000000002300000000
#061370:0013000000000000
#0613b0:00230000
#061361:00130000
#061321:0000002300000000
#061370:0000001300000000
#0613b0:0023
#061361:0013
#061321:0000000000230000
#062321:0000000000001323
#064321:0013
#064361:00000000000000000000002300000000
#065361:0013000000000000
#065321:00230000
#065370:00130000
#0653b0:0000002300000000
#065361:0000001300000000
#065321:0023
#065370:0013
#0653b0:0000000000230000
#066320:0000000000130000
#066360:00000023
#0663b1:00000013
#066371:0000000000000023
#0683b1:13
#068371:00230000
#069371:0013
#0693b1:00000023
#0703b1:1300000000000033
#070361:0000000000330000
#071361:0033
#0713b1:00000023
#072321:13
#072361:00230000
#073361:0000000000130000
#073321:0000000000000023
#074321:13
#074371:0000000000000033
#075321:0000000000330000
#076361:23
#0763b0:13230000
#076370:0053000000000000
#076321:00132300
#076361:0000005300000000
#077361:13230000
#077321:0053000000000000
#0773b0:00132300
#077370:0000005300000000
#0773b0:00000013
#077370:00000000000000000000000000532300
#077361:00000013
#077321:00000000000000000000000000532300
#078321:00130000
#078361:00000000005323000000000000000000
#078370:00130000
#0783b0:00000000005323000000000000000000
#078360:00000013
#078320:00000000000000000000000000532300
#0783b1:00000013
#078371:00000000000000000000000000532300
#079371:00130000
#0793b1:0000002300000000
#079321:0000000000001353
#079371:00000000000000000000000000000053
#080341:5353000000000000
#080391:00000053000000000000000000000000
#080361:0000535300000000
#0803b1:00000000000000530000000000000000
#080381:0023
#079370:0000000000000013
#079340:00000000000000000000000000000053
#080370:23
#080390:0013230000000000
#080360:00000053000000000000000000000000
#0803b0:0000001323000000
#080380:00000000000000530000000000000000
#080320:00000013
#080360:0000000000000053
#081320:23
#0823b0:13230000
#082370:0053000000000000
#082321:13230000
#082361:000000000000000000000000000000000000000000000000000000000000000000000000000000000000000000000000000000000000000000000000000000000000000000000000000000000000000000000000000000000000000000000000000000000000000000000000000000000000000000000000000000000000000000000000000000000000000000000000000000000000000000000000000000000000000000000000000000000000000000000000000000000000000000000000000000000000000000000000000000000000000000000000000000000000000000000000000000000000000000000000005300000000000000000000000000000000000000000000000000000000000000000000000000000000000000000000000000000000000000000000000000000000000000000000000000000000000000000000000000000000000000000000000000000000000000000000000000000000000000000000000000000000000000000000000000000000000000000000000000000000000000000000000000000000000000000000000000000000000000000000000000000000000000000000000000000000000000000000000000000000000000000000000000000000000000000000000000000000000000000000000000000000000000000000000000000000000000000000000000000000000000000000000000000000000000000000000000000000000000000000000000000000000000000000000000000000000000000000000000000000000000000000000000000000000000000000000000000000000000000000000000000000000000000000000000000000000000000000000000000000000000000000000000000000000000000000000000000000000000000000000000000000000000000000000000000000000000000000000000000000000000000000000000000000000000000000000000000000000000000000000000000000000000000000000000000000000000000000000000000000000000000000000000000000000000000000000000000000000000000000000000000000000000000000000000000000000000000000000000000000000000000000000000000000000000000000000000000000000000000000000000000000000000000000000000000000000000000000000000000000000000000000000000000000000000000000000000000000000000000000000000000000000000000000000000000000000000000000000000000000000000000000000000000000000000000000000000000000000000000000000000000000000000000000000000000000000000000000000000000000000000000000000000000000000000000000000000000000000000000000000000000000000000000000000000000000000000000000000000000000000000000000000000000000000000000000000000000000000000000000000000000000000000000000000000000000000000000000000000000000000000000000000000000000000000000000000000000000000000000000000000000000000000000000000000000000000000000000000000000000000000000000000000000000000000000000000000000000000000000000000000000000000000000000000000000000000000000000000000000000000000000000000000000000000000000000000000000000000000000000000000000000000000000000000000000000000000000000000000000000000000000000000000000000000000000000000000000000000000000000000000000000000000000000000000000000000000000000000000000000000000000000000000000000000000000000000000000000000000000000000000000000000000000000000000000000000000000000000000000000000000000000000000000000000000000000000000000000000000000000000000000000000000000000000000000000000000000000000000000000000000000000000000000000000000000000000000000000000000000000000000000000000000000000000000000000000000000000000000000000000000000000000000000000000000000000000000000000000000000000000000000000000000000000000000000000000000000000000000000000000000000000000000000000000000000000000000000000000000000000000000000000000000000000000000000000000000000000000000000000000000000000000000000000000000000000000000000000000000000000000000000000000000000000000000000000000000000000000000000000000000000000000000000000000000000000000000000000000000000000000000000000000000000000000000000000000000000000000000000000000000000000000000000000000000000000000000000000000000000000000000000000000000000000000000000000000000000000000000000000000000000000000000000000000000000000000000000000000000000000000000000000000000000000000000000000000000000000000000000000000000000000000000000000000000000000000000000000000000000000
#084321:13230000
#084371:0053000000000000
#085361:00001333
#085321:0000000000330023
#0863b1:13
#086371:00532300000000000000000000000000
#086381:00130000
#086341:00000000005323000000000000000000
#086321:00000013
#086361:00000000000000000000000000532300
#087351:13
#087391:00532300000000000000000000000000
#088321:1300002300000000
#088371:00000053000000000000000000000000
#0883b1:0013
#088361:000000000000000000000000000000000000000000000000000000000000000000000000005300000000000000000000
#0893b1:0023000000000000
#0903b1:13230000
#090371:0053000000000000
#091371:00000013
#0913b1:00000000000000000000000000532300
#091360:0000000000000013
#092320:00530000005323000000000000000000
#092360:00330000
#092371:0000001300003300
#0923b1:00000000000000000053000000532300
#092320:00000013
#092360:00000000000000000000000000532300
#093320:00130000
#093360:0000002300000000
#0933b0:0000000000001353
#093360:00000000000000000000000000000053
#0943b0:23
#093341:0000000000000013
#093391:00000000000000000000000000000053
#094341:5353230000000000
#094381:00000053000000000000000000000000
#094390:0013535323000000
#094350:00000053000000000000000000000000
#094340:00000000000000530000000000000000
#094321:0000001323000000
#094371:00000000000000530000000000000000
#094321:00000013
#094381:0000000000000053
#095321:23
#094360:00000013
#0943b0:0000000000000053
#095360:23
#0953b0:00132300
#095350:0000005300000000
#095371:00132300
#095321:0000005300000000
#0953b1:00000013
#095371:0000000000000052
#0963a1:24
#095320:00000013
#095370:000000000000000000000000000000000000000000000000000000000000000000000000000000000000000000000000000000000000000000000000000000000000000000000000000000000000000000000000000000000000000000000000000000000000000000000000000000000000000000000000000000000000000000000000000000000000000000000000000000000000000000000000000000000000000000000000000000000000000000000000000000000000000000000000000000000000000000000000000000000000000000000000000000000000000000000000000000000000000000000000000000000000000000000000000000000000000000000000000000000000000000000000000000000000000000000000000000000000000000000000000000000000000000000000000000000000000000000000000000000000000000000000000000000000000000000000000000000000000000000000000000000000000000000000000000000000000000000000000000000000000000000000000000000000000000000000000000000000000000000000000000000000000000000000000000000000000000000000000000000000000000000000000000000000000000000000000000000000000000000000000000000000000000000000000000000000000000000000000000000000000000000000000000000000000000000000000000000000000000000000000000000000000000000000000000000000000000000000000000000000000000000000000000000000000000000000000000000000000000000000000000000000000000000000000000000000000000000000000000000000000000000000000000000000000000000000000000000000000000000000000000000000000000000000000000000000000000000000000000000000000000000000000000000000000000000000000000000000000000000000000000000000000000000000000000000000000000000000000000000000000000000000000000000000000000000000000000000000000000000000000000000000000000000000000000000000000000000000000000000000000000000000000000000000000000000000000000000000000000000000000000000000000000000000000000000000000000000000000000000000000000000000000000000000000000000000000000000000000000000000000000000000000000000000000000000000000000000000000000000000000000000000000000000000000000000000000000000000000000000000000000000000000000000000000000000000000000000000000000000000000000000000000000000000000000000000000000000000000000000000000000000000000000000000000000000000000000000000000000000000000000000000000000000000000000000000000000000000000000000000000000000000000000000000000000000000000000000000000000000000000000000000000000000000000000000000000000000000000000000000000000000000000000000000000000000000000000000000000000000000000000000000000000000000000000000000000000000000000000000000000000000000000000000000000000000000000000000000000000000000000000000000000000000000000000000000000000000000000000000000000000000000000000000000000000000000000000000000000000000000000000000000000000000000000000000000000000000000000000000000000000000000000000000000000000000000000000000000000000000000000000000000000000000000000000000000000000000000000000000000000000000000000000000000000000000000000000000000000000000000000000000000000000000000000000000000000000000000000000000000000000000000000000000000000000000000000000000000000000000000000000000000000000000000000000000000000000000000000000000000000000000000000000000000000000000000000000000000000000000000000000000000000000000000000000000000000000000000000000000000000000000000000000000000000000000000000000000000000000000000000000000000000000000000000000000000000000000000000000000000000000000000000000000000000000000000000000000000000000000000000000000000000000000000000000000000000000000000000000000000005200000000000000000000000000000000000000000000000000000000000000000000000000000000000000000000000000000000000000000000000000000000000000000000000000000000000000000000000000000000000000000000000000000000000000000000000000000000000000000000000000000000000000000000000000000000000000000000000000000000000000000000000000000000000000000000000000000000000000000000000000000000000000000000000000000000000000000000000000000000000000000000000000000000000000000000000000000000000000000000
#096320:24
#096360:00130000
#096320:0000002300000000
#096370:0013
#0963b0:0000000000230000
#096320:00000013
#096360:0000000000000023
#0973a0:14240000
#097360:0054000000000000
#097321:00142400
#097361:0000005400000000
#099361:00000012
#099321:0000000000000052
#100361:22
#099380:00000012
#0993c0:0000000000000052
#100380:22
