This file was generated by Ched 2.6.4.0.
#TITLE ""
#ARTIST ""
#DESIGNER ""
#DIFFICULTY 0
#PLAYLEVEL
#SONGID ""
#WAVE ""
#WAVEOFFSET 0
#JACKET ""
#REQUEST "ticks_per_beat 480"
#00002: 4
#BPM01: 170
#00008: 01
#TIL00: ""
#HISPEED 00
#MEASUREHS 00
#0011a:14
#00112:0014
#00218:14
#00214:0014
#0031a:14
#00312:0014
#0041a:14
#00412:0014
#0051a:14
#00514:0014
#00618:14
#00612:0014
#0071a:14
#00712:0014
#01114:0014
#0121a:1414
#01214:00140014
#01318:1414
#01312:00140000
#0201a:1414
#02010:41
#02114:1414
#02218:14
#02212:0014
#02318:14
#02412:1414
#02518:1414
#02614:14
#0261a:0014
#02714:14000014
#02718:0014
#0281a:14
#02814:00140000
#02818:0014
#02812:00000014
#02918:14
#02914:00140000
#0291a:0014
#0161a:14
#01614:00140000
#01619:0014
#01613:00000014
#01718:14
#01712:00140000
#01717:0014
#01812:14
#01818:00140000
#01813:0014
#01819:00000014
#01914:14
#0191a:00140000
#01915:0014
#01412:1414
#01418:00140014
#01514:1414
#0151a:00140000
#03012:14
#03018:00140000
#03014:0014
#0301a:00000014
#03114:14
#03118:00140000
#03112:0014
#03218:14
#03212:00140000
#0321a:0014
#03214:00000014
#03210:41
#0331a:14
#03312:00140000
#03318:0014
#03414:14
#0341a:00140000
#03412:0014
#03418:00000014
#03512:14
#0351a:00140000
#03514:0014
#03814:00140014
#03818:0014
#0391a:1414
#03912:00140000
#04218:00140014
#04214:0014
#04312:1414
#0431a:00140000
#04418:0014
#04414:00140000
#04412:00000014
#0441a:24
#04410:41
#04518:14
#04514:00140000
#0451a:0014
#04512:00000014
#04614:00140000
#04618:14
#0461a:0014
#04612:00000014
#0491a:00000014
#04912:0014
#04918:00140000
#04914:14
#0481a:00000014
#04814:0014
#04818:00140000
#04812:14
#04714:0014
#04718:00000014
#03614:00000014
#03618:0000000000000014
#03612:00140000
#0361a:0014
#03714:14
#04018:00000014
#04014:0000000000000014
#0401a:00140000
#04012:0014
#04118:14
#05214:0014
#05218:00140000
#0521a:00000014
#05212:24
#05314:14000014
#05318:00140000
#05312:0014
#0531a:00000024
#0511a:00000014
#05418:00140000
#05414:00000014
#05412:00240000
#0541a:00000024
#05410:41
#05518:00140000
#05512:0014
#0551a:00000014
#05614:14
#05618:00140000
#05612:0014
#0581a:00140000
#05816:0014
#05812:00000014
#05916:14
#0591a:00140014
#05912:0014
#06012:14
#06018:00140000
#06014:0014
#0601a:00000014
#06116:14
#0611a:00140000
#06114:0014
#06118:00000014
#06212:14
#0621a:00140000
#06214:0014
#06218:00000014
#06312:14
#06316:00140000
#0631a:0014
#06314:00000014
#0641a:14
#06414:00140000
#06418:0014
#06412:00000014
#06410:41
#06516:14
#06512:00140000
#06518:0014
#06514:00000014
#0661a:14
#06612:00140000
#06618:0014
#06614:00000014
#0671a:14
#06716:00140000
#06712:0014
#06718:00000014
#06912:14
#06916:00140000
#0691a:0014
#06919:00000034
#07016:0014
#07017:00340034
#07018:34
#07112:00000014
#07119:00340000
#07118:34
#0731a:14
#07316:00140000
#07312:0014
#07313:00000034
#07416:0014
#07415:00340034
#07414:34
#0751a:00000014
#07513:00340000
#07514:34
#07612:14
#07618:00140000
#07614:0014
#0761a:00000014
#07712:14000014
#0771a:0014
#07716:00140000
#07718:00000014
#07814:00140000
#0781a:00140000
#07818:00000014
#07812:00000014
#08212:0014
#0821a:00000014
#0821f:21
#08218:34
#08312:14
#08316:00140000
#0831a:0014
#08314:00000014
#08310:41
#08418:14
#08414:00140000
#0841a:0014
#08416:00000014
#08518:0014
#08514:00000014
#0861a:14
#08616:00140000
#08612:00001414
#08716:14
#0871a:00140000
#08714:0014
#08718:00000014
#0901a:0014
#09012:00000014
#0911a:14000014
#09116:00140000
#09112:0014
#09114:00000024
#08918:00000014
#09212:00140000
#0921a:00000014
#09218:00240000
#09214:00000024
#09312:00140000
#09318:0014
#09314:00000014
#0941a:14
#09416:00140000
#09412:0014
#09418:00000024
#09614:00140014
#09618:0014
#09718:14
#09712:00140014
#0971a:0014
#0981a:14
#09816:00140000
#09812:0014
#0681f:11
#0811a:00000024
#0951a:00000024
#09512:00000024
#09514:00240000
#0365a:14
#01158:14
#01154:0014
#04352:0014
#04052:14
#0695a:0064
#07056:0024
#07352:0054
#07456:0024
#08256:00140000
#0815a:00000064
#008380:14343434
#009380:34343434
#010380:3434343434343434
#011380:24
#0353a0:00000014
#0363a0:24
#0373a0:00140000
#037380:00003434
#0383a0:24
#039320:00000014
#040320:24
#041320:00140000
#041340:00003434
#042320:24
#0473a0:14240000
#050320:14
#050350:0034
#051320:00240000
#056380:00000014
#0573a0:24
#057340:00140000
#057320:0024
#0573a0:00000014
#058380:24
#057321:00000014
#058341:24
#068321:14240000
#0683a1:00001424
#0693a1:0014
#069391:00000034
#070381:34
#070371:00340034
#070361:0034
#071381:34
#071391:00340000
#0713a1:0024
#0723a1:14240000
#072321:00001424
#073321:0014
#073331:00000034
#074341:34
#074351:00340034
#074361:0034
#075341:34
#075331:00340000
#075321:0024
#0793a1:00140000
#079381:0024
#079321:00000014
#080341:24
#080381:00140000
#0803a1:0024
#080341:00000014
#081321:34
#081341:0024
#0813a1:00000014
#082381:34
#082361:00240000
#085321:14240000
#088321:14
#088351:0034
#089321:00240000
#090341:14240000
#094381:00000014
#0953a1:24
#095341:00140000
#095321:0024
#0953a1:00000014
#096381:24
#095320:00000014
#096340:24
#098380:00000014
#099380:24
#099340:00142400
#0993a0:00000014
#100380:24
#099321:00000014
#100341:24
