This file was generated by Ched 2.6.4.0.
#TITLE ""
#ARTIST ""
#DESIGNER ""
#DIFFICULTY 0
#PLAYLEVEL
#SONGID ""
#WAVE ""
#WAVEOFFSET 0
#JACKET ""
#REQUEST "ticks_per_beat 480"
#00002: 4
#BPM01: 132
#BPM02: 204
#00008: 01
#00808: 02
#TIL00: ""
#HISPEED 00
#MEASUREHS 00
#00018:001400
#00118:001400
#00214:001400
#00314:001400
#0041a:001400
#00612:001400
#0051a:001400
#00712:001400
#00918:0014
#01014:0014
#0111a:0014
#01212:0014
#01318:0014
#01418:0014
#01514:0014
#01614:0014
#06114:0014
#0171a:0014
#01710:0041
#01814:0014
#0191a:0014
#02014:0014
#02118:0014
#02212:0014
#02318:0014
#02412:0014
#0251a:0014
#02614:0014
#02718:0014
#02710:0041
#02812:0014
#0291a:0014
#03014:0014
#03118:0014
#03212:0014
#0331a:0014
#0341a:0014
#03512:0014
#03612:0014
#03718:0014
#03710:0041
#03818:0014
#03914:0014
#04014:0014
#04512:0014
#04612:0014
#0471a:0014
#04710:0041
#0481a:0014
#04914:0014
#05014:0014
#06218:0016
#06318:0016
#06312:26
#0631f:21
#06418:16
#06518:0016
#06510:0041
#06612:16
#06618:0016
#06712:16
#06718:0016
#06818:16
#06918:0016
#07012:16
#07112:0016
#07212:16
#07218:0016
#07312:0016
#07318:16
#07418:16
#07912:16
#07918:0016
#07818:16
#07812:0016
#08012:16
#08112:0016
#08110:0041
#08318:16
#08312:0016
#08212:16
#08218:0016
#08418:16
#08518:0016
#08712:16
#08718:0016
#08618:16
#08612:0016
#08912:16
#08918:0016
#08812:16
#08818:0016
#09112:16
#09118:0016
#09018:16
#09012:0016
#09212:16
#0511f:0011
#07718:0026
#0413a0:0014
#0423a0:0034
#0433a0:0034
#0443a0:0024
#051380:0014
#052380:0024
#053340:0014
#054340:0024
#0553a0:0014
#0563a0:0024
#057320:0014
#058320:0024
#059380:0014
#060380:0024
#064320:0016
#065320:26
#068320:0016
#069320:26
#070380:0016
#071380:26
#074320:0016
#075320:26
#075380:0016
#076380:26
#076320:0016
#077320:26
#080380:0016
#081380:26
#084320:0016
#085320:26
#092380:0016
#093380:36260000
