This file was generated by Ched 2.6.4.0.
#TITLE ""
#ARTIST ""
#DESIGNER ""
#DIFFICULTY 0
#PLAYLEVEL
#SONGID ""
#WAVE ""
#WAVEOFFSET 0
#JACKET ""
#REQUEST "ticks_per_beat 480"
#00002: 4
#BPM01: 132
#BPM02: 204
#00008: 01
#00808: 02
#TIL00: ""
#HISPEED 00
#MEASUREHS 00
#0001c:001200000000000000000000
#00012:000000000000001200000000
#00016:00120000
#0001a:001200
#00018:00000012
#00014:000000000012
#00418:001200000000000000001200
#00416:00120000
#0051a:001200120000000000000000
#00514:000012120000
#00516:000000000012
#01012:001300000000
#0111b:001300000000
#01118:00000013
#01112:0023
#01712:00130013
#01718:00130000
#01715:000000000013000000000000
#0171b:13
#01710:0041
#01818:000000130000000000000013
#01815:130000000013000000130000
#01918:000000130000000000000013
#01915:000000000013000000130000
#02018:000000000013000000130000
#02012:1313
#02015:00130000
#0201b:001300000000
#02112:13130000
#0211b:00130000
#02118:000000000013000000130000
#0221b:13
#02215:00130000
#02218:000000000013000000000000
#02412:000000130000240014000000
#0241b:000000000013000000000000
#02418:000000000000001400000000
#02414:000000000014
#0241a:000000000000000000240014
#0231b:00000013
#02318:000000130013000000000000
#02315:000000000000000000000013
#03318:26000013
#03315:00130000
#0331b:00132300
#03412:130000000013000000000000
#03415:00130000
#03417:0013
#03414:000013
#03419:00000013
#03416:000000000000000000000013
#0351b:13
#03512:00131300
#03518:00130000
#03515:00000013
#0361b:130000000013000000000000
#03618:000000130000000000130013
#03615:000000131300
#03712:130013000000000000130000
#03718:00130000
#03715:0023
#03710:0041
#0381b:13
#03818:00130000
#03813:000000000013000000000000
#03819:0013
#03814:000013
#0381a:00000013
#03815:000000000000000000000013
#0391b:13000013
#03912:00130000
#03918:00131300
#04012:13
#04015:00130000
#0401a:000000000013000000000000
#04014:0013
#04019:000013
#04013:00000013
#04018:000000000000000000000013
#04118:00000013
#0421b:1313
#04218:00130013
#04212:000013
#04213:000000000000000000000013
#04215:000000000013000000000000
#04315:000000000013000000130000
#04319:13
#04314:001300000000
#0431a:00130000
#04412:1313
#04415:00130013
#0441b:000013
#04418:000000000013000000000013
#04515:00000013
#0451b:00130000
#04512:0023
#0461b:130000000013000000000000
#04618:00130000
#04616:0013
#04619:000013
#04614:00000013
#04617:000000000000000000000013
#04712:13
#0471b:00131300
#04715:00130000
#04718:00000013
#04710:0041
#04812:130000000013000000000000
#04815:000000130000000000130013
#04818:000000131300
#04918:000000000013000000000000
#0491b:130013000000000000130000
#04915:000000130000000000000013
#05012:000000130013000000000000
#05017:0013
#05014:000013
#05019:00000013
#05016:000000000000000000000013
#0501b:13
#05018:001300000000
#0511b:13130000
#05112:00000013
#05115:000000130013000000000000
#0511f:0011
#0521b:13001313
#05218:000000130000000000000013
#05215:000013
#05212:0013
#05315:00000013
#05312:1323
#05314:00130000
#05319:00130000
#0531a:00002424
#05412:130000000000130000000013
#05415:00130013
#05418:0013
#0541b:000013
#0541a:24240000
#05518:13000013
#0551b:001300230000
#05515:00130000
#05512:00002424
#0561b:130000000000130000000013
#05618:00130013
#05615:0013
#05612:240000240000000013000000
#05715:13000013
#05712:001300230000
#05718:00130000
#0571a:00002424
#05818:000000130000000000000013
#0581b:130000131300
#05815:00000013
#05812:24241300
#05912:13130023
#05918:00132300
#05915:000000000013000000000000
#06119:00120000
#06115:000000000012000000000000
#06117:00001212
#0611b:23
#06112:23
#06213:00120000
#06216:000000000014000000240000
#06217:12
#06212:0014
#0621a:00000014
#06312:00141300
#0631a:00140000
#06318:000000000013000000000000
#0631b:000000000000000000130013
#06316:24
#0631f:21
#06418:00131300
#06415:130000000013000000130000
#06412:000000001300000000000000000000000000000000130000
#0641b:0000000000130000
#06515:23130000
#0651b:00130000
#06512:000000000013000000130000
#06518:2313
#06510:0041
#0661b:13130000
#06615:00130000
#06618:000000000013000000130000
#06612:0013
#06715:13130000
#0671b:00130000
#06718:000000000013000000130013
#06712:000000131300
#07115:000000000013000000000000
#07118:13130000
#07112:000000130000000000130013
#0711b:0013
#07318:23130000
#07312:00130000
#0731b:000000000013000000130000
#07315:2313
#07512:00130000
#07518:13130000
#07515:000000000013000000130013
#0751b:000000131300
#06912:23130000
#0691b:23130000
#06918:000000000013000000130000
#06915:000000000000130000000013
#07018:130000000013000000130000
#07015:000000000000130000000000000000130000000000001300
#07012:0013
#0771a:000000140000000013000000
#07719:000000000000000000000013
#07712:2c140000
#0771b:000000000013000000000000
#07714:0024
#07713:00000024
#07818:001300000000
#07812:24130000
#07815:000000000013000000000000
#07814:000013
#07813:000000000000000000000013
#0781a:0024
#07819:00000024
#07912:001300130000
#0791b:000000130000000013000000
#07918:240000000013000000000013
#07915:00000013
#08315:000000000013000000000013
#08312:000000130000000013000000
#08318:00000013
#0831b:001300130000
#08314:24
#08418:00130013
#0841b:1323
#08412:001300000000
#08415:000000000013000000230000
#0851a:000000140014000000000000
#08518:00000014
#08512:00140000
#08516:0024
#08514:00000024
#08616:1424
#0861a:00140000
#08612:240000140014000000000000
#08614:00000014
#08618:00000024
#08716:140000000000000000000013
#08717:000000000013000000000000
#08712:00141300
#0871a:24140000
#0881b:13130013
#08812:000013000000000000130000
#08815:000000000000000000001300000000000000000000130000
#08818:0000000013000013
#0901a:240000140014000000000000
#09012:24140014
#09016:00002424
#09112:24130000
#09118:000000130000130000000013
#09115:000000000013000000130000
#0911b:00000013
#0911a:24
#09215:13
#0921b:00130000
#09213:000000242424
#09219:000000242424
#0251b:00130013
#02515:00130000
#02518:000000000013000000000000
#02512:24
#0261b:001300000000
#02615:000000130000000000000013
#02618:130000000013000000130000
#02715:000000130000000000000013
#02718:000000000013000000130000
#02710:0041
#0321b:00130000
#03215:00130000
#03218:0026
#03212:26000026
#03118:00002613
#03115:000000130013000000000000
#03112:00000013
#00118:001200000000000000120000
#00116:000000120000001200000000
#0011a:001200
#00114:000000000012
#01518:000013001300130000130000
#01512:00000013
#0151b:13
#01515:130000130013000000000000
#01615:130000000013000000130000
#01618:00131300
#0161b:13
#01612:00130000
#0161a:000033
#01619:000000000000003300000000
#01613:000000000000000000000033
#01614:000000000033
#06015:2313
#06018:00002313
#06012:00000023
#0601b:00230000
#06013:000033
#06014:000000000000003300000000
#06019:000000000033
#0601a:000000000000000000000033
#06815:0013
#06818:00000013
#06812:130000000000000000333333
#0681b:00130000
#06813:000033
#06814:000000000000003300000000
#0681a:000000000000000000000033
#06819:000000000033
#07215:00131300
#07218:130000000013000000130000
#0721b:000000001300000000000000000000000000000000130000
#07212:0000000000130000
#08015:00130000
#08012:1324
#0801b:001300000000
#08018:000000000013000000000000
#0801a:00000024
#08014:00000024
#08912:230000140014000000000000
#0891a:00140014
#08916:00002424
#0891b:23
#08113:000013
#08114:000000000000000000000013
#0811a:00140000
#08112:240000140013000000000000
#08118:2424
#08119:00000024
#08110:0041
#08215:001300000000
#0821b:00130000
#08218:000000000013000000000000
#08219:000013
#0821a:240000000000000000000013
#08212:0024
#08213:00000024
#01218:000000000013000013000000
#01215:13130013
#0121b:23
#01212:0023
#01315:000013000013000000130000
#01318:00131300
#0131b:23000013
#01418:130000000013000000130000
#01415:00131300
#01412:13000013
#0141b:00130000
#0281b:1313
#02815:000000000013000000130000
#02818:00130000
#02812:001300000000
#0291b:13130000
#02912:00130000
#02915:000000000013000000130000
#03012:13
#03018:00130000
#03015:000000000013000000000000
#07412:13130000
#07418:00130000
#07415:000000000013000000130000
#0741b:0013
#0761b:13
#07612:000000130000000000002600
#07618:0026
#07615:000026
#00214:001200000000000000000000
#0021a:000000000000001200000000
#00212:000000000000001200000000
#0021c:001200000000000000000000
#00218:000000120000000000001200
#00216:000000001200000000120000
#00312:12
#00318:001200000000000000000000
#00314:00120000
#0031a:001200
#0061a:001200000000000000000000
#00614:000000000000001200000000
#0061c:000000000000001200000000
#00612:001200000000000000000000
#00616:000000120000000000001200
#00618:000000001200000000120000
#0071c:12
#00716:001200000000000000000000
#0071a:00120000
#00714:001200
#09312:26
#09318:26
#01052:005300000000
#0115b:005300000000
#02052:0063
#02058:00000063
#02152:13
#0215b:13
#0515b:13
#06352:0023
#06356:14
#0645b:0000000000230000
#06458:0053
#06452:0000000000000023
#06455:00000063
#06558:1353
#06552:00000053
#06555:13
#06658:00000063
#06652:0053
#06655:13
#06955:0053
#06952:13
#0695b:13
#07058:63
#07055:0000000000230000
#07052:0053
#08458:00630023
#0845b:6363
#08455:00000023
#08752:0023
#0875a:44
#09255:53
#0925b:00130000
#09252:00130000
#06055:0063
#06058:00001353
#06052:00000013
#01658:0053
#01655:00000063
#06252:0054
#0625a:00000064
#06256:00000014
#06855:0063
#06858:00000053
#06852:53
#0685b:00630000
#0715b:0023
#07252:0000000000230000
#07255:0063
#0725b:0000000000000023
#07258:00000053
#08358:00000063
#0835b:0063
#08354:14
#08055:00530000
#08052:5314
#0805a:00000014
#07955:00000053
#07952:0053
#07958:14
#08858:0000000053000023
#0885b:00000063
#08855:0000000000000023
#08852:00000053
#0285b:0053
#02855:00000053
#0295b:13
#02952:13
#0175b:13
#01752:13
#07355:1363
#0735b:00000063
#07358:13
#07455:00000053
#0745b:0063
#07458:13
#0765b:63
#07652:00530000
#0535a:0044
#0545a:44
#05552:0034
#05652:34
#07752:1c
#07754:0014
#07753:00000014
#07852:14
#0785a:0014
#07859:00000014
#08556:0034
#08554:00000034
#0855b:43
#08552:33
#08652:34
#08656:0044
#08658:00000044
#09056:00003444
#0905a:14
#09052:14
#09152:14
#0915a:14
#09352:56130000
#09358:56
#0935b:00130000
#03258:0016
#03252:00000016
#03358:16
#08152:14
#08158:0014
#08159:00000014
#0615b:13
#06152:13
#08956:00004434
#0895b:43
#08952:33
#0825a:14
#08252:0014
#08253:00000014
#02552:14
#0575a:0044
#05852:34
#0675b:13
#07552:13
#003360:000000000000001200000000
#003320:000000000022
#0033c1:000000000000001200000000
#003381:000000000022
#0043a1:000000001200002200000000
#004340:000000000000001200002200
#005380:000000000000001200002200
#007380:000000000000001200000000
#0073c0:000000000022
#007321:000000000000001200000000
#007361:000000000022
#009321:000000000000130000330033
#010321:333300000000
#010351:000000000033230000000000
#0103b0:000000000000130033330033
#0113b0:333300000000
#011380:000000000033230000000000
#016380:0013
#016390:000000000000003300000000
#0163a0:000033
#0163b0:00000023
#016351:00000013
#016341:000000000033
#016331:000000000000000000000033
#017321:23
#017381:0013
#0173b1:00000033
#018381:23
#0183b1:00001323
#019321:13230000
#0193b1:00001323
#020321:0013
#020351:00000023
#020380:00000013
#0213b0:23
#021320:0013
#021350:00000033
#022320:23
#022320:0013
#022350:00000023
#022381:00000013
#0233b1:23
#023350:13
#023320:00230000
#023350:00001323
#024380:13230000
#025350:0013
#025320:00000033
#026350:23
#026320:00001323
#0273b0:13230000
#027320:00001323
#0283b0:0013
#028380:00000023
#028351:00000013
#029321:23
#0293b1:0013
#029381:00000033
#0303b1:23
#0303b1:0013
#030381:00000023
#030350:00000013
#031320:23
#031381:13
#0313b1:00230000
#033321:00001323
#0343b1:13230000
#0353b1:00001323
#036321:13230000
#0373b1:0013
#037381:00000023
#038351:13
#038321:00230000
#039321:0013
#039351:00000023
#040381:13
#0403b1:00230000
#041321:13
#041351:00230000
#0413b0:00130000
#041380:0023
#041321:0013
#042321:00230000
#0433b1:0013
#0443b1:00230000
#045321:13
#045351:00230000
#0453b1:00001323
#046321:13230000
#047321:00001323
#0483b1:13230000
#049321:0013
#049351:00000023
#0513b1:0013
#051381:00000023
#052351:13
#052321:00230000
#059381:00001323
#060351:13230000
#060351:0013
#060341:000000000000003300000000
#060331:000033
#060321:00000023
#060380:00000013
#060390:000000000033
#0603a0:000000000000000000000033
#0613b0:23
#062320:0014
#062360:00000024
#0623a1:00000014
#063361:24
#063321:0013
#063351:00000023
#064381:00001323
#0643b1:0000000000530000
#064350:00000013
#064320:0000000000000053
#065350:23
#065380:0013
#0653b0:00000023
#065321:00000013
#066351:23
#066321:0013
#066351:00000023
#066380:00000013
#0673b0:23
#068320:13
#068350:00230000
#0683b1:00130000
#068381:0023
#068350:0013
#068340:000000000000003300000000
#068330:000033
#068320:000000000000000000333333
#069320:23
#068381:00000013
#068391:000000000033
#0683a1:000000000000000000000033
#0693b1:23
#069351:0013
#069321:00000023
#070381:13
#0703b1:00230000
#070321:00001323
#070351:0000000000530000
#0713b1:0013
#071381:00000023
#072351:00001323
#072321:0000000000530000
#072380:00000013
#0723b0:0000000000000053
#073380:23
#073350:0013
#073320:00000023
#0733b1:00000013
#074381:23
#0743b1:0013
#074381:00000023
#074350:00000013
#075320:23
#0763b0:13
#076380:00230000
#076321:00130000
#076351:0023
#079321:0013
#079351:000023
#079351:00000013
#079321:000000000000000000000023
#080321:13
#080351:002300000000
#080351:00130000
#080321:000000000023000000000000
#0833b1:0013
#083381:000023
#083381:00000013
#0833b1:000000000000000000000023
#0843b1:13
#084381:002300000000
#084381:00130000
#0843b1:000000000023000000000000
#0843b1:0013
#084381:00000033
#0853b1:23
#084350:00000013
#085320:23
#087320:0013
#087360:00000023
#0873b1:000000000000000000130023
#088381:0000000013000053
#0883b1:00000033
#0893b1:23
#088320:00000013
#088350:0000000000000053
#089320:23
#092350:13
#092320:00230000
#093320:16230000
#093381:16
#0933b1:00230000
