This file was generated by Ched 2.6.4.0.
#TITLE ""
#ARTIST ""
#DESIGNER ""
#DIFFICULTY 0
#PLAYLEVEL
#SONGID ""
#WAVE ""
#WAVEOFFSET 0
#JACKET ""
#REQUEST "ticks_per_beat 480"
#00002: 4
#BPM01: 132
#BPM02: 204
#00008: 01
#00808: 02
#TIL00: ""
#HISPEED 00
#MEASUREHS 00
#0131b:00001313
#01315:23130013
#01412:13130000
#01418:00131300
#0141b:00000013
#01415:000000000013000000130000
#01512:00000013
#01518:00000013
#0151b:000000000033000000000000
#0151a:003300
#01519:00330000
#0161b:00130000
#01615:00130000
#01612:13
#01718:00132313
#01712:00000013
#01715:000000000013000000000000
#01710:0041
#01915:000000000013000000000013
#0341b:00000013
#03415:0013
#03512:13
#03518:00130000
#03915:00130000
#0391b:1313
#0771a:00140000
#07714:000000000014000000000000
#07718:00002414
#07712:00000024
#07814:140000000014000000240000
#0781a:24140014
#07818:0024
#0331b:00130000
#03314:24
#0111b:00002313
#02118:00132300
#02115:000000000013000000130000
#0211b:00000013
#02212:13
#02218:130000000013000000000000
#02215:00130000
#02415:13
#02412:00130000
#02318:00130013
#02315:000000000013000000000000
#0231b:0023
#08418:00000014
#08414:00000014
#0841a:0024
#08412:0024
#03815:0013
#03818:13000013
#08612:24142400
#0861a:00140000
#08618:2424
#08613:00000024
#08619:00000024
#00712:000000000000001300000000
#0071b:000000000000001300000000
#00715:13130000
#00718:001300001300000000000000
#00318:130000130000001300000000
#00315:001300001300000000000000
#0031b:000000000013
#01218:00002313
#01212:23130000
#01815:130000000013000000000013
#0181b:13
#01818:00130000
#02515:00132313
#0251b:00000013
#02518:000000000013000000000000
#0251a:24
#02718:000000000013000000000013
#02710:0041
#02915:00132300
#02918:000000000013000000130000
#02912:00000013
#0301b:13
#03015:130000000013000000000000
#03018:00130000
#0321b:00130000
#03218:23000024
#03214:0024
#03115:00130013
#03118:000000000013000000000000
#03112:0023
#02618:130000000013000000000013
#02612:13
#02615:00130000
#03715:0013
#03718:13
#0371b:00130000
#03712:00130000
#03710:0041
#0361b:00000013
#03612:00000013
#03615:0013
#06412:1313
#06415:00130013
#06418:000000000013000000000000
#0641b:001300000000
#0681b:0013
#06818:00000013
#06815:000000000013000000000000
#07918:140000000013000000000000
#07915:00130000
#0791a:000000000000000000000013
#07912:24
#08018:000000000013000000000000
#08014:13
#08019:001300000000
#08013:00130000
#08012:0024
#08016:00000024
#08112:00140000
#08118:000000000014000000000000
#08114:00002414
#0811a:24000024
#08110:0041
#08218:140000000014000000240000
#08212:24140014
#08214:0024
#08314:14
#08318:00130000
#0831a:24
#08512:00140000
#0851a:00142400
#08514:0024
#08519:00000024
#08513:00000024
#08814:00000014
#08818:00000014
#08812:00141400
#0881a:00141400
#09012:00142400
#0901a:24140024
#09014:24000024
#09018:0024
#08912:24140024
#0891a:24142400
#08914:0024
#08918:00000024
#09112:24140000
#0911a:00141400
#09114:0014
#09118:24
#09212:1424
#09218:14000014
#09214:00000014
#0921a:0024
#06612:13000013
#06615:00131300
#06618:000013000013000000000000
#04612:00000013
#04618:0013
#0471b:13
#04715:00130000
#04710:0041
#04812:00000013
#0481b:00000013
#04818:0013
#04915:13
#04912:00130000
#0491b:00130000
#04918:0013
#0411b:00130000
#04112:13
#04115:00130000
#04018:0013
#0401b:00000013
#04012:13
#04015:00000013
#05118:00130000
#05112:1313
#0511f:0011
#05018:0013
#05015:13000013
#0521b:13
#05212:0013
#05215:00000013
#05918:00130000
#05912:1423
#05412:2413
#05415:00000013
#05418:00240000
#05518:13
#05515:00130000
#05514:00000024
#0551a:0024
#06119:00120012
#06115:0012
#06112:24
#06215:1212
#06219:00121200
#06212:00000024
#0531b:00130000
#05318:13000024
#05312:0024
#0561b:0013
#05618:00000013
#05614:00240000
#0561a:24
#05715:13
#05718:00130000
#05712:0024
#0571a:00000024
#0581a:2414
#05816:00000014
#05812:00240000
#0651b:00130000
#06515:000000000013000000000000
#06512:23
#06510:0041
#06718:00130000
#06715:000000000013000000000000
#06712:000000000000000000000013
#0721b:1313
#07218:00130013
#07215:000000000013000000000000
#07212:001300000000
#07418:00131300
#07415:000000000013000000000000
#0741b:00000013
#07118:00130000
#07115:000000000013000000000013
#07312:00130013
#07318:000000000013000000000000
#07315:0013
#0731b:23
#07515:00130000
#07518:000000000013000000000000
#06915:00130000
#0691b:230000000013000000000000
#06918:000000000000000000000013
#0701b:000000000013000000000000
#07012:0013
#07015:00000013
#06315:00130000
#06318:000000000013000000000013
#0631a:24
#0631f:21
#07612:0024
#0871a:24
#08714:24
#0601b:23
#0431b:330033330033330000000000
#0421b:000000000000000000330033
#04214:33
#04215:000000330033000000000000
#04413:33
#04412:000000330033000000000000
#0021b:00330000
#00212:00000033
#00112:00000033
#00118:00330000
#00015:00000033
#0001b:00330000
#00615:00330000
#00618:00000033
#08458:00000024
#08454:00000024
#0845a:0064
#08452:0054
#00752:000000000000005300000000
#0075b:000000000000006300000000
#03858:53
#03755:0063
#06452:0053
#06455:00000063
#0685b:0063
#06858:00000023
#08854:00000054
#08858:00000064
#0885a:0064
#08852:0054
#0915a:0064
#09154:0064
#09252:5454
#09258:54000024
#09254:00000024
#0925a:0064
#0395b:0063
#04052:53
#05055:63
#04958:0053
#05152:0053
#0525b:63
#06655:0063
#06652:00000063
#0725b:0063
#07258:00000053
#07458:0053
#0745b:00000053
#07052:0053
#07055:00000053
#07355:0063
#07352:00000063
#0735b:13
#0255a:14
#0255a:14
#03354:14
#03258:00000014
#03254:0014
#06552:13
#0695b:43
#07652:0054
#0635a:14
#05752:0014
#0585a:14
#05952:0063
#0605b:53
#05352:0014
#05452:14
#0555a:0014
#0565a:14
#06252:00000014
#06152:14
#0895a:14
#08952:14
#0175b:13
#01752:13
#0855a:44
#08552:34
#02155:13
#02958:13
#07756:14
#0935a:00140000
#09352:00140000
#000380:001300000000000000000000
#0003b0:000000332300000000000000
#000320:000000000000001300000000
#000350:000000000000000000332300
#0013b0:001300000000000000000000
#001380:000000332300000000000000
#001350:000000000000001300000000
#001320:000000000000000000332300
#002380:001300000000000000000000
#0023b0:000000332300000000000000
#002350:000000000000001300000000
#002320:000000000000000000332300
#004350:001300333300000000002300
#004320:000000000000003300000000
#005380:001300333300000000002300
#0053b0:000000000000333300000000
#006320:001300000000000000000000
#006350:000000332300000000000000
#0063b0:000000000000001300000000
#006380:000000000000000000332300
#007320:000000000000001300000000
#007350:000000000023
#0073b1:000000000000001300000000
#007381:000000000023
#0093a1:000000000000120000320032
#0103a1:322200000000
#010341:000000000000120000320032
#011341:322200000000
#015381:133300000000
#015391:00330000
#0153a1:003300
#0153b1:000000000033230000000000
#0163b1:0013
#0163a1:000000000000003300000033
#016391:000000003333
#016381:00000033
#0173b1:23
#016320:0013
#016330:000000000000003300000033
#016340:000000003333
#016350:00000033
#017320:23
#018380:00001323
#019390:13230000
#0193a0:00001323
#0203b0:13230000
#020350:0013
#020320:00000033
#021350:23
#022320:0013
#022350:00000033
#023320:23
#0243a0:0014
#024390:000000000000003400000034
#024380:000000003434
#024370:00000034
#0253a0:24
#026350:00001323
#027340:13230000
#027330:00001323
#028320:13230000
#028380:0013
#0283b0:00000033
#029380:23
#0303b0:0013
#030380:00000033
#0313b0:23
#033350:00001323
#034380:13230000
#035320:00001323
#0363b0:13230000
#037350:0013
#037320:00000023
#038380:13
#0383b0:00230000
#0393b0:0013
#039380:00000023
#040320:13
#040350:00230000
#041380:0013
#042380:000033
#0423b0:000000000000000000330033
#0433b0:330033330033330000000000
#0443b0:00530000
#0453b0:23
#041321:00001333
#042341:33
#042351:000000330033000000530000
#043351:00000033
#044331:33
#044321:000000330033000000330000
#045321:23
#045381:00001323
#046351:13230000
#0473b1:00001323
#048321:13230000
#049381:0013
#0493b1:00000023
#050351:13
#050321:00230000
#051321:0013
#051351:00000023
#0523b1:13
#052381:00230000
#059321:0013
#059351:00000023
#0603b1:13
#060381:00230000
#060321:0014
#060331:000000000000003400000034
#060341:000000003434
#060351:00000034
#061321:24
#063321:0013
#063351:00000023
#064321:0013
#064351:00000033
#065321:23
#065381:0013
#0653b1:00000023
#066351:0013
#066321:00000033
#067351:23
#0673b1:0013
#067381:00000023
#068381:13
#0683b1:00230000
#0683b1:0013
#068381:00000053
#0693b1:23
#069351:0013
#069321:00000023
#070321:13
#070351:00230000
#070321:0013
#070351:00000033
#071321:23
#0713b1:0013
#071381:00000023
#0723b1:0013
#072381:00000033
#0733b1:23
#073351:0013
#073321:00000033
#074351:23
#074381:0013
#0743b1:00000033
#075381:23
#075321:0013
#075351:00000023
#0763b1:13
#076381:00230000
#076321:0014
#077361:24
#079321:0013
#079351:00000023
#083351:0013
#083321:00000023
#084381:13
#0843b1:00230000
#0843a1:0014
#084381:00000054
#0853a1:24
#084320:0014
#084340:00000054
#085320:24
#087320:00140000
#087340:0024
#0873a0:00000014
#088380:24
#088320:0014
#088340:00000034
#089320:24
#0883a1:0014
#088381:00000034
#0893a1:24
#0913a1:0014
#091381:00000024
#091340:0014
#091320:00000024
#092320:14
#092340:00240000
#092381:14
#0923a1:00240000
#0923a1:0014
#092381:00000054
#0933a1:34240000
#092320:0014
#092340:00000054
#093320:34240000
