This file was generated by Ched 2.6.4.0.
#TITLE ""
#ARTIST ""
#DESIGNER ""
#DIFFICULTY 0
#PLAYLEVEL
#SONGID ""
#WAVE ""
#WAVEOFFSET 0
#JACKET ""
#REQUEST "ticks_per_beat 480"
#00002: 4
#BPM01: 132
#BPM02: 204
#00008: 01
#00808: 02
#TIL00: ""
#HISPEED 00
#MEASUREHS 00
#0021c:001200000000000000001200
#00214:00120000
#00212:000000001200001200000000
#00216:001200000000000000001200
#00218:000000001200001200000000
#0021a:00000012
#0031a:12
#00314:001200000000000000000000
#00318:00120000
#0031c:000000000000001200000000
#00312:000012000012
#00418:000000000012
#00412:00120000
#0041c:001200000000000000000000
#00416:001200000000000000000000
#0111b:130000000013000000130000
#01116:00002414
#01212:130000000013000000130000
#0121b:000000130000000013000000
#01216:24142400
#01312:000013000000000000130000
#01316:240000140014140000000000
#0131b:1313
#01416:14001414
#0141b:000000130013000000000000
#01412:13
#01716:140000130000000000000014
#0171b:00130000
#01712:000000000014000000000000
#01714:000014
#0171a:00002414
#01710:0041
#0181a:14
#01812:001300000000
#01818:00130013
#01815:000000000013000013000000
#0181b:000000000000000000000013
#00018:000000121200001200000000
#00016:001200000000000000121200
#0001c:001200000000000000001200
#00012:000000001200001200000000
#00512:001200000000000000001200
#0051a:00120000
#00514:001200
#00516:0012
#00518:000000000000001200000000
#0051c:000012000000000000000000000000000012000000000000
#00912:00001313
#00916:000000000000000000000014
#01012:130000000013000000000000
#0101b:00001313
#01016:000000000000000014000014
#01512:001300130000
#0151b:130000000013000000130000
#01516:1414
#01518:00130000
#01515:001300
#01616:14
#01612:000000130013001400000014
#0161b:13
#01618:0014
#0161a:000000001414
#01614:00000014
#02117:00130000
#02112:14132414
#0211a:000000000014000000000000
#02118:000014
#02116:000000000000000000000014
#03316:00130013
#03317:0013
#0331b:00130000
#03312:2423
#0331a:24
#03416:13
#03412:00130000
#0341b:130013
#03417:000000000000000000000013
#04117:00000013
#04112:13000013
#0411b:130000130000230000000013
#04118:001300
#04115:000000000013000000000000
#04116:0013000000000000
#0421b:13
#04217:000013130013000000000000
#04215:000013
#04218:000000000000000000000013
#04216:13
#04312:000013000000130000000013
#04318:000000000013000000000000
#04316:00000013
#0431b:00000013
#04315:00130000
#04412:13
#04416:000013130013000000000000
#04418:000000000000000013000013
#04418:000013
#04415:00000013
#04417:13
#05214:000000000000000000000018
#05216:000000000000000014140000
#05212:1314
#05217:13
#0521a:0014
#0621c:00120000
#06216:000000000000120000001200000000140000000000140000
#06218:12
#06212:12001414
#0621a:00001424
#06312:240000140000000000130013
#0631a:24140000
#06316:000000000013000000000000
#0631b:0013
#0631f:21
#06419:00130000
#06412:1300000000130013
#06414:001300000000
#0641b:000000000013000000130000
#06417:1300000000000013
#06416:00001313
#06516:2300130000000013
#0651b:2300130000130000
#06512:000000000013130000130000
#06517:0013
#06510:0041
#06616:00130013
#0661b:13131300
#06612:000000000000000000001300130000000000000000130000
#06617:0000000000130000
#06717:000000130000000000130013
#06712:000000130000000013000000
#0671b:1313
#06716:000000000013000000000000
#06912:000000130000000000130013
#06917:00130000
#0691b:000000000013130000000000
#06916:0014
#06915:26
#08517:000000000013000000000013
#08519:00000013
#08514:0013
#08516:000013
#0851b:001300000000
#08512:00130024
#0851a:0024
#08618:00160000
#08612:00000016000000002400000000000000
#08614:13000013
#08616:000000000013000000000013
#08619:0013
#08617:000013
#0861a:24000024
#08712:240000160000000014000000
#08718:001600000000
#08716:000000000014000000140014
#0871a:0014
#08719:13
#08912:000000140014140000280000
#0891a:24140014
#08916:2428
#09012:26142814
#0901a:000000140014140000000000
#09018:26
#09016:00000028
#09112:26130013
#0911b:00131313
#09116:000000000013130000000000
#09117:000000000000000000000013
#09118:26
#09212:130000260026
#09217:1300001300000000
#09216:000000130000000000000000000014000000140000001400
#0921b:00130000
#09218:000026
#03516:0013
#03512:13130013
#0351b:130000000013130000000000
#03517:0000130000130000
#0361b:130000130013000000000013
#03615:00001616
#03612:000000130000000000000000000000001300000000001300
#03616:13
#03715:131300
#03712:00132313
#0371b:00131300
#03718:000013000013000000000000
#03710:0041
#04715:000013000013000000000000
#04718:00130000
#04712:13001313
#0471b:0013
#04710:0041
#05816:000014240000000014000014
#0581a:240000000014000000000000
#06014:000000000000001400000000
#06018:000000241416
#06012:240000240000000000260016
#06112:2c120000
#06118:000000120012000000000000
#0611c:00001212
#06116:00001212
#02414:000000000000001400240000
#0241a:000014
#02418:000013130000240000001400
#02412:000000000013000000000014
#02416:14
#07016:140000000000000000130013
#07012:1314
#0701b:00130000
#07017:000000000013130000000000
#0711a:14
#07117:00131300
#07112:000000000013130000000000
#0711b:000000000000000000130013
#07116:13
#0771a:000000140000000014000000
#07716:001800000018000000240014
#07712:241818240000
#07816:001400241400
#07812:240000000014000000000014
#0781a:00000024
#07916:240014000014000000000013
#07917:000013
#08017:001300000000
#08018:000000261300
#08015:000000000000000000000013
#08012:000000000013230000260000
#0801b:00000023
#03112:14140013
#0311a:14140000
#0311b:0013
#03117:0000000000130000
#03116:000000000014240000000000
#0321b:000013130000000000000000
#03212:1324
#03216:2413000000000000
#0321a:00000024
#02512:000000140014000000000000
#02514:000014
#02518:00002616
#02516:240000000000000000000014
#0251a:00140000
#02618:16130013
#02612:001300130000
#02615:000000000013000000000013
#05012:000000000014000000000016
#05014:00001818
#0501a:000014
#05015:16160000
#0501b:001300000000
#05112:1c130000
#05117:00130000
#0511b:000000000013130000000000
#05116:0013
#0511f:0011
#04912:000000130012000000000013
#04916:00002414
#0491c:000012
#04918:13
#04915:001300000000
#0491b:00130000
#0271b:1313
#02717:0000000000130000
#02718:000000000013000000000013
#02712:0013
#02715:00130000
#02710:0041
#02815:001300000000
#02812:00130013
#02816:00001414
#0281b:000000000013130000000000
#05316:000000000000240014000014
#05312:00001c1c0000000000240000
#05314:18
#0531a:0024
#05412:001400130000
#0541b:000000131300
#05417:000000000000000000000013
#05416:000000240014000000000000
#0541a:24
#00114:001200000000001200000000
#0011c:000000121200000000000000
#00116:001200
#0011a:001200000000001200000000
#00112:000000000000000000121200
#00118:000000000012
#00612:001200000000000000001200
#0061a:00120000
#0061c:000000001200001200000000
#00618:001200000000000000001200
#00616:000000001200001200000000
#00614:00000012
#00714:12
#0071a:001200000000000000000000
#00716:00120000
#00712:000000000000001200000000
#0071c:000000000000001200000000
#02212:140000000000000000000013
#0221b:001300000000
#02215:00130013
#02218:000000000013000013000000
#02312:000000000013000000000000
#0231b:000000130000000000000013
#02315:000013000000000013130000
#02316:0024
#02012:0014
#02016:1400000000140014
#0201a:00000014
#0201b:000000000013000000000000
#02015:000013130000000000000000
#02912:00142616
#0291a:000000140014000000000000
#02918:000014
#02916:140000000000000000000014
#0291b:13
#0301b:001300000000
#03015:00130000
#03018:000000000013130000000000
#03012:1614
#03016:00000013
#0301a:00000014
#03817:13
#0381b:00130000
#03812:130013
#03816:000000000000000000000013
#0391b:13130013
#03916:0000130000130000
#03917:0013
#03912:130000000013130000000000
#04017:13000013
#0401b:000000130000000000001300130000000000000000001300
#04012:130000130000000013130000
#04016:0013
#04512:1313
#0451b:13132313
#04518:000013000013000000000000
#04515:001300001300000000000000
#04812:130000000013000000000013
#0481b:130000130000000013000013
#04815:00001616
#04612:13130000
#0461b:13
#05516:000000130000240014000014
#0551b:001300000000
#0551a:00000024
#0561a:001400000000
#05616:000000240014000000000013
#0561b:0013
#05612:240000131300
#0591b:00130000
#05912:130000000013000000000000
#05916:0013000000000000
#0591a:00002424
#0681b:001300001313
#06816:00130000
#06812:130000000013001300000013
#06815:00001616
#07317:2300130000000013
#07312:2300130000130000
#0731b:000000000013130000130000
#07316:0013
#07417:00130013
#07412:13131300
#0741b:000000000000000000001300130000000000000000130000
#07416:0000000000130000
#0721b:1300000000130013
#07217:00001313
#07216:1300000000000013
#07212:000000000013000000130000
#07214:00130000
#07219:001300000000
#07512:1313
#07516:000000130000000000130013
#0751b:000000130000000013000000
#07517:000000000013000000000000
#07612:001300240000
#0761b:1300001300000000
#07617:00130000
#07616:000024
#0761a:000000000024
#08112:230000140000000014000000
#08116:000000001414000000240014
#08118:261300000000
#0811a:0024
#08110:0041
#08216:001400241400
#0821a:240000000014000000000014
#08212:00000024
#08316:240014000014000013000000
#08317:000000000000000000000013
#0841b:000000000013130000000000
#08416:000000000000000000000000000000000000000000000000000000000000000000000000000000000000000000000000000000000000000000000000000000000000000000000000000000000000000000000000000000000000000000000000000000000000000000000000000000000000000000000000000000000000000000000000000000000000000000000000000000000000000000000000000000000000000000000000000000000000000000000000000000000000000000000000000000000000000000000000000000000000000000000000000000000000000000000000000000000000000000000000000000000000000000000000000000000000000000000000000000000000000000000000000000000000000000000000000000000000000000000000000000000000000000000000000000000000000013000000000000000000000000000000000000000000000000000000000000000000000000000000000000000000000000000000000000000000000000000000000000000000000000000000000000000000000000000000000000000000000000000000000000000000000000000000000000000000000000000000000000000000000000000000000000000000000000000000000000000000000000000000000000000000000000000000000000000000000000000000000000000000000000000000000000000000000000000000000000000000000000000000000000000000000000000000000000000000000000000000000000000000000000000000000000000000000000000000000000000000000000000000000000000000000000000000000000000000000000000000000000000000000000000000000000000000000000000000000000000000000000000000000000000000000000000000000000000000000000000000000000000000000000000000000000000000000000000000000000000000000000000000000000000000000000000000000000000000000000000000000000000000000000000000000000000000000000000000000000000000000000000000000000000000000000000000000000000000000000000000000000000000000000000000000000000000000000000000000000000000000000000000000000000000000000000000000000000000000000000000000000000000000000000000000000000000000000000000000000000000000000000000000000000000000000000000000000000000000000000000000000000000000000000000000000000000000000000000000000000000000000000000000000000000000000000000000000000000000000000000000000000000000000000000000000000000000000000000000000000000000000000000000000000000000000000000000000000000000000000000000000000000000000000000000000000000000000000000000000000000000000000000000000000000000000000000000000000000000000000000000000000000000000000000000000000000000000000000000000000000000000000000000000000000000000000000000000000000000000000000000000000000000000000000000000000000000000000000000000000000000000000000140000000000000000000000000000000000000000000000000000000000000000000000000000000000000000000000000000000000000000000000000000000000000000000000000000000000000000000000000000000000000000000000000000000000000000000000000000000000000000000000000000000000000000000000000000000000000000000000000000000000000000000000000000000000000000000000000000000000000000000000000000000000000000000000000000000000000000000000000000000000000000000000000000000000000000000000000000000000000000000000000000000000000000000000000000000000000000000000000000000000000000000000000000000000000000000000000000000000000000000000000000000000000000000000000000000000000000000000000000000000000000000000000000000000000000000000000000000000000000000000000000000000000000000000000000000000000000000000000000000000000000000000000000000000000000000000000000000000000000000000000000000000000000000000000000000000000000000000000000000000000000000000000000000000000000000000000000000000000000000000141400000000000000000000000000000000000000000000000000000000000000000000000000000000000000000000000000000000000000000000000000000000000000000000000000000000000000000000000000000000000000000000000000000000000000000000000000000000000000000000000000000000000000000000000000000000000000000000000000000000000000000000000000000000000000000000000000000000000000000000000000000000000000000000000000000000000000000000000000000000000000000000000000000000000000000000000000000000000000000000
#08412:00002314
#0841a:00000024
#08812:1400000014000014
#0881a:000014000014140000140000
#08816:0000140000141414
#05717:00130000
#05712:000013000000240000000014
#05716:000000000000000014240000
#0191b:000000000013000000000000
#01912:000000130000000000000013
#01918:000013000000000013130000
#01916:0014
#09312:2c
#0135b:0023
#00558:000000000000005200000000
#0055c:000000000000000000000000000000000022000000000000
#01452:23
#01456:0054
#01552:0023
#0165b:23
#04257:000000000053000000000000
#04256:53
#04456:000000000063000000000000
#04457:63
#06557:0053
#0655b:4300000000230000
#06552:00000053
#06556:4300000000000023
#09252:53330000
#09256:0023000000000000
#0925b:00630000
#09257:0000002300000000
#03357:0053
#03352:34
#0335a:44
#0345b:53
#0355b:0063
#03557:0000000000230000
#04152:53000053
#04156:0023000000000000
#0435b:00000063
#06452:0000000000230023
#06456:00006353
#06457:0000000000000023
#0645b:00000053
#0665b:0063
#06657:0000000000230000
#06656:00000063
#06652:3300000000000023
#06956:0014
#0695b:0023
#06955:16
#07056:14
#07052:2314
#07057:0063
#0715a:14
#07152:0053
#07156:53
#05152:1c000013
#0515b:0063
#05156:0063
#0875a:0054
#08756:00000054
#08752:34
#0275b:0063
#02757:0000000000230000
#05252:53
#05257:53
#0525b:00130000
#0035c:000000000000006200000000
#00352:005200
#00752:000000000000005200000000
#0075c:000000000000006200000000
#01756:14
#02052:0064
#02056:0000000000240024
#0205a:00000054
#02152:34
#0215a:44
#03052:0034
#0305a:00000044
#03152:34
#0315a:44
#0315b:0063
#03157:0000000000230000
#03252:5334
#03256:0023000000000000
#0325a:00000044
#03656:63
#03652:0023000000000000
#0375b:0063
#03852:63
#03952:0053
#03956:0000000000230000
#04057:53
#0405b:0023000000000000
#04552:0063
#0465b:63
#0475b:0053
#04852:53
#05952:53
#05956:0023000000000000
#06256:0000000000240024
#0625a:00005444
#06252:00000064
#0635b:0063
#06352:34
#0635a:44
#06357:00000013
#07356:0063
#07352:3300000000230000
#0735b:00000063
#07357:3300000000000023
#0725b:0000000000230023
#07257:00005363
#07256:0000000000000023
#07252:00000063
#07452:0053
#07456:0000000000230000
#07457:00000053
#0745b:4300000000000023
#0765b:6300002300000000
#07657:00530000
#07652:0014
#07656:000014
#0765a:000000000014
#07552:0053
#07557:33
#0675b:0063
#06756:43
#06852:53
#08852:6400000000000024
#08856:0000640000246424
#0885a:00006464
#08456:000000000000000000000000000000000000000000000000000000000000000000000000000000000000000000000000000000000000000000000000000000000000000000000000000000000000000000000000000000000000000000000000000000000000000000000000000000000000000000000000000000000000000000000000000000000000000000000000000000000000000000000000000000000000000000000000000000000000000000000000000000000000000000000000000000000000000000000000000000000000000000000000000000000000000000000000000000000000000000000000000000000000000000000000000000000000000000000000000000000000000000000000000000000000000000000000000000000000000000000000000000000000000000000000000000000000000000000000000000000000000000000000000000000000000000000000000000000000000000000000000000000000000000000000000000000000000000000000000000000000000000000000000000000000000000000000000000000000000000000000000000000000000000000000000000000000000000000000000000000000000000000000000000000000000000000000000000000000000000000000000000000000000000000000000000000000000000000000000000000000000000000000000000000000000000000000000000000000000000000000000000000000000000000000000000000000000000000000000000000000000000000000000000000000000000000000000000000000000000000000000000000000000000000000000000000000000000000000000000000000000000000000000000000000000000000000000000000000000000000000000000000000000000000000000000000000000000000000000000000000000000000000000000000000000000000000000000000000000000000000000000000000000000000000000000000000000000000000000000000000000000000000000000000000000000000000000000000000000000000000000000000000000000000000000000000000000000000000000000000000000000000000000000000000000000000000000000000000000000000000000000000000000000000000000000000000000000000000000000000000000000000000000000000000000000000000000000000000000000000000000000000000000000000000000000000000000000000000000000000000000000000000000000000000000000000000000000000000000000000000000000000000000000000000000000000000000000000000000000000000000000000000000000000000000000000000000000000000000000000000000000000000000000000000000000000000000000000000000000000000000000000000000000000000000000000000000000000000000000000000000000000000000000000000000000000000000000000000000000000000000000000000000000000000000000000000000000000000000000000000000000000000000000000000000000000000000000000000000000000000000000000000000000000000000000000000000000000000000000000000240000000000000000000000000000000000000000000000000000000000000000000000000000000000000000000000000000000000000000000000000000000000000000000000000000000000000000000000000000000000000000000000000000000000000000000000000000000000000000000000000000000000000000000000000000000000000000000000000000000000000000000000000000000000000000000000000000000000000000000000000000000000000000000000000000000000000000000000000000000000000000000000000000000000000000000000000000000000000000000000000000000000000000000000000000000000000000000000000000000000000000000000000000000000000000000000000000000000000000000000000000000000000000000000000000000000000000000000000000000000000000000000000000000000000000000000000000000000000000000000000000000000000000000000000000000000000000000000000000000000000000000000000000000000000000000000000000000000000000000000000000000000000000000000000000000000000000000000000000000000000000000000000000000000000000000000000000000000000000000000242400000000000000000000000000000000000000000000000000000000000000000000000000000000000000000000000000000000000000000000000000000000000000000000000000000000000000000000000000000000000000000000000000000000000000000000000000000000000000000000000000000000000000000000000000000000000000000000000000000000000000000000000000000000000000000000000000000000000000000000000000000000000000000000000000000000000000000000000000000000000000000000000000000000000000000000000000000000000000000000
#08452:00005354
#0845a:00000064
#02856:00003444
#02956:34
#05757:00230000
#05752:0034
#05556:00234400
#02556:14
#07752:1414
#07756:00000014
#0855a:4444
#08552:34000034
#09352:5c
#09357:00120000
#06058:0014
#06052:00000016
#06152:1c
#07852:14
#07856:0014
#0785a:00000014
#07956:14
#0865a:44000044
#08652:0034
#08956:4448
#08952:00000038
#0895a:44
#09052:3638
#09058:46
#09056:00000048
#05356:0034
#0545a:44
#05652:34
#08058:0016
#08052:00000016
#08158:16
#0815a:0014
#08156:00000014
#0825a:14
#08256:0014
#08252:00000014
#08356:14
#09158:46
#09152:36
#0585a:44
#003320:001200
#003360:000000000000002200000000
#0033c1:000000000000001200000000
#003381:000000000022
#004381:001200
#0043c1:000000000000002200000000
#004360:000000000000001200000000
#004320:000000000022
#005380:000000000000001200002200
#0053c0:000000000000000000000000000000000052000000000000
#0073c0:000000001200005200000000
#007380:000000000022
#007321:000000000000001200000000
#007361:000000000022
#010361:000014000024000000000000
#011361:000014000024000000000000
#0133b1:0013
#013361:00000024
#014321:13
#014361:00240000
#014361:0014
#014321:00000023
#015321:0013
#015361:00000024
#0163b1:13
#016361:00240000
#0183b1:000000132300
#019351:132300000000
#020321:00001424
#020361:0000000000540000
#0203a0:00000014
#020360:0000000000000054
#0213a0:24
#022320:000000132300
#023380:132300000000
#0263b0:000000132300
#026351:000000000000000013230000
#027321:132300000000
#027380:000013230000000000000000
#0273b0:00001323
#027370:0000000000530000
#027321:000000000000000000130023
#0283b1:132300000000
#0313b1:00001323
#031371:0000000000530000
#032321:13230000
#032361:0053000000000000
#032361:0013
#0323a1:000000000000005400240000
#032370:00000013
#032320:000000000054
#033320:24
#033370:0013
#0333b0:00000023
#0343b0:13
#034370:00230000
#034370:000000000013230000000000
#034321:0013
#034361:000000000000005323000000
#034361:00000013
#034321:000000000000000000005323
#0353b1:00001323
#035371:0000000000530000
#036361:13230000
#036321:0053000000000000
#0373b1:0013
#037371:00000023
#038321:13
#038361:00230000
#038361:000000000013230000000000
#0383b0:0013
#038370:000000000000005323000000
#038370:00000013
#0383b0:000000000000000000005323
#039320:00001323
#039360:0000000000530000
#040370:13230000
#0403b0:0053000000000000
#041320:13230000
#041360:0053000000000000
#041320:00001333
#042360:33
#042320:000000330023000000000000
#042371:000000000013000000000000
#0423b1:000023
#042321:000000000000000000130023
#0433b1:132300000000
#0433b1:00001333
#044371:33
#0443b1:000000330023000000000000
#044360:000000000013000000000000
#044320:000023
#045320:0013
#045360:00000023
#0463b0:13
#046370:00230000
#0463b0:000000000013230000000000
#046361:0013
#046321:000000000000005323000000
#046370:000000000000000013230000
#046321:00000013
#046361:000000000000000000005323
#0463b0:000000000000000000000013
#0473b0:23
#0473b0:0013
#047370:00000023
#048320:13
#048360:00230000
#0513b0:0013
#051370:00000023
#051361:0013
#051321:00000023
#052321:13
#052361:00230000
#052370:13
#0523b0:00230000
#054320:000000000000000000130023
#055360:132300000000
#055360:00130000
#055320:0023
#0563b0:000000000000000000130023
#057370:132300000000
#057370:00130000
#0573b0:0023
#058320:000000132300
#0583b0:000000000000000000130023
#059320:13230000
#059360:0053000000000000
#059320:0013
#059360:00000000000000000053000023000000
#0603b0:13
#060370:00530000230000000000000000000000
#0623a0:00001424
#062360:0000000000540000
#062321:00000014
#062361:0000000000000054
#063321:24
#0633b1:0013
#063371:00000023
#064361:00001333
#064321:0000000000530053
#065361:23
#0643b0:00000013
#064370:0000000000000053
#0653b0:23
#065370:00001323
#0653b0:0000000000530000
#065321:00000013
#065361:0000000000000053
#066321:23
#0663b1:00001323
#066371:0000000000530000
#066360:00000013
#066320:0000000000000053
#067360:23
#0673b0:0013
#067370:000023
#068320:13
#068360:002300000000
#0693b0:0013
#069370:00000023
#070320:13
#070360:00230000
#070370:0013
#0703b0:00000023
#071360:13
#071320:00230000
#071320:0013
#071360:00000023
#072370:00001333
#0723b0:0000000000530053
#073370:23
#072321:00000013
#072361:0000000000000053
#073321:23
#073361:00001323
#073321:0000000000530000
#0733b0:00000013
#073370:0000000000000053
#0743b0:23
#074320:00001323
#074360:0000000000530000
#074371:00000013
#0743b1:0000000000000053
#075371:23
#075321:0013
#075361:000023
#0763b1:13
#076371:002300000000
#076371:00132300
#0763b1:0000005300000000
#0783a1:000000140024000000000000
#0793a1:000000140024000000000000
#079361:0013
#079321:000023
#079371:00000013
#0793b1:000000000000000000000023
#080361:13
#080321:002300000000
#080371:00130000
#0803b1:000000000023000000000000
#082321:000000140024000000000000
#083321:000000140024000000000000
#083371:0013
#0833b1:000023
#083361:00000013
#083321:000000000000000000000023
#084371:13
#0843b1:002300000000
#084361:00130000
#084321:000000000023000000000000
#084321:00001354
#084361:000000000000000000000000000000000000000000000000000000000000000000000000000000000000000000000000000000000000000000000000000000000000000000000000000000000000000000000000000000000000000000000000000000000000000000000000000000000000000000000000000000000000000000000000000000000000000000000000000000000000000000000000000000000000000000000000000000000000000000000000000000000000000000000000000000000000000000000000000000000000000000000000000000000000000000000000000000000000000000000000000000000000000000000000000000000000000000000000000000000000000000000000000000000000000000000000000000000000000000000000000000000000000000000000000000000000000000000000000000000000000000000000000000000000000000000000000000000000000000000000000000000000000000000000000000000000000000000000000000000000000000000000000000000000000000000000000000000000000000000000000000000000000000000000000000000000000000000000000000000000000000000000000000000000000000000000000000000000000000000000000000000000000000000000000000000000000000000000000000000000000000000000000000000000000000000000000000000000000000000000000000000000000000000000000000000000000000000000000000000000000000000000000000000000000000000000000000000000000000000000000000000000000000000000000000000000000000000000000000000000000000000000000000000000000000000000000000000000000000000000000000000000000000000000000000000000000000000000000000000000000000000000000000000000000000000000000000000000000000000000000000000000000000000000000000000000000000000000000000000000000000000000000000000000000000000000000000000000000000000000000000000000000000000000000000000000000000000000000000000000000000000000000000000000000000000000000000000000000000000000000000000000000000000000000000000000000000000000000000000000000000000000000000000000000000000000000000000000000000000000000000000000000000000000000000000000000000000000000000000000000000000000000000000000000000000000000000000000000000000000000000000000000000000000000000000000000000000000000000000000000000000000000000000000000000000000000000000000000000000000000000000000000000000000000000000000000000000000000000000000000000000000000000000000000000000000000000000000000000000000000000000000000000000000000000000000000000000000000000000000000000000000000000000000000000000000000000000000000000000000000000000000000000000000000000000000000000000000000000000000000000000000000000000000000000000000000000000000000000000000540000000000000000000000000000000000000000000000000000000000000000000000000000000000000000000000000000000000000000000000000000000000000000000000000000000000000000000000000000000000000000000000000000000000000000000000000000000000000000000000000000000000000000000000000000000000000000000000000000000000000000000000000000000000000000000000000000000000000000000000000000000000000000000000000000000000000000000000000000000000000000000000000000000000000000000000000000000000000000000000000000000000000000000000000000000000000000000000000000000000000000000000000000000000000000000000000000000000000000000000000000000000000000000000000000000000000000000000000000000000000000000000000000000000000000000000000000000000000000000000000000000000000000000000000000000000000000000000000000000000000000000000000000000000000000000000000000000000000000000000000000000000000000000000000000000000000000000000000000000000000000000000000000000000000000000000000000000000000000000000005400000000000000000000000000000000000000000000000000000000000000000000000000000000000000000000000000000000000000000000000000000000000000000000000000000000000000000000000000000000000000000000000000000000000000000000000000000000000000000000000000000000000000000000000000000000000000000000000000000000000000000000000000000000000000000000000000000000000000000000000000000000000000000000000000000000000000000000000000000000000000000000000000000000000000000000000000000000000000000000
#085321:24
#0843a0:00000014
#084360:0000000000000054
#0853a0:24
#0873a0:0014
#087360:000024
#087360:00000014
#0873a0:000000000000000000000024
#088320:14
#088360:002400000000
#088360:00140000
#088320:000000000024000000000000
#0883a0:00001434
#088360:0000000000540054
#0893a0:24
#088361:00000014
#088321:0000000000000054
#089361:24
#092321:13230000
#092361:0053000000000000
#0923b0:00132300
#092370:0000005300000000
#093320:1c
#093370:00220000
