This file was generated by Ched 2.6.4.0.
#TITLE ""
#ARTIST ""
#DESIGNER ""
#DIFFICULTY 0
#PLAYLEVEL
#SONGID ""
#WAVE ""
#WAVEOFFSET 0
#JACKET ""
#REQUEST "ticks_per_beat 480"
#00002: 4
#BPM01: 132
#BPM02: 204
#00008: 01
#00808: 02
#TIL00: ""
#HISPEED 00
#MEASUREHS 00
#0001a:000014000014
#00112:000014000014
#00218:000014000014
#00314:000014000014
#0041a:001400
#00412:000000000014
#00512:000000000014
#0051a:001400
#00618:001400
#00614:000000000014
#00714:000000000014
#00718:001400
#00918:0014
#01014:0014
#01018:14
#01114:14
#0111a:0014
#01212:14
#0121a:0014
#01312:14
#01318:0014
#01314:00000014
#01418:14000014
#01414:0014
#01514:14
#0151a:0014
#01512:00000014
#0161a:14
#01612:00140000
#01618:0014
#01614:00000014
#01718:14
#01712:00001414
#01710:0041
#01812:14
#0181a:00001414
#01918:00000014
#01912:0014
#0191a:14
#02012:14
#02018:00140000
#02014:0014
#0201a:00000014
#02114:14
#0211a:00001414
#0221a:14
#02212:00001414
#02314:00000014
#0231a:0014
#02312:14
#0241a:14
#02414:00140000
#02418:0014
#02412:00000014
#02518:14
#02512:0014
#02513:00000014
#02614:14
#0261a:0014
#02619:00000014
#02718:14000014
#02712:0014
#02710:0041
#02814:1414
#0281a:00140000
#02818:00000014
#02912:14
#0291a:0014
#02919:00000014
#03018:14
#03012:0014
#03013:00000014
#03114:14000014
#0311a:0014
#03218:1414
#03212:00140000
#03214:00000014
#0331a:14
#0341a:0014
#03414:00000014
#0351a:14
#03618:0014
#03612:00000014
#03718:14
#03712:00140000
#03710:0041
#03812:0014
#03818:00000014
#03912:14
#04014:0014
#0401a:00000014
#04114:1414
#0411a:00140000
#04218:14000014
#04212:0014
#04313:14
#04319:00140000
#04314:0014
#04418:14
#04412:0014
#04416:00000014
#0451a:14
#0461a:0014
#04614:00000014
#04718:14
#04710:0041
#0481a:0014
#04812:00000014
#04918:14
#04914:00140000
#0491a:00001414
#05012:14140000
#05018:0014
#05014:00000014
#05118:14
#0511f:0011
#05218:0014
#05212:00000014
#05318:14
#05312:00140000
#05414:0014
#0541a:00000014
#05514:14
#0551a:00140000
#05618:0014
#05612:00000014
#0571a:14
#05714:00140000
#05814:0014
#0581a:00000014
#05912:1414
#05918:00140000
#0591a:00000014
#06012:1414
#0601a:00140000
#06118:0014
#06214:14
#0621a:0014
#06216:00000014
#06318:00140000
#06314:0014
#0631a:00000014
#06312:24
#0631f:21
#06414:1414
#0641a:00140000
#06418:00000014
#06512:14
#0651a:00140000
#06510:0041
#06718:00140000
#06712:0014
#06713:00000034
#06918:00140000
#06912:0014
#0691a:00000014
#07014:14
#07018:00140000
#07012:0014
#0701a:00000014
#07114:14
#07118:00140000
#07212:0014
#07216:00000014
#0731a:14000014
#07312:00140000
#07318:0014
#07414:00140000
#07418:00000014
#0741a:0014
#07512:00140000
#07518:0014
#07514:00000014
#0761a:1414
#07612:00140000
#07812:1414
#07816:00000014
#07818:00140000
#07914:00140000
#07918:0014
#07912:00000014
#0791a:14
#08018:1414
#08012:00140000
#08014:00000014
#0811a:14
#08112:00140000
#08110:0041
#08314:00140000
#0831a:0014
#08319:00000034
#08514:00140000
#0851a:0014
#08512:00000014
#08618:14
#08614:00140000
#0861a:0014
#08612:00000014
#08718:14
#08714:00140000
#0881a:0014
#08816:00000014
#08912:14000014
#0891a:00140000
#08914:0014
#09018:00140000
#09014:00000014
#09012:0014
#0911a:00140000
#09114:0014
#09118:00000014
#09212:1414
#0921a:00140000
#07714:00140000
#07716:00000014
#0771a:0024
#08418:14
#0841a:0014
#08419:00340000
#08218:00000014
#0821a:0014
#06614:00000014
#06612:0014
#06814:14
#06812:0014
#06813:00340000
#09316:00240000
#02154:14
#02952:14
#09252:0054
#09054:00000024
#09052:0054
#08952:00000024
#08954:0064
#0835a:0064
#08458:54
#0845a:0064
#08258:00000024
#0825a:0064
#07458:00000024
#0745a:0064
#0735a:00000024
#07358:0054
#06654:00000024
#06652:0054
#06752:0054
#06854:64
#06852:0054
#06052:0054
#0765a:0064
#09356:00140000
#06154:14
#06954:14
#07758:14
#08558:14
#033340:0014
#034340:24
#035320:0014
#036320:24
#037380:0014
#038380:24
#0393a0:0014
#0403a0:24
#045340:0014
#046320:24
#047320:0014
#048340:24
#051320:0014
#051340:00000034
#052340:34
#052320:00240000
#0533a0:0014
#053380:00000034
#054380:34
#0543a0:00240000
#055340:0014
#055320:00000034
#056320:34
#056340:00240000
#057380:0014
#0573a0:00000034
#0583a0:34
#058380:00240000
#060320:0014
#061340:24
#065340:00001424
#066380:14240000
#066320:0014
#066340:00000034
#067320:24
#067320:0014
#067330:00000034
#068340:34
#068330:00340000
#068320:0034
#069340:24
#071320:00001424
#0723a0:14240000
#073380:0014
#0733a0:00000034
#074380:24
#0743a0:0014
#074380:00000034
#0753a0:24
#0763a0:0014
#077380:24
#081380:00001424
#082340:14240000
#0823a0:0014
#082380:00000034
#0833a0:24
#0833a0:0014
#083390:00000034
#084380:34
#084390:00340000
#0843a0:0034
#085380:24
#0873a0:00001424
#088320:14240000
#089340:0014
#089320:00000034
#090340:24
#090320:0014
#090340:00000034
#091320:24
#092320:0014
#093360:34240000
