This file was generated by Ched 2.6.4.0.
#TITLE ""
#ARTIST ""
#DESIGNER ""
#DIFFICULTY 0
#PLAYLEVEL
#SONGID ""
#WAVE ""
#WAVEOFFSET 0
#JACKET ""
#REQUEST "ticks_per_beat 480"
#00002: 4
#BPM01: 128
#00008: 01
#TIL00: ""
#HISPEED 00
#MEASUREHS 00
#0001a:14
#0011a:14
#00212:14
#00312:14
#00818:14
#00918:14
#01014:14
#01114:14
#04418:2616
#0441f:21
#04512:1616
#04510:41
#04618:1616
#04712:16
#04718:0016
#04812:1616
#04918:1616
#05012:1616
#05118:16
#05112:0016
#05218:14
#05314:14
#05512:14
#05618:14
#0581a:14
#0541a:14
#05410:41
#05714:14
#05912:14
#0641a:14
#06410:41
#0651a:14
#06612:14
#06712:14
#06812:0016
#06818:26
#06918:16
#06912:0016
#07018:16
#07012:0016
#07212:16
#07218:0016
#07312:16
#07318:0016
#07412:16
#07418:0016
#01618:14
#01512:14
#01914:14
#0121a:14
#01210:41
#01312:14
#0141a:14
#01714:14
#01818:14
#02618:14
#02314:14
#0201a:14
#02112:14
#02714:14
#02218:14
#02210:41
#02512:14
#0241a:14
#0361a:14
#0361f:11
#0371a:14
#03814:14
#03914:14
#04018:14
#04118:14
#04212:14
#04312:14
#03210:41
#0043a0:14
#0053a0:24
#006320:14
#007320:0024
#0283a0:14
#0293a0:24
#030320:14
#031320:24
#032380:14
#033380:24
#034340:14
#035340:24
#060380:14
#061380:24
#062340:14
#063340:24
#071380:1626
#075340:14
#076320:000000000034002400000000000000000000000000000000
