This file was generated by Ched 2.6.4.0.
#TITLE ""
#ARTIST ""
#DESIGNER ""
#DIFFICULTY 0
#PLAYLEVEL
#SONGID ""
#WAVE ""
#WAVEOFFSET 0
#JACKET ""
#REQUEST "ticks_per_beat 480"
#00002: 4
#BPM01: 128
#00008: 01
#TIL00: ""
#HISPEED 00
#MEASUREHS 00
#0361f:11
#03615:0000000013130000
#03618:00000000000000000013000000000000
#0361b:00000013
#03612:24000013
#0361a:24
#0591b:00130000
#05915:00130000
#05912:0000131a
#0591a:24
#05812:2400130000000024
#05818:00130000
#05712:24130000
#05718:00132400
#0571a:0000000000000024
#05714:00000000000000000000002400000000
#0561b:00130000
#05615:00130000
#0561a:2400000000000024
#05512:1300000013000024
#0551b:13001313
#05515:0000001300001300
#05517:00000013000000000000000000000000
#05518:0000000000130000
#05418:2400000000000013
#05412:00001313
#0541b:00001313
#05415:0000000000130000
#05410:41
#05318:0000001300000000
#05312:1324
#05316:00000013000000000000000000000000
#0531b:13
#0531a:00000000000000000000002400000000
#05314:0000000000000024
#05218:0000000000000013
#05212:24001313
#0521b:00001313
#05215:0000000000130000
#0521a:24
#07012:14001400000000000014000000000000
#07014:00000000140000000000001400000000
#07018:00000014000000000000140000000000
#07016:0014
#0701a:00000000001400000000000024000000
#0691a:14001400000000000014000000000000
#06918:00000000140000000000001400000000
#06914:00000014000000000000140000000000
#06916:0014
#06912:00000000001400000000000024000000
#05018:13000000130000000013000000000000
#0501a:00000000000000000000001300000000
#05014:0000000000130000
#05012:00000000001300001300000000000000
#05016:00000013
#05015:00000013000000000000000000000000
#0501b:0013000000000000
#04915:13000000130000000013000000000000
#04913:00000000000000000000001300000000
#04919:0000000000130000
#0491b:00000000001300001300000000000000
#04917:00000013
#04918:00000013000000000000000000000000
#04912:0013000000000000
#04612:13000000130000000013000000000000
#04614:00000000000000000000001300000000
#04619:0000000000130000
#04617:0013
#04618:00000000001300000000000000000000
#0461b:00000013000000000000000013000000
#04615:0013000000000000
#0451b:13000000130000000013000000000000
#04519:00000000000000000000001300000000
#04514:0000000000130000
#04516:0013
#04515:00000000001300000000000000000000
#04512:00000013000000000000000013000000
#04518:0013000000000000
#04510:41
#0631a:1400140014000014
#06314:14141400
#06316:0014000000140000
#06312:0000001400000000
#06318:00000024
#06212:1400140014000014
#06218:14141400
#06216:0014000000140000
#0621a:0000001400000000
#06214:00000024
#0611a:1400140014000014
#06114:14141400
#06116:0014000000140000
#06112:0000001400000000
#06118:00000024
#02017:1300000000130000
#02012:13
#02016:0000001300000013
#0201b:00130000
#01617:1313000000130000
#01616:0000001300000013
#01612:1300000000130000
#0161b:0000001300000013
#01416:1300000000130000
#0141b:13
#01417:0000001300000013
#01412:00130000
#0211b:00000013
#02116:00000013
#02112:0013000000000000
#02117:0013000000000000
#02217:1313
#02216:00000000001300000000000013000000
#02212:0013000000000000
#02210:41
#0401b:00130000000000000000000000000000
#04012:00130014
#0401a:0000000000000014
#04018:00000000000000000013001300000000
#04015:0000000013130000
#03512:24131316
#03518:00130016
#0351b:0013
#0341b:00130000
#03415:00130000
#0341a:2400000000000024
#0331b:00130000
#03315:00130000
#03312:0000000000000024
#03318:00000000000000000000002400000000
#03314:0024
#0331a:24
#03212:2400130000000024
#03218:00130000
#03210:41
#0311b:1313
#03112:13001313
#03118:0000001300001300
#03116:00000013000000000000000000000000
#03115:0000000000130000
#0311a:0000000000000024
#03015:0000000000000013
#0301b:00001313
#03012:00001313
#03018:0000000000130000
#03014:24
#02915:0000001300000000
#0291b:13
#02917:00000013000000000000000000000000
#02912:13000000000000000000002400000000
#02918:0000000000000024
#0291a:0024
#03918:00130013000000000000130000001300
#03915:00001300000000000013000000130000
#03912:13000000130000000000001300000000
#0391b:00001313
#00718:0000000014000013
#00714:0014
#0071b:0013000000000000
#00712:0013000000000000
#00715:00000000000000000000000000000013
#01016:0000001300000000
#01012:0013000000000000
#01018:13000013
#0101b:0000001300000013
#0081b:13000013
#00817:0000001300000000
#00814:0000001300000000
#00812:00000013
#07512:00000016
#07518:00000016
#07212:2300001300001400
#07218:00000013000000000014000000000000
#07214:0000000014140000
#0721b:2300001300000000
#07215:0013130000000000
#0721a:00000014
#0741a:00000014
#0741b:1300001300000000
#07412:1300001300001400
#07418:00000013000000000014000000000000
#07414:0000000014140000
#07415:0013130000000000
#07314:00000000000000000014001400000000
#07312:1300001300000000
#0731b:1300001300000000
#07318:0013130014141400
#07315:00000013000000000000000000000000
#06718:00000000000000130000000000000000
#06715:00001300000000130000000000000000
#06619:0000000000000013
#0661a:00000013
#0661b:0013000000130000
#06612:00000000000000000000000000000013
#06613:00000000000000000000000000130000
#06614:00000000000000000000001300000000
#06615:00000000000000000013000000000000
#06618:00000000000000130000000000000000
#06415:00001300130000000000001300000013
#06412:13000000000013000000000000130000
#06418:00130000001300000000000000001300
#0641b:00000013000000000000000013000000
#06410:41
#06514:0000000000000013
#06513:00000013
#06512:0013000000130000
#0651b:00000000000000000000000000000013
#0651a:00000000000000000000000000130000
#06519:00000000000000000000001300000000
#06518:00000000000000000013000000000000
#06515:00000000000000130000000000000000
#06012:2400140014000014
#06016:0014000000140000
#06018:24141400
#0601a:0000001400000000
#06014:00000024
#05118:0000001300000000
#05114:00000000001300000000000000000000
#05119:00130000
#05113:00000013000000000000000000000000
#0511a:0013000000000000
#05112:00130000000000002400240024000000
#0511b:13
#05116:00000000000000000024002400000000
#04414:00000000000000000000001300000000
#04419:0000000000130000
#04412:23000000130000000013000000000000
#04417:0013
#04418:00000000001300000000000000000000
#0441b:00000013000000000000000013000000
#04415:0013000000000000
#0441f:21
#04312:1313000000000000
#0431b:00130000000000000000000000000000
#04318:0000131300000000
#04315:00000000001300000000000000000000
#04115:00000000130000130013000000000000
#04118:0013
#04112:14
#0411a:0014000000000000
#0381b:00001313
#0381a:00000000001300000000000000000000
#03814:00130000
#03819:00000013000000000000000000000000
#03813:0013000000000000
#03818:00130000000000000000000000000000
#03812:13
#03715:0000000013130000
#0371b:00000000000000000013000000000000
#03712:00000013001300000000000014000000
#03718:0013131300000000
#0371a:00000014
#02815:0000000000000013
#0281b:00001313
#02812:00001313
#02818:0000000000130000
#02615:0013
#02618:0013
#0261b:13
#02612:13
#02516:13
#0251b:13
#02512:0000131300000000
#02517:0000131300000000
#0241b:0000000000000013
#02417:00000013
#02412:0000000000131300
#02316:0000000000000014
#01712:0013000000000000
#01717:0013000000000000
#01716:0000000000000013
#0171b:00000013
#0151b:0013000000000000
#01516:0013000000000000
#01512:0000000000000013
#01517:00000013
#01312:00130013
#01315:0000000000130000
#01318:0013
#0131b:0000001300000000
#01212:13
#01217:0000000000001313
#0121b:13
#01215:0000001300000000
#01210:41
#00618:12000013
#0061b:0000001200000000
#00615:00000013
#00613:0000001200000000
#00616:12
#0031b:1312
#00313:0012
#00319:0000001200000000
#00315:0000001200000000
#00312:13
#00317:00120000
#0011c:0000000012120000
#00112:1300121200001200
#0011b:13
#00117:00121212
#00012:0000000000000013
#0001b:0000000000000013
#00014:12
#00016:00120000
#00018:0000001200001200
#00212:0000000000000013
#0021b:0000000000000013
#0021a:12
#00218:00120000
#00216:0000001200001200
#04215:00130013000000000000000013000000
#0421a:00000000000000000000001300000000
#04214:0000000000130000
#04219:00000000000000000013000000000000
#04213:0013
#04218:00000000000000130000000000000000
#04212:0000001300000000
#0421b:1313130000000000
#01115:0000000013000013
#0111b:00000013
#01118:0000000000130000
#01117:00000013000000000000000000000000
#00912:1300000000000013
#00915:00000013
#00918:0000000000130000
#0091b:0013
#00916:00130000
#07616:000000000014001400000000000000000000000000000000
#07112:14000000000014000026002600000000
#07118:00140000001400002600260026000000
#07114:0014140000000000
#0711a:00000014000000000000000000000000
#0481a:00000000000000000000001300000000
#04814:0000000000130000
#04818:23000000130000000013000000000000
#04812:00000000001300001300000000000000
#04816:00000013
#04815:00000013000000000000000000000000
#0481b:0013000000000000
#06814:00000000140000000000001400000000
#06812:24001400000000000014000000000000
#06818:00000014000000000000140000000000
#06816:0014
#0681a:00000000001400000000000024000000
#01816:0013000000000000
#0181b:0013000000000000
#01817:0000000000000013
#01812:00000013
#04715:0000001300000000
#04719:00000000001300000000000000000000
#04714:00130000
#0471a:00000013000000002400240024000000
#04713:0013000000000000
#0471b:00130000000000000000000000000000
#04712:13
#04716:00000000000000000024002400000000
#02719:0000000000130000
#02714:0000000000130000
#02718:00131300
#02715:00000000001300130000000000000000
#02712:24000023
#0271b:00000023
#0271a:24
#01917:0013000000000000
#01912:0013000000000000
#0051c:0012000000001200
#00516:00000012
#00512:0012
#00412:12000012
#0041c:0000001200000000
#06752:00000013
#0675b:00000013
#06758:00000000000000530000000000000000
#06755:00000000000000630000000000000000
#06354:64646414
#06358:00000054
#0635a:0000000000000024
#06356:0024000000240000
#06352:0000002400000000
#06258:54545414
#06254:00000064
#06252:0000000000000024
#06256:0024000000240000
#0625a:0000002400000000
#06154:64646414
#06158:00000054
#0615a:0000000000000024
#06156:0024000000240000
#06152:0000002400000000
#02852:16
#02858:16
#0195b:0000001300000000
#01956:0000001300000000
#01957:0053000000000000
#01952:0053000000000000
#06058:64545414
#06052:1400000000000024
#06054:00000064
#06056:0024000000240000
#0605a:0000002400000000
#01852:0000001300000000
#01857:0000001300000000
#01856:0063000000000000
#0185b:0063000000000000
#0525a:14
#05252:14
#0595a:14
#05952:0000235a
#05852:1400000000000014
#0575a:0000000000000014
#05754:00000000000000000000001400000000
#05758:0014
#05752:14
#0565a:1400000000000014
#05552:0000000000000014
#0555b:63
#05557:00000053000000000000000000000000
#05458:14
#0535a:00000000000000000000001400000000
#05354:0000000000000014
#05352:5314
#05356:00000063000000000000000000000000
#03552:14002356
#03558:00000066
#0355b:0023
#0345a:1400000000000014
#03352:0000000000000014
#03358:00000000000000000000001400000000
#03354:0014
#0335a:14
#03252:1400000000000014
#0315a:0000000000000014
#03152:53
#03156:00000063000000000000000000000000
#03054:14
#02952:00000000000000000000001400000000
#02958:0000000000000014
#0295a:0014
#0295b:63
#02957:00000053000000000000000000000000
#05152:00000014
#05158:0000001300000000
#03652:14
#0365a:14
#07158:00000016
#07152:0000001400000000
#0475a:00000014
#04755:0000001300000000
#0705a:00000014
#06952:00000014
#0685a:00000014
#02156:00000063
#02152:0053000000000000
#02157:0053000000000000
#02257:0053
#02252:0053000000000000
#02256:00000000002300000000000000000000
#0465b:00000013
#04552:00000013
#05056:00000013
#04957:00000013
#0405b:00230000000000000000000000000000
#03958:0000000000000053
#00758:0054
#00754:0064
#0075b:0063000000000000
#00752:0053000000000000
#01056:0000006300000000
#01052:0053000000000000
#0105b:0000000000000063
#0085b:63000063
#00857:0000005300000000
#07552:00000066
#07558:00000056
#07252:00000014
#0725a:00000014
#0745a:00000014
#07452:00000014
#07358:00000014
#0445b:00000013
#02655:0063
#02658:0053
#0265b:63
#02652:53
#02552:0000005300000000
#02557:0000005300000000
#02356:0000000000000024
#02052:53
#02056:0000006300000063
#02057:0000000000530000
#0165b:0000006300000063
#01657:0053000000530000
#01752:0053000000000000
#01757:0053000000000000
#0155b:0063000000000000
#01556:0063000000000000
#0145b:63
#01457:0000005300000053
#01456:0000000000630000
#00658:52000053
#0065b:0000005200000000
#00655:00000063
#00653:0000006200000000
#00656:62
#0375a:00000014
#03752:00000014
#04856:00000013
#01257:0000000000000053
#0125b:53
#01255:0000005300000000
#01157:00000023000000000000000000000000
#00952:63
#00956:00230000
#0055c:0062000000000000
#00452:52000052
#0045c:0000006200000000
#0003a0:12220000
#000360:00001222
#002340:12220000
#002380:00001222
#004320:12
#004360:0000002200000000
#0043c1:0000001200000000
#004381:00000022
#004320:00000012
#005360:0022000000000000
#0053c1:0012000000000000
#005381:0022
#006381:12000033
#0063b1:0000003200000000
#0073b1:0033000000000000
#007381:00003426
#006360:12
#006330:0000003200000000
#006350:00000033
#007320:0033000000002600
#007340:0034
#0083b0:13000033
#008370:0000003300000000
#009370:23
#009321:1323
#009361:00530000
#010321:0013000000002300
#010361:0000003300000000
#0103b1:0000000000000013
#011371:00000053000000000000000000000000
#0113b1:0023
#0123b1:13
#012381:0000002300000000
#012350:0000001300000000
#012320:00000023
#012370:0000000000000013
#0133b0:00230000
#0143b0:13
#014370:00230000
#014370:0000001300000000
#0143b0:0000000000230000
#014361:0000000000130000
#014321:0000000000000023
#014370:0000000000000013
#0153b0:0033000000000000
#015370:0023
#015361:0013000000000000
#015321:0023
#016371:0013000000330000
#0163b1:0000003300000033
#017371:0033000000000000
#0173b1:0023
#017320:0013000000000000
#017360:0023
#0183b0:1333000000000000
#018370:0000002300000000
#018361:0013000000000000
#018321:0000002300000000
#019321:1333000000000000
#019361:0000002300000000
#019370:0013000000000000
#0193b0:0000002300000000
#020320:13
#020360:00230000
#020360:0000001300000000
#020320:0000000000230000
#020371:0000000000130000
#0203b1:0000000000000023
#020360:0000000000000013
#021320:0033000000000000
#021360:0000002300000000
#021371:0013000000000000
#0213b1:0000002300000000
#021361:00000013
#022321:23
#022321:0013000023000000
#022361:00000000005300000000000000000000
#022370:0013
#0223b0:00000023
#0223b0:0000000000000013
#0233b0:0023000000000000
#023351:0013002300000000
#023380:0000001300230000
#023321:0000000000130023
#023360:0000000000000014
#024340:0028
#025320:0000001300000000
#025360:0000000000230000
#025371:0000001300000000
#0253b1:0000000000230000
#0263b1:13
#026381:00230000
#026320:13
#026350:00230000
#026350:0013
#026320:00000023
#026381:0013
#0263b1:00000023
#027321:00000013
#028321:26
#0273b0:00000013
#028380:26
#0293b0:1300002300000000
#029370:00000033000000000000000000000000
#031320:1300002300000000
#031360:00000033000000000000000000000000
#0323b0:0000000013230000
#032351:0000000000132300
#032380:0000000000001323
#034320:0000000013230000
#034381:0000000000132300
#034350:0000000000001323
#035320:00001356
#036320:24
#0353b1:0013
#035381:00000056
#0363a1:24
#0363b1:00132300
#037321:1323000000000000
#038351:0000001300000000
#038321:00000023
#039381:0000000000000013
#0403b1:00530000000000000000000000000000
#040381:00230000
#041381:00000000001300230000000000000000
#043321:00000000000000130000000023000000
#0433b0:00000000000000130000000023000000
#0443b0:1323000000000000
#044320:0000001323000000
#045320:1323000000000000
#0453b0:0000001323000000
#0463b0:1323000000000000
#046320:0000001323000000
#048350:1323000000000000
#048380:0000001323000000
#049380:1323000000000000
#049350:0000001323000000
#050350:1323000000000000
#050380:0000001323000000
#053320:1300002300000000
#053360:00000033000000000000000000000000
#0553b0:1300002300000000
#055370:00000033000000000000000000000000
#056320:0000000013230000
#056381:0000000000132300
#056350:0000000000001323
#0583b0:0000000013230000
#058351:0000000000132300
#058380:0000000000001323
#059320:0000135a
#060320:24
#060381:14343424
#060361:0054000000540000
#0603a1:0000005400000000
#060340:00000014
#060320:0000000000000054
#061340:34343424
#061360:0054000000540000
#061320:0000005400000000
#061381:00000014
#0613a1:0000000000000054
#062381:34343424
#062361:0054000000540000
#0623a1:0000005400000000
#062340:00000014
#062320:0000000000000054
#063340:34343424
#063360:0054000000540000
#063320:0000005400000000
#063381:00000014
#0633a1:0000000000000054
#064381:24
#0643b1:00000000000000130000002300000000
#064381:00000000000000000033000000000000
#065381:13
#0653b1:0023000000000000
#0653b1:00000013000000230000000000000000
#065381:00000000003300000000000000000000
#066351:13
#066321:0023000000000000
#066321:00000013000000230000000000000000
#066351:00000000003300000000000000000000
#067381:13
#0673b1:0023000000000000
#067381:00000013000000330000000000000000
#0673b1:00000000003300000000000023000000
#067350:00000000000000130000000000000000
#067320:00000023
#0683a0:14
#068360:0024000000000000
#068360:0000001400000000
#068320:0024
#069320:14
#069360:0024000000000000
#069360:0000001400000000
#0693a0:0024
#0703a0:14
#070360:0024000000000000
#070360:0000001400000000
#070320:0024
#0753a0:14
#075380:00000056
#0763c0:22
#075321:14000056
#076321:22
