This file was generated by Ched 2.6.4.0.
#TITLE ""
#ARTIST ""
#DESIGNER ""
#DIFFICULTY 0
#PLAYLEVEL
#SONGID ""
#WAVE ""
#WAVEOFFSET 0
#JACKET ""
#REQUEST "ticks_per_beat 480"
#00002: 4
#BPM01: 128
#00008: 01
#TIL00: ""
#HISPEED 00
#MEASUREHS 00
#00918:0000000013000013
#00912:00000013
#0131b:0000001300000000
#01312:00000013
#01318:0013
#01315:0000000000130000
#01412:0000001300000000
#01415:0000000000130000
#01418:1300000000000013
#01512:00000013
#01518:0000000000000013
#0151b:0013000000000000
#01615:13
#0161b:0013000000130000
#01618:0000001300000013
#06017:0016001600160000
#06018:2616
#06016:00160000
#07515:00000013
#07518:00000013
#03112:0013
#0311b:0000000000130000
#03115:00000013
#03118:0000000000000024
#00012:1300000000000013
#0001b:1300000000000013
#00018:00131300
#00015:0000001300000000
#0021b:1300000000000013
#00212:1300000000000013
#00218:00131300
#00215:0000001300000000
#00118:0000001300001300
#0011b:13
#00112:13
#00115:00131300
#00518:0013
#00515:00000013
#00812:00000013
#0081b:13
#01715:00000013
#0171b:0013000000000013
#01818:13000013
#01815:0013000000000000
#01812:0000000000000013
#0241b:0000000000130000
#02412:00000013
#02418:0000000000000013
#02515:1300001300000000
#02518:00130000
#02718:00001323
#02715:0000000000130000
#02712:23130000
#0271b:23130000
#02812:00001313
#02818:0000000000130013
#03415:00001313
#03418:2400000000130024
#0341b:00130000
#03412:00130000
#03612:23130013
#0361b:23130013
#03618:0000000013130000
#03615:00000000000000000013000000000000
#0361f:11
#04315:0000131300000000
#04318:00000000001300000000000000000000
#04312:13
#0431b:0013000000000000
#07215:00001300000000000013000013000000
#0721b:00130013
#07218:2300000013130000
#07212:2300001300000000
#0301b:00001313
#03015:0000000000130013
#03014:24
#06412:0000001300000000
#0641b:13
#06418:0013000000000000
#06415:00130000
#06410:41
#06518:1300000000130000
#06512:00000013
#0651b:0000000000000013
#06515:00001300000000000013000000000000
#0651a:00000000003300000000000000000000
#0661b:00000013
#06612:0000000000000013
#06615:1300000000130000
#06618:00001300000000000013000000000000
#06613:00000000003300000000000000000000
#06712:13
#0671b:13
#06718:00001300000000130000000000000000
#06715:00000013000000130000000000000000
#0031b:13
#00312:13
#00315:00131300
#00318:0000001300000000
#0041b:13
#00412:00000013
#01015:13000013
#0101b:0013000000000000
#01018:0000000000000013
#01118:0000000000000013
#01115:00000013
#01216:0000001300000000
#01212:1300000000000013
#01210:41
#01915:13
#01918:0013000000000000
#0201b:0000001300000000
#02018:0000000000130000
#02015:1300000000000013
#02112:0013000000000000
#0211b:00000013
#02115:0000000000000013
#02218:13
#02212:0013000000000000
#02215:0013
#02210:41
#02315:0000000000130000
#02312:0000000000000013
#02318:0013000000000000
#0321b:00131300
#03212:0000130000130000
#03218:00000013
#03214:2400000000000024
#03210:41
#0331b:00130000
#03312:00132400
#03318:24
#0331a:00000000000000000000002400000000
#03314:0000000000000024
#0351b:00131300
#03512:00131300
#03518:00000013
#03515:00000013
#03514:24
#0381b:13
#03818:00000033333313000000000000000000
#03819:0033000000000000
#0381a:00330000000000000000000000000000
#03715:0000000013130000
#03718:00000000000000000013000000000000
#03712:00000013
#0371b:00000013
#03918:0013
#0391b:00000000000000000000003333331300
#0391a:0000000000330000
#03919:00000000000000000033000000000000
#03912:00000033000000000000000000000000
#03913:0033000000000000
#03914:00330000000000000000000000000000
#04015:0000000013000013
#04018:0000000000130000
#04012:00000013
#04118:13
#0411b:0013000000000000
#04115:00130000
#04218:0000001300000000
#0421b:00000000000000000013000000000000
#04219:00000000000000330000003300000000
#0421a:0000000033330000
#04215:00000033000000000000000000000000
#04214:0033000000000000
#04213:00330000000000000000000000000000
#04415:00000013
#04418:0000000000130000
#0441b:2313
#04412:23
#0441f:21
#04512:13
#0451b:1313
#04515:00000013
#04518:0000000000130000
#04510:41
#04615:00000013
#04618:0000000000130000
#0461b:1313
#04612:13
#0471b:13
#04718:00000013000000000023002300000000
#04715:0000000023232300
#0471a:00330000003300000000000000000000
#04719:0033330000000000
#04818:00000013
#04815:0000000000130000
#04812:2313
#0481b:23
#0491b:13
#04912:1313
#04918:00000013
#04915:0000000000130000
#05018:00000013
#05015:0000000000130000
#05012:1313
#0501b:13
#05112:13
#05115:00000013000000000023002300000000
#05118:0000000023232300
#05113:00330000003300000000000000000000
#05114:0033330000000000
#0551b:0013
#05512:0000000000130000
#05518:00000013
#05514:0000000000000024
#0521b:23001313
#05215:0000000000130013
#05212:23
#05818:00001313
#05815:0000000000130000
#05812:00130000
#0581b:00130000
#05814:2400000000000024
#05412:00001313
#05418:2400000000130013
#05410:41
#05612:00131300
#0561b:0000130000130000
#05615:00000013
#05618:2400000000000024
#05712:00000000130000000000002400000000
#0571b:00130000
#05714:24
#0571a:0024
#05718:0000000000000024
#05912:00131300
#0591b:00131300
#05918:24
#06815:0000000013130000
#06818:00000000130000000013000000000000
#0681b:2313000000002300
#06812:23000023
#06819:00000033003300000000000000000000
#06912:1313000000002300
#0691b:13000023
#06918:0000000013130000
#06915:00000000130000000013000000000000
#06914:00000033003300000000000000000000
#0701b:1313000000002300
#07012:13000023
#07015:0000000013130000
#07018:00000000130000000013000000000000
#07019:00000033003300000000000000000000
#07118:13000000000000000023002300000000
#0711b:00000013000000000000000000000000
#07115:0000000023232300
#07119:00330000003300000000000000000000
#0711a:0033330000000000
#07318:00001300000000000013000013000000
#07312:00130013
#07315:1300000013130000
#0731b:1300001300000000
#07415:00001300000000000013000013000000
#0741b:00130013
#07418:1300000013130000
#07412:1300001300000000
#07615:000000000000001300000000000000000000000000000000
#07618:000000000013000000000000000000000000000000000000
#06113:0016001600160000
#06112:2616
#06114:00160000
#06217:0016001600160000
#06218:2616
#06216:00160000
#06313:0016001600160000
#06312:2616
#06314:00160000
#0291a:0024
#02912:00000000000000000000002400000000
#02918:0000000000000024
#05312:0024
#0531a:00000000000000000000002400000000
#05314:0000000000000024
#00716:0034000034000000
#00616:0000003400003400
#06056:00260016
#06058:2626
#06057:0056005600560000
#07555:00000063
#07558:00000053
#00852:00000053
#0085b:63
#07255:00000013
#0725b:00000013
#07155:00000013
#07158:53
#0715b:00000023000000000000000000000000
#0045b:53
#00452:00000063
#0105b:0063000000000000
#01058:0000000000000053
#01256:0000006300000000
#01252:5300000000000053
#0155b:0063000000000000
#01458:53
#0165b:0063000000630000
#01658:0000005300000053
#0175b:0063000000000000
#01855:0063000000000000
#01852:0000001300000000
#01958:0053000000000000
#0195b:0000001300000000
#02152:0053000000000000
#02055:63
#02252:0053000000000000
#02255:0063
#02355:0000000000630000
#02352:0000000000000053
#02358:0053000000000000
#02555:0000006300000000
#0285b:13
#02758:00000053
#0365b:13
#03652:13
#0355b:0063
#03558:00000053
#03552:0053
#03555:00000063
#0385b:63
#03858:0000005300000000
#03958:0053
#0395b:0000000000000063
#04258:0000005300000000
#0425b:00000000000000000023000000000000
#04455:00000013
#04655:00000013
#0475b:63
#04758:00000023000000000000000000000000
#04755:00000013
#04555:00000013
#04858:00000013
#05058:00000013
#05152:53
#05155:00000023000000000000000000000000
#05158:00000013
#04958:00000013
#05252:13
#0525b:13
#05952:0053
#0595b:0063
#06755:00000000000000630000000000000000
#06758:00000000000000530000000000000000
#0675b:00000013
#06752:00000013
#06858:00230000
#0685b:0063000000001300
#06852:00000013
#06952:0053000000001300
#06955:00230000
#0695b:00000013
#0705b:0063000000001300
#07058:00230000
#07052:00000013
#07358:00000013
#07352:00000013
#07455:00000013
#0745b:00000013
#03752:00000013
#0375b:00000013
#06153:0066006600660000
#06152:2626
#06154:00260016
#06257:0056005600560000
#06258:2626
#06256:00260016
#06353:0066006600660000
#06352:2626
#06354:00260016
#0043b0:13
#004380:0000002300000000
#004320:00000013
#005350:0023000000000000
#006360:1400003400003400
#007360:0034000034000000
#007320:0000002c
#0083b0:13
#008380:0000002300000000
#008320:00000013
#009350:23
#0103b0:0013000000000000
#010380:0000002300000000
#010380:0000000000000013
#0113b0:0023
#012320:1300000000003333
#012360:0000003300000000
#013360:00230000
#014380:13
#0143b0:00230000
#0153b0:0013000000000000
#015380:0023
#0163b0:0013000000330000
#016380:0000003300000033
#0173b0:0033000000000000
#017370:0023
#018350:0013000000000000
#018320:0000002300000000
#019380:0013000000000000
#0193b0:0000002300000000
#020350:13
#020320:00230000
#021320:0013000000000000
#021350:0000002300000000
#022320:0013000000003323
#022350:0033
#023380:0013000000000000
#0233b0:0000002300000000
#023350:0000000000130000
#023320:0000000000000033
#024350:0023
#025350:0000001300000000
#025320:0000000000230000
#026380:13
#0263b0:00230000
#026321:13
#026351:00230000
#0263b1:0013
#026381:00000023
#026350:0013
#026320:00000023
#027380:00000013
#0283b0:23
#029320:13
#029340:00000033000000000000000000000000
#029360:0000002300000000
#0313b0:13
#031390:00000033000000000000000000000000
#031370:0000002300000000
#0353b0:0013
#035380:00000053
#0363b0:23
#035321:0013
#035351:00000053
#036321:23
#0373b1:1333000000000000
#0373a1:00000033000000000000000000000000
#037391:00330000
#037381:00000000003300000000000000000000
#037371:0000002300000000
#0383b1:13000023
#0383a1:00330000000000000000000000000000
#038391:0033000000000000
#038381:00000033333333000000000000000000
#039351:13
#039341:00330000000000000000000000000000
#039331:0033000000000000
#039321:00000033230000000000000000000000
#039381:0013
#039391:00000000000000000033000000000000
#0393a1:0000000000330000
#0393b1:00000000000000000000003333333300
#040381:00230000
#041381:00000000001300330023000000000000
#042321:13
#042331:00330000000000000000000000000000
#042341:0033000000000000
#042351:00000033230000000000000000000000
#042381:0000001300002300
#042391:00000000000000330000003300000000
#0423a1:0000000033330000
#0423b1:00000000000000000033000000000000
#043381:00000000000000130000000023000000
#044321:0013000000000000
#044331:00000033000000000000000000000000
#044341:00330000
#044351:00000000003300000000000000000000
#044361:0000002300000000
#045321:0013000000000000
#045331:00000033000000000000000000000000
#045341:00330000
#045351:00000000003300000000000000000000
#045361:0000002300000000
#046321:0013000000000000
#046331:00000033000000000000000000000000
#046341:00330000
#046351:00000000003300000000000000000000
#046361:0000002300000000
#0473b1:1300002300000000
#0473a1:00330000003300000000000000000000
#047391:0033330000000000
#047381:00000033000000000000000000000000
#0483b1:0013000000000000
#0483a1:00000033000000000000000000000000
#048391:00330000
#048381:00000000003300000000000000000000
#048371:0000002300000000
#0493b1:0013000000000000
#0493a1:00000033000000000000000000000000
#049391:00330000
#049381:00000000003300000000000000000000
#049371:0000002300000000
#0503b1:0013000000000000
#0503a1:00000033000000000000000000000000
#050391:00330000
#050381:00000000003300000000000000000000
#050371:0000002300000000
#051321:1300002300000000
#051331:00330000003300000000000000000000
#051341:0033330000000000
#051351:00000033000000000000000000000000
#0533b1:13
#053391:00000033000000000000000000000000
#053371:0000002300000000
#055321:13
#055341:00000033000000000000000000000000
#055361:0000002300000000
#059321:0013
#059351:00000023
#0593b0:0013
#059380:00000023
#060380:1636
#060370:0056005600560000
#060360:00360026
#061320:1636
#061330:0056005600560000
#061340:00360026
#062380:1636
#062370:0056005600560000
#062360:00360026
#063320:1636
#063330:0056005600560000
#063340:00360026
#064380:00000000000000130023000000000000
#064320:00000000000000000000001300000000
#064350:0000000000000023
#065380:00000013000000000000000000000000
#0653a0:00000000003300000000000000000000
#0653b0:00000000000000230000000000000000
#066350:00000013000000000000000000000000
#066330:00000000003300000000000000000000
#066320:00000000000000230000000000000000
#0673b0:00000000001300000000000023000000
#067380:00000000000000330000000000000000
#067321:00000000001300000000000023000000
#067351:00000000000000330000000000000000
#0683b1:0013002300000000
#068391:00000033003300000000000000000000
#068381:00330000
#069321:0013002300000000
#069341:00000033003300000000000000000000
#069351:00330000
#0703b1:0013002300000000
#070391:00000033003300000000000000000000
#070381:00330000
#071381:1300002300000000
#071391:00330000003300000000000000000000
#0713a1:0033330000000000
#0713b1:00000033000000000000000000000000
#075321:13
#075351:00000053
#076321:23
#0753b0:13
#075380:00000053
#0763b0:23
