This file was generated by Ched 2.6.4.0.
#TITLE ""
#ARTIST ""
#DESIGNER ""
#DIFFICULTY 0
#PLAYLEVEL
#SONGID ""
#WAVE ""
#WAVEOFFSET 0
#JACKET ""
#REQUEST "ticks_per_beat 480"
#00002: 4
#BPM01: 128
#00008: 01
#TIL00: ""
#HISPEED 00
#MEASUREHS 00
#00012:0000120012000012
#0001c:1200001200001200
#00017:0012
#00016:1400000000000014
#0091c:0000000012120000
#00917:12000012
#00912:0000000000001212
#0091a:14120000
#00918:0000001200000000
#00916:0012
#0131a:0000001200000000
#01318:00120000000000001200000000000000
#01316:0000000000120000
#01314:00000012
#01312:00120000000000001200000000000000
#0131c:00000012
#01417:1200001212120000
#01412:0000121200000012
#0141c:12000012
#0191b:00000013
#01912:0012000000001300
#01918:12
#01914:12
#01916:0012000000000000
#0271b:00000000131300000000130000000000
#02716:00000000001400001400000000000000
#02712:24000000000000131300130000000000
#0271a:24
#02715:00000023
#02718:00000023
#0281b:0000001313130000
#02812:0000001300131313
#02816:00000013
#02817:0013
#03612:24131300
#03615:00000000000000000013000000000000
#03618:0000000000130000
#0361b:00000013
#03617:00130000
#0361f:11
#0361a:24
#03716:00000014001400000000000000000000
#03718:0000000013130000
#03715:00000000000000000013001300000000
#03712:0014001400001300
#0371a:00140000
#0371b:00000013
#04112:16000000131300000000000013000000
#04118:0016000000000000
#0411b:00000000131300000000000013000000
#04116:0014
#0411a:00000000000000130000000000000000
#04113:00000000000000000013000000000000
#04218:00000000000000130000130000000000
#04212:00001313
#04215:00130000000013000013001300000000
#0421b:13001313
#04219:0013000000000000
#04213:00000013000000000000000000000000
#04217:00130000
#00316:14120000
#00314:0000001200000000
#00312:1212
#0031a:0000001200000000
#0031c:0012
#00318:00120000
#0011c:12120012
#00117:0000001200120000
#00112:00001212
#00116:14
#00817:00000000000000000012000000000000
#00816:00000012000000000000000000000000
#00812:1200001200001200
#0081a:1400001200000014
#00818:00120012
#0081c:0012
#01212:12000012
#0121c:0000001200000012
#01216:0000000000000012
#01217:12
#01210:41
#01512:0012
#01517:12000000001200000000000012001200
#0151c:0012000000001200
#02415:0000000000120012
#0241a:0000000000120012
#02413:00000012
#02418:00000012
#02513:12
#02518:12
#02517:0000121212000000
#0251c:0000121200000000
#02512:0012
#02612:1200001200000000
#02617:12121212
#0261c:0012000000000000
#0391b:1300000013000013
#03912:13130000000013000000001300000000
#03918:00001300000000000013000013000000
#03915:00000013000000000000130000130000
#04016:00000000130000000013000000000000
#04012:13000000000013000000001300000000
#04014:0013000000130000
#04015:00000000000000000000000000130000
#0401b:0000001300000013
#04018:00000000000000001300000013000013
#04017:00130000000000000000000000000000
#04312:13
#04318:00001300001300000000000000000000
#04315:00130000000013000000000000000000
#0431b:00130000
#04412:24001400000014000000001300000000
#04416:00000014141400000000000000000000
#0441b:0013
#04418:00000000000000000013000016000000
#04415:0000000000130000
#0441a:14
#0441f:21
#0721b:0000131300000000
#07212:23001414
#07215:0013000000000000
#07218:00000013000000000000000000000000
#07216:00000000000000000014000000000000
#0721a:0000000000141400
#0021c:0000120012000012
#00212:1200001200001200
#00217:0012
#00216:1400000000000014
#07118:0000001400000000
#07116:0024
#07115:00000000000000000026000000000000
#07114:0000000000280000
#07113:00000000000000000000002a00000000
#07112:0000002c
#0321b:0000001300130000
#03217:0013000013000000
#03219:00130000
#03213:00000013000000000000000000000000
#03216:0000001300000024
#03212:24000013
#03210:41
#04612:14001400000014000000001300000000
#04616:00000014141400000000000000000000
#0461b:0013
#04618:00000000000000000013000016000000
#04615:0000000000130000
#0461a:14
#00518:0000000000120000
#0051a:0012
#00512:0012
#00514:0000001200000012
#0051c:0012000000000000
#00516:00000012
#00412:12000012
#00414:0000000000120000
#0041c:0000001200000000
#0041a:00120000
#00416:00000000000000000000000000000012
#0061c:12
#00612:1200131300000000
#0061a:0000000000141400
#00616:00000000000000000013000000000014
#00618:00000012000000000000000000000000
#00712:0015000000000000
#00716:00000000001500000000000000000012
#00718:0000000000000012
#01019:0012000000000012
#01017:00000000000000000012000000000000
#0101c:1200001200001200
#01012:1400000012000014
#01016:00120012
#01014:0000001200000000
#01112:1400000012120000
#01114:00120000
#01116:0000001200000000
#01117:00000012
#0111c:00120000000000000000000012001200
#01118:0012
#01617:1212001212000000
#01612:1200120000000012
#0161c:0012001200120000
#01712:0012000000001200
#01716:00000012
#01714:0000000000000012
#01718:0000000000000012
#01717:1212000000000000
#01816:1200000000000012
#0181a:1200000000000012
#0181c:0012000000001200
#01818:0012000000001200
#02017:1200001212120000
#0201c:0000121200000012
#02012:12000012
#0211c:0000001200001200
#02117:12000012
#02112:0012000000000000
#02212:1212000012000000
#0221c:00000000001200000000000012001200
#02217:0012000000000012
#02210:41
#02317:1212000000000012
#0231c:0012000000120000
#02312:0000001200000012
#02912:13000000000013000000001300000000
#0291b:00000013000000000000000000000000
#02916:0013
#0291a:0000000024000024
#02917:00000000000000000000002400000000
#03116:00000013000000000000000000000000
#0311b:0013130000000000
#03117:0000001300000000
#03118:0000000000000024
#03312:00001300000013000000002400000000
#03315:00000013000000000000000000000000
#03318:00130000
#0331b:0000001313000000
#03317:00000000000000000000001300000000
#03316:0000000024000024
#0331a:24
#03414:0013000000000000
#03417:00000013000000001300000000000000
#03412:0000130000000024
#03416:0000001300001300
#0341b:0000001300130000
#0341a:24
#03512:0000001313000000
#03515:000000000000000000000000000000000000000000000000000000000000000000000000000000000000000000000000000000000000000000000000000000000000000000000000000000000000000000000000000000000000000000000000000000000000000000000000000000000000000000000000000000000000000000000000000000000000000000000000000000000000000000000000000000000000000000000000000000000000000000000000000000000000000000000000000000000000000000000000000000000000000000000000000000000000000000000000000000000000000000000000000000000000000000000000000000000000000000000000000000000000000000000000000000000000000000000000000000000000000000000000000000000000000000000000000000000000000000000000000000000000000000000000000000000000000000000000000000000000000000000000000000000000000000000000000000000000000000000000000000000000000000000000000000000000000000000000000000000000000000000000000000000000000000000000000000000000000000000000000000000000000000000000000000000000000000000000000000000000000000000000000000000000000000000000000000000000000000000000000000000000000000000000000000000000000000000000000000000000000000000000000000000000000000000000000000000000000000000000000000000000000000000000000000000000000000000000000000000000000000000000000000000000000000000000000000000000000000000000000000000000000000000000000000000000000000000000000000000000000000000000000000000000000000000000000000000000000000000000000000000000000000000000000000000000000000000000000000000000000000000000000000000000000000000000000000000000000000000000000000000000000000000000000000000000000000000000000000000000000000000000000000000000000000000000000000000000000000000000000000000000000000000000000000000000000000000000000000000000000000000000000000000000000000000000000000000000000000000000000000000000000000000000000000000000000000000000000000000000000000000000000000000000000000000000000000000000000000000000000000000000000000000000000000000000000000000000000000000000000000000000000000000000000000000000000000000000000000000000000000000000000000000000000000000000000000000000000000000000000000000000000000000000000000000000000000000000000000000000000000000000000000000000000000000000000000000000000000000000000000000000000000000000000000000000000000000000000000000000000000000000000000000000000000000000000000000000000000000000000000000000000000000000000000000000000000000000000000000000000000000000000000000000000000000000000000000000000000000000000000000000000000000000000000000000000000000000000000000000000000000000000000000000000000000000000000000000000000000000000000000000000000000000000000000000000000000000000000000000000000000000000000000000000000000000000000000000000000000000000000000000000000000000000000000000000000000000000000000000000000000000000000000000000000000000000000000000000000000000000000000000000000000000000000000000000000000000000000000000000000000000000000000000000000000000000000000000000000000000000000000016160000000000000000000000000000000000000000000000000000000000000000000000000000000000000000000000000000000000000000000000000000000000000000000000000000000000000000000000000000000000000000000000000000000000000000000000000000000000000000000000000000000000000000000000000000000000000000000000000000000000000000000000000000000000000000000000000000000000000000000000000000000000000000000000000000000000000000000000000000000000000000000000000000000000000000000000000000000000000000000000000000000000000000000000000000000000000000000000000000000000000000000000000000000000000000000000000000000000000000000000000000000000000000000000000000000000000000000000000000000000000000000000000000000000000000000000000000000000000000000000000000000000000000000000000000000000000000000000000000000000000000000000000000000000000000000000000000000000000000000000000000000000000000000000000000000000000000000000000000000000000000000000000000000000000000000000000000000000000000000000
#0351b:0000001313000000
#0351a:0013000000000000
#03514:00000013000000000000000000000000
#03517:00130000
#03516:24
#03818:0013130000000000
#03815:00130000001300000000000000001300
#03812:13000013000013000000000000000000
#0381b:1313
#03819:0000000000130000
#03817:00000013
#03816:00000000000000000013000000000000
#0451a:1414001400000000
#04516:00000014141400000000000000000000
#04512:14001316
#04515:00000000000000000013000000000000
#04518:0000000000130000
#0451b:00000000000000000000001300000000
#04510:41
#04712:000000162c000000
#04713:0000000000000000002a000000000000
#04714:0000000000280000
#04715:00000000000000000000002600000000
#04716:00000024
#05118:0000001600000000
#05113:0000000000000000002a000000000000
#05114:0000000000280000
#05115:00000000000000000000002600000000
#05112:002c
#05116:00000024
#04816:14001400001414000000000000000000
#04812:00000014000000001300000016000000
#0481a:24140000
#04815:00000000000000000013000000000000
#0481b:0000000000130000
#04818:00000000000000000000001300000000
#05612:0000001300130000
#05616:0013000013000024
#05614:00130000
#0561a:24000013000000000000000000000000
#05617:0000001300000000
#0561b:00000013
#0571b:0013001300000000
#05718:00000013000000000000000000000000
#05715:00130000
#05712:2400001313000000
#05716:00000000000000002400001300002400
#0571a:00000000000000000000002400000000
#05819:0013000000000000
#05816:00000013000000001300000000000000
#0581b:00130000
#05817:0000001300001300
#05812:2400001300130000
#0581a:0000000000000024
#05913:0013000000000000
#05919:00000013000000000000000000000000
#05916:24130000
#0591b:0000001313000000
#05912:0000001300000000
#05915:00000015
#03019:0013
#03017:0000130000130000
#03012:24131313
#0301b:0013001300001300
#03016:0013001300000013
#05212:2600001313130000
#0521b:0000001300131313
#05217:00000013
#05216:0013
#05218:26
#0531b:13000000000013000000001300000000
#05312:00000013000000002400000000002400
#05317:0013
#05315:00000000000000000000002400000000
#05517:00000013000000000000000000000000
#05512:0013130000000000
#05516:0000001300000000
#05514:0000000000000024
#05417:0013001300000013
#05414:0013
#05416:0000130000130000
#0541b:00131313
#05412:0013001300001300
#0541a:24
#05410:41
#06012:0000000000000014
#0601a:24000024
#06016:24
#0611a:0000000000000014
#06112:00000024
#06212:0000000000000014
#0621a:00000024
#06412:00000000000000180000001400000000
#06418:00000000000000000016000000000000
#0641a:0000001400000000
#06410:41
#06612:14000018000000000000000000000000
#0661a:00001400000000140000000000000000
#06616:00000000001600000000000000000000
#0651a:14000000000000140000000000000000
#06512:00001400001600000000000000000000
#06516:00000018000000000000000000000000
#06712:0000140000000014000000001c000000
#0671a:14
#06716:00000018000000140000000000000000
#06714:00000000001600000000000000000000
#0681a:00001400001400000014000024000000
#06816:24000000140000001400001400000000
#06812:00000014000014000000140024000000
#06912:00001400001400000014000024000000
#06916:14000000140000001400001400000000
#0691a:00000014000014000000140024000000
#0701a:00001400001400000014000024000000
#07016:14000000140000001400001400000000
#07012:00000014000014000000140024000000
#07512:00000000000000000000000000000000000000000000000000000000000000000000000000000000000000000000000000000000000000000000000000000000000000000000000000000000000000000000000000000000000000000000000000000000000000000000000000000000000000000000000000000000000000000000000000000000000000000000000000000000000000000000000000000000000000000000000000000000000000000000000000000000000000000000000000000000000000000000000000000000000000000000000000000000000000000000000000000000000000000000000000000000000000000000000000000000000000000000000000000000000000000000000000000000000000000000000000000000000000000000000000000000000000000000000000000000000000000000000000000000000000000000000000000000000000000000000000000000000000000000000000000000000000000000000000000000000000000000000000000000000000000000000000000000000000000000000000000000000000000000000000000000000000000000000000000000000000000000000000000000000000000000000000000000000000000000000000000000000000000000000000000000000000000000000000000000000000000000000000000000000000000000000000000000000000000000000000000000000000000000000000000000000000000000000000000000000000000000000000000000000000000000000000000000000000000000000000000000000000000000000000000000000000000000000000000000000000000000000000000000000000000000000000000000000000000000000000000000000000000000000000000000000000000000000000000000000000000000000000000000000000000000000000000000000000000000000000000000000000000000000000000000000000000000000000000000000000000000000000000000000000000000000000000000000000000000000000000000000000000000000000000000000000000000000000000000000000000000000000000000000000000000000000000000000000000000000000000000000000000000000000000000000000000000000000000000000000000000000000000000000000000000000000000000000000000000000000000000000000000000000000000000000000000000000000000000000000000000000000000000000000000000000000000000000000000000000000000000000000000000000000000000000000000000000000000000000000000000000000000000000000000000000000000000000000000000000000000000000000000000000000000000000000000000000000000000000000000000000000000000000000000000000000000000000000000000000000000000000000000000000000000000000000000000000000000000000000000000000000000000000000000000000000000000000000000000000000000000000000000000000000000000000000000000000000000000000000000000000000000000000000000000000000000000000000000000000000000000000000000000000000000000000000000000000000000000000000000000000000000000000000000000000000000000000000000000000000000000000000000000000000000000000000000000000000000000000000000000000000000000000000000000000000000000000000000000000000000000000000000000000000000000000000000000000000000000000000000000000000000000000000000000000000000000000000000000000000000000000000000000000000000000000000000000000000000000000000000000000000000000000000000000000000000000000000000000000000000000000000000000001c1c0000000000000000000000000000000000000000000000000000000000000000000000000000000000000000000000000000000000000000000000000000000000000000000000000000000000000000000000000000000000000000000000000000000000000000000000000000000000000000000000000000000000000000000000000000000000000000000000000000000000000000000000000000000000000000000000000000000000000000000000000000000000000000000000000000000000000000000000000000000000000000000000000000000000000000000000000000000000000000000000000000000000000000000000000000000000000000000000000000000000000000000000000000000000000000000000000000000000000000000000000000000000000000000000000000000000000000000000000000000000000000000000000000000000000000000000000000000000000000000000000000000000000000000000000000000000000000000000000000000000000000000000000000000000000000000000000000000000000000000000000000000000000000000000000000000000000000000000000000000000000000000000000000000000000000000000000000000000000000000000
#07617:000000000012001200000000000000000000000000000000
#07312:0000131300141400
#0731a:00001414
#07318:0013000000000000
#07315:00000013000000000000000000000000
#0731b:13
#07316:00000000000000000014001400000000
#0741b:0000131300000000
#07412:13001414
#07415:0013000000000000
#07418:00000013000000000000000000000000
#07416:00000000000000000014000000000000
#0741a:0000000000141400
#04916:14001400001414000000000000000000
#0491a:00000014000000000000000000000000
#04912:1400140000130000
#0491b:0013
#04918:00000000000000000013000016000000
#04915:00000000000000000000001300000000
#05016:14001400001414000000000000000000
#05012:00000014000000001300000016000000
#0501a:14140000
#05015:00000000000000000013000000000000
#0501b:0000000000130000
#05018:00000000000000000000001300000000
#06312:00000024
#04152:16
#04158:0016000000000000
#0005c:52
#00052:0022
#00957:62
#00857:00000000000000000022000000000000
#00856:00000022000000000000000000000000
#00852:5200005200005200
#01457:0000000022520000
#01452:0000005200000052
#0145c:62000022
#04452:0000002400000000
#0445a:54
#04458:00000016
#00252:62
#0025c:0022
#07158:0000001400000000
#07152:0000001c
#04652:0000002400000000
#0465a:54
#04658:00000016
#07252:00000014
#0725a:00000014
#0055c:0062000000000000
#00452:52000052
#0045c:0000006200000000
#00456:00000000000000000000000000000022
#0065c:62
#0065a:00000064
#00652:0000005300000000
#00656:00000000000000000023000000000024
#00658:00000022000000000000000000000000
#00752:0055000000000000
#00756:00000000002500000000000000000000
#01059:0052000000000052
#01057:00000000000000000022000000000000
#0105c:6200006200006200
#01252:62
#0125c:0000005200000062
#01256:0000000000000062
#01352:00220000000000000000000000000000
#01358:00220000000000000000000000000000
#01557:22000000002200000000000000000000
#0155c:0062000000000000
#01657:0062006222000000
#0165c:0000006200620000
#01652:0000220000000052
#01757:2252000000000000
#01752:0052000000000000
#0185c:0062000000000000
#01858:0062000000000000
#01856:0000001200000000
#01852:0000001200000000
#01952:0052000000000000
#01956:0052000000000000
#01958:0000001200000000
#0195c:0000001200000000
#02057:0000000022620000
#0205c:0000006200000062
#02052:52000022
#02157:22
#02152:0052000000000000
#0215c:00000062
#0225c:00000000002200000000000000006200
#02257:0052000000000000
#02252:0052
#02357:2262000000000052
#0235c:0062000000620000
#02352:0000005200000052
#02952:53000000000000000000005300000000
#0295b:00000063000000000000000000000000
#02956:0063
#0295a:0000000014000014
#02957:00000000000000000000001400000000
#03752:00000013
#0375b:00000013
#0115c:00220000000000000000000000000000
#02657:52625262
#0265c:0022000000000000
#02652:0000002200000000
#03157:0000002300000000
#0315b:00630000
#03158:0000000000000014
#0335b:0063
#03357:00000000000000000000005300000000
#03356:0000000014000014
#03352:00000000000000000000001400000000
#0335a:14
#03552:0023
#03555:000000000000000000000000000000000000000000000000000000000000000000000000000000000000000000000000000000000000000000000000000000000000000000000000000000000000000000000000000000000000000000000000000000000000000000000000000000000000000000000000000000000000000000000000000000000000000000000000000000000000000000000000000000000000000000000000000000000000000000000000000000000000000000000000000000000000000000000000000000000000000000000000000000000000000000000000000000000000000000000000000000000000000000000000000000000000000000000000000000000000000000000000000000000000000000000000000000000000000000000000000000000000000000000000000000000000000000000000000000000000000000000000000000000000000000000000000000000000000000000000000000000000000000000000000000000000000000000000000000000000000000000000000000000000000000000000000000000000000000000000000000000000000000000000000000000000000000000000000000000000000000000000000000000000000000000000000000000000000000000000000000000000000000000000000000000000000000000000000000000000000000000000000000000000000000000000000000000000000000000000000000000000000000000000000000000000000000000000000000000000000000000000000000000000000000000000000000000000000000000000000000000000000000000000000000000000000000000000000000000000000000000000000000000000000000000000000000000000000000000000000000000000000000000000000000000000000000000000000000000000000000000000000000000000000000000000000000000000000000000000000000000000000000000000000000000000000000000000000000000000000000000000000000000000000000000000000000000000000000000000000000000000000000000000000000000000000000000000000000000000000000000000000000000000000000000000000000000000000000000000000000000000000000000000000000000000000000000000000000000000000000000000000000000000000000000000000000000000000000000000000000000000000000000000000000000000000000000000000000000000000000000000000000000000000000000000000000000000000000000000000000000000000000000000000000000000000000000000000000000000000000000000000000000000000000000000000000000000000000000000000000000000000000000000000000000000000000000000000000000000000000000000000000000000000000000000000000000000000000000000000000000000000000000000000000000000000000000000000000000000000000000000000000000000000000000000000000000000000000000000000000000000000000000000000000000000000000000000000000000000000000000000000000000000000000000000000000000000000000000000000000000000000000000000000000000000000000000000000000000000000000000000000000000000000000000000000000000000000000000000000000000000000000000000000000000000000000000000000000000000000000000000000000000000000000000000000000000000000000000000000000000000000000000000000000000000000000000000000000000000000000000000000000000000000000000000000000000000000000000000000000000000000000000000000000000000000000000000000000000000000000000000000000000000000000000000000000000000000000000056660000000000000000000000000000000000000000000000000000000000000000000000000000000000000000000000000000000000000000000000000000000000000000000000000000000000000000000000000000000000000000000000000000000000000000000000000000000000000000000000000000000000000000000000000000000000000000000000000000000000000000000000000000000000000000000000000000000000000000000000000000000000000000000000000000000000000000000000000000000000000000000000000000000000000000000000000000000000000000000000000000000000000000000000000000000000000000000000000000000000000000000000000000000000000000000000000000000000000000000000000000000000000000000000000000000000000000000000000000000000000000000000000000000000000000000000000000000000000000000000000000000000000000000000000000000000000000000000000000000000000000000000000000000000000000000000000000000000000000000000000000000000000000000000000000000000000000000000000000000000000000000000000000000000000000000000000000000000000000000000
#0355b:0023
#03556:14
#03657:00530000
#03652:14
#0365a:14
#0455a:0000002400000000
#04552:64000016
#04752:0000001600000000
#04756:00000014
#05158:0000001600000000
#05156:00000014
#04852:00000016
#04856:5400002400000000
#05752:1453
#05756:00000000000000001400006300001400
#0575a:00000000000000000000001400000000
#0535b:63000000000000000000006300000000
#05352:00000053000000001400000000001400
#05357:0053
#05355:00000000000000000000001400000000
#05556:0000002300000000
#05552:00530000
#05554:0000000000000014
#05955:00000055
#0595b:0023
#05956:14
#02752:14
#0275a:14
#02755:00000053
#02758:00000063
#03252:14
#03256:0000000000000014
#0345a:14
#03452:0000000000000014
#03052:14
#05852:14
#0585a:0000000000000014
#05656:0000000000000014
#0565a:14
#0545a:14
#0605a:14000064
#06056:00000014
#06152:00000054
#06156:00000014
#0625a:00000064
#06256:00000014
#04358:00000016
#04352:00000016
#06356:00000014
#06352:00000054
#06452:00000000000000180000001400000000
#06458:00000000000000000016000000000000
#06652:64000018000000000000000000000000
#06656:00000000001600000000000000000000
#0665a:00000000000000140000000000000000
#0655a:54000000000000140000000000000000
#06556:00000018000000000000000000000000
#06552:00000000001600000000000000000000
#0675a:54
#06756:00000018000000240000000000000000
#06754:00000000001600000000000000000000
#06752:0000000000000014000000005c000000
#0685a:00000014
#06852:00000014
#06856:14
#06952:00000014
#0695a:00000014
#0705a:00000014
#07052:00000014
#07552:00000000000000000000000000000000000000000000000000000000000000000000000000000000000000000000000000000000000000000000000000000000000000000000000000000000000000000000000000000000000000000000000000000000000000000000000000000000000000000000000000000000000000000000000000000000000000000000000000000000000000000000000000000000000000000000000000000000000000000000000000000000000000000000000000000000000000000000000000000000000000000000000000000000000000000000000000000000000000000000000000000000000000000000000000000000000000000000000000000000000000000000000000000000000000000000000000000000000000000000000000000000000000000000000000000000000000000000000000000000000000000000000000000000000000000000000000000000000000000000000000000000000000000000000000000000000000000000000000000000000000000000000000000000000000000000000000000000000000000000000000000000000000000000000000000000000000000000000000000000000000000000000000000000000000000000000000000000000000000000000000000000000000000000000000000000000000000000000000000000000000000000000000000000000000000000000000000000000000000000000000000000000000000000000000000000000000000000000000000000000000000000000000000000000000000000000000000000000000000000000000000000000000000000000000000000000000000000000000000000000000000000000000000000000000000000000000000000000000000000000000000000000000000000000000000000000000000000000000000000000000000000000000000000000000000000000000000000000000000000000000000000000000000000000000000000000000000000000000000000000000000000000000000000000000000000000000000000000000000000000000000000000000000000000000000000000000000000000000000000000000000000000000000000000000000000000000000000000000000000000000000000000000000000000000000000000000000000000000000000000000000000000000000000000000000000000000000000000000000000000000000000000000000000000000000000000000000000000000000000000000000000000000000000000000000000000000000000000000000000000000000000000000000000000000000000000000000000000000000000000000000000000000000000000000000000000000000000000000000000000000000000000000000000000000000000000000000000000000000000000000000000000000000000000000000000000000000000000000000000000000000000000000000000000000000000000000000000000000000000000000000000000000000000000000000000000000000000000000000000000000000000000000000000000000000000000000000000000000000000000000000000000000000000000000000000000000000000000000000000000000000000000000000000000000000000000000000000000000000000000000000000000000000000000000000000000000000000000000000000000000000000000000000000000000000000000000000000000000000000000000000000000000000000000000000000000000000000000000000000000000000000000000000000000000000000000000000000000000000000000000000000000000000000000000000000000000000000000000000000000000000000000000000000000000000000000000000000000000000000000000000000000000000000000000000000000000000000000000000000005c6c0000000000000000000000000000000000000000000000000000000000000000000000000000000000000000000000000000000000000000000000000000000000000000000000000000000000000000000000000000000000000000000000000000000000000000000000000000000000000000000000000000000000000000000000000000000000000000000000000000000000000000000000000000000000000000000000000000000000000000000000000000000000000000000000000000000000000000000000000000000000000000000000000000000000000000000000000000000000000000000000000000000000000000000000000000000000000000000000000000000000000000000000000000000000000000000000000000000000000000000000000000000000000000000000000000000000000000000000000000000000000000000000000000000000000000000000000000000000000000000000000000000000000000000000000000000000000000000000000000000000000000000000000000000000000000000000000000000000000000000000000000000000000000000000000000000000000000000000000000000000000000000000000000000000000000000000000000000000000000000000
#0735a:00000014
#07352:00000014
#07452:00000014
#0745a:00000014
#03856:00000000000000000023000000000000
#03852:0000005300000000
#04057:00230000000000000000000000000000
#0395b:0000000000000063
#02557:0000005222000000
#02552:0022
#0255c:0000005200000000
#02858:16
#02852:16
#04958:00000016
#04956:6400002400000000
#05052:00000016
#05056:5400002400000000
#05258:16
#05252:16
#0003c0:12
#000370:00220000
#000320:0012
#000370:00000022
#001320:0000122200000000
#0013c0:0000000012220000
#002320:12
#002370:00220000
#0023c0:0012
#002370:00000022
#004320:12
#004360:0000002200000000
#0043c1:0000001200000000
#004381:00000022
#004320:00000012
#004360:00000000000000000000000000000052
#005320:0022000000000000
#0053c1:0012000000000000
#005381:0000002200000000
#0063c1:1200002200000000
#006381:00000052000000000000000000000000
#006320:0000001300002300
#006360:00000000000000000053000000000000
#0063a1:00000014
#006361:00000000000000000000000000000054
#0073a1:0024000000000000
#007320:0015000056002600
#007360:00000000005500000000000000000000
#007381:00001626
#008321:1200003200003200
#008361:00000052000000000000000000000000
#008371:00000000000000000052000000000000
#009371:32
#009321:00220000
#0103c1:1200003200003200
#010391:0032000000000032
#010371:00000000000000000052000000000000
#0113c1:00520000000000000000000000000000
#011381:00220000
#012321:12
#012371:0000002200000000
#0123c0:0000001200000000
#012370:00000022
#012360:0000000000000012
#013320:00520000000000000000000000000000
#013360:00220000
#0123c1:0000000000000012
#013381:00520000000000000000000000000000
#0133c1:00220000
#0143c1:12
#014371:00220000
#014321:0000001200220000
#014371:0052
#014370:0000000000120022
#0143c0:00000052
#014321:0000000000000012
#015371:52
#015321:0022000000000000
#0153c0:0012000022000000
#015370:00000000005200000000000000000000
#016370:0012003200000000
#016320:0000520000220000
#0163c1:0000001200320000
#016371:0000000052000022
#016320:0000000000000012
#017370:5222
#017320:0032000000000000
#017371:0012000000000000
#0173c1:0022
#0183c1:0012000000000000
#018361:0000002200000000
#018380:0012000000000000
#018320:0000002200000000
#019320:0012000000000000
#019380:0000002200000000
#019361:0012000000000000
#0193c1:0000002200000000
#020321:12
#020371:00220000
#0203c1:0000001200220000
#020371:0052
#020370:0000000000120022
#020320:00000052
#0203c1:0000000000000012
#021371:52
#0213c1:0022000000000000
#021320:0012000000000000
#021370:0000002200000000
#0213c0:00000012
#022370:22
#022370:0012000022000000
#0223c0:00000000005200000000000000000000
#022321:0012
#022371:00000022
#0223c1:0000000000000012
#023371:5200002200000000
#0233c1:0032000000000000
#023370:0012000000220000
#023320:0000003200000000
#0233c1:0000000000120000
#023371:0000000000000032
#0243c1:0022
#023320:0000000000000012
#024370:0022
#025370:0000001200220000
#025320:0052
#0253c1:0000001200220000
#025371:0052
#026371:12
#0263c1:0052000000000000
#026391:00220000
#026370:00120000
#026320:0000005200000000
#026350:0022
#026371:0012
#0273a1:24
#026370:00000012
#027320:24
#027380:00000013
#028320:26
#027351:00000013
#028381:26
#0283b1:000000000000000000000000000000000000000000000000000000000000000000000000000000000000135353535353
#0283a1:000000000000000000000000000000000000000000000000000000000000000000000000000000000000000000000000000000000000000000000000000000000000000000000000000000000000000000000000005300530053005300530053
#0293b1:23
#029320:13
#029360:00000023000000000000000000000000
#0293b1:00000013000000000000000000000000
#029371:000000000000000000000000000000333333230000000000000000000000000000000000000000000000000000000000
#029381:000000000000000000000000000000000000000000000000000000000000005300530053000000000000000000000000000000000000000000000000000000000000000000000000000000000000000000000000000000000000000000000000
#029361:0000000013000023
#029321:00000000000000000000003300000000
#0303b1:000000000000000000000000000000000000000000000000000000000000000000000000000000000000135353535353
#0303a1:000000000000000000000000000000000000000000000000000000000000000000000000000000000000000000000000000000000000000000000000000000000000000000000000000000000000000000000000005300530053005300530053
#0313b1:23
#031320:13
#031360:0023000000000000
#0313b0:00132300
#031370:0000005300000000
#031361:0012
#031321:0000000000260000
#031380:0000000000162600
#031321:00000016
#031361:0000000000000022
#032321:0013
#032361:0000000000230000
#032371:00000013
#0323b1:0000000000000023
#0333b1:0000000013000023
#033371:00000000000000000000003300000000
#034321:0013
#034361:0000000000230000
#0343b1:00000013
#034371:0000000000000023
#035321:0013
#035351:00000056
#036321:24
#0353b0:0013
#035350:000000000000000000000000000000000000000000000000000000000000000000000000000000000000000000000000000000000000000000000000000000000000000000000000000000000000000000000000000000000000000000000000000000000000000000000000000000000000000000000000000000000000000000000000000000000000000000000000000000000000000000000000000000000000000000000000000000000000000000000000000000000000000000000000000000000000000000000000000000000000000000000000000000000000000000000000000000000000000000000000000000000000000000000000000000000000000000000000000000000000000000000000000000000000000000000000000000000000000000000000000000000000000000000000000000000000000000000000000000000000000000000000000000000000000000000000000000000000000000000000000000000000000000000000000000000000000000000000000000000000000000000000000000000000000000000000000000000000000000000000000000000000000000000000000000000000000000000000000000000000000000000000000000000000000000000000000000000000000000000000000000000000000000000000000000000000000000000000000000000000000000000000000000000000000000000000000000000000000000000000000000000000000000000000000000000000000000000000000000000000000000000000000000000000000000000000000000000000000000000000000000000000000000000000000000000000000000000000000000000000000000000000000000000000000000000000000000000000000000000000000000000000000000000000000000000000000000000000000000000000000000000000000000000000000000000000000000000000000000000000000000000000000000000000000000000000000000000000000000000000000000000000000000000000000000000000000000000000000000000000000000000000000000000000000000000000000000000000000000000000000000000000000000000000000000000000000000000000000000000000000000000000000000000000000000000000000000000000000000000000000000000000000000000000000000000000000000000000000000000000000000000000000000000000000000000000000000000000000000000000000000000000000000000000000000000000000000000000000000000000000000000000000000000000000000000000000000000000000000000000000000000000000000000000000000000000000000000000000000000000000000000000000000000000000000000000000000000000000000000000000000000000000000000000000000000000000000000000000000000000000000000000000000000000000000000000000000000000000000000000000000000000000000000000000000000000000000000000000000000000000000000000000000000000000000000000000000000000000000000000000000000000000000000000000000000000000000000000000000000000000000000000000000000000000000000000000000000000000000000000000000000000000000000000000000000000000000000000000000000000000000000000000000000000000000000000000000000000000000000000000000000000000000000000000000000000000000000000000000000000000000000000000000000000000000000000000000000000000000000000000000000000000000000000000000000000000000000000000000000000000000000000000000000000000000000000000000000000000000000000000000000000000000000000000000000000000000000000000000000056000000000000000000000000000000000000000000000000000000000000000000000000000000000000000000000000000000000000000000000000000000000000000000000000000000000000000000000000000000000000000000000000000000000000000000000000000000000000000000000000000000000000000000000000000000000000000000000000000000000000000000000000000000000000000000000000000000000000000000000000000000000000000000000000000000000000000000000000000000000000000000000000000000000000000000000000000000000000000000000000000000000000000000000000000000000000000000000000000000000000000000000000000000000000000000000000000000000000000000000000000000000000000000000000000000000000000000000000000000000000000000000000000000000000000000000000000000000000000000000000000000000000000000000000000000000000000000000000000000000000000000000000000000000000000000000000000000000000000000000000000000000000000000000000000000000000000000000000000000000000000000000000000000000000000000000000000000000000000000000000
#0363a0:24
#036370:00130000
#0363b0:0023
#036360:00000013
#037320:23
#0373a1:1424000000000000
#038321:0000001300002300
#038361:00000000000000000053000000000000
#0393b1:00130000
#039371:0000002300000000
#0393b1:0000000000000013
#040371:00530000000000000000000000000000
#0403b1:00230000
#043321:00000000000000130000000000000000
#043381:00000026
#0433b0:00000000000000130000000000000000
#043320:00000026
#0443a0:14
#044360:0024000000000000
#044320:0000001400000000
#044360:0024
#045320:14
#045360:0024000000000000
#0453a0:0000001400000000
#045360:0024
#0463a0:14
#046360:0024000000000000
#046320:0000001400000000
#046360:0024
#047340:14240000000000000000000000000000
#047381:00142400000000000000000000000000
#047330:00001525000000000000000000000000
#047381:00000015250000000000000000000000
#047320:00000000162600000000000000000000
#047381:00000000001626000000000000000000
#048361:14
#048321:0024000000000000
#048361:0000001400000000
#0483a1:0024
#049361:14
#0493a1:0024000000000000
#049361:0000001400000000
#049321:0024
#050361:14
#050321:0024000000000000
#050361:0000001400000000
#0503a1:0024
#051381:14240000000000000000000000000000
#051340:00142400000000000000000000000000
#051381:00001525000000000000000000000000
#051330:00000015250000000000000000000000
#051381:00000000162600000000000000000000
#051320:00000000001626000000000000000000
#052320:000000000000000000000000000000000000000000000000000000000000000000000000000000000000135353535353
#052330:000000000000000000000000000000000000000000000000000000000000000000000000000000000000000000000000000000000000000000000000000000000000000000000000000000000000000000000000005300530053005300530053
#053320:23
#0533b1:13
#053371:00000023000000000000000000000000
#053320:00000013000000000000000000000000
#053360:000000000000000000000000000000333333230000000000000000000000000000000000000000000000000000000000
#053350:000000000000000000000000000000000000000000000000000000000000005300530053000000000000000000000000000000000000000000000000000000000000000000000000000000000000000000000000000000000000000000000000
#053370:0000000013000023
#0533b0:00000000000000000000003300000000
#054320:000000000000000000000000000000000000000000000000000000000000000000000000000000000000135353535353
#054330:000000000000000000000000000000000000000000000000000000000000000000000000000000000000000000000000000000000000000000000000000000000000000000000000000000000000000000000000005300530053005300530053
#055320:23
#0553b1:13
#055371:0023000000000000
#055321:00132300
#055361:0000005300000000
#055380:0000000012260000
#055321:0000000000162600
#055380:0000000000001622
#0563b0:0013
#056370:0000000000230000
#056360:00000013
#056320:0000000000000023
#057320:0000000013000023
#057360:00000000000000000000003300000000
#0583b0:0013
#058370:0000000000230000
#058320:00000013
#058360:0000000000000023
#0593b0:0013
#059350:00000055
#0603a0:24
#060361:14343424
#0603a0:0014000000240000
#060320:0000003400000000
#0603a0:00000014
#061360:34343424
#061321:0014000000240000
#0613a1:0000003400000000
#061321:00000014
#062361:34343424
#0623a0:0014000000240000
#062320:0000003400000000
#0623a0:00000014
#063360:34343424
#063321:0014000000240000
#0633a1:0000003400000000
#063321:00000014
#064361:24
#0643a0:14240000000000000000000000000000
#064321:00142400000000000000000000000000
#064360:00001424000000000000000000000000
#064321:00000014240000000000000000000000
#0643a0:00000000142400000000000000000000
#064361:00000000001424000000000000000000
#064361:00000000000000000000000014240000
#064320:00000000000000000000000000142400
#0643a1:00000000000000000000000000001424
#064360:00000000000000000000000000000014
#065360:24
#0653a1:14
#065361:0024000000000000
#0653a1:00000000000000000014240000000000
#065340:00000000000000000000142400000000
#065381:00000000000000000000001424000000
#065320:00000000000000000000000014240000
#065381:00000000000000000000000000142400
#065340:00000000000000000000000000001424
#0653a1:00000000000000000000000000000014
#0663a1:24
#066320:14
#066360:0024000000000000
#066320:00000000000000000014240000000000
#066381:00000000000000000000142400000000
#066340:00000000000000000000001424000000
#0663a1:00000000000000000000000014240000
#066340:00000000000000000000000000142400
#066381:00000000000000000000000000001424
#066320:00000000000000000000000000000014
#067320:24
#0673a1:14
#067361:0024000000000000
#067361:00000000000000140000000000000000
#067321:0000005c
#068361:24
#068320:14
#068360:0024000000000000
#068360:0000001400000000
#0683a0:0024
#0693a0:14
#069360:0024000000000000
#069360:0000001400000000
#069320:0024
#070320:14
#070360:0024000000000000
#070360:0000001400000000
#0703a0:0024
#071380:16260000000000000000000000000000
#071321:00162600000000000000000000000000
#071380:00001525000000000000000000000000
#071331:00000015250000000000000000000000
#071380:00000000142400000000000000000000
#071341:00000000001424000000000000000000
#072361:13
#0723b1:0023000000000000
#072321:00130000
#072371:0000002300000000
#073371:13
#073321:0023000000000000
#0733b1:00130000
#073361:0000002300000000
#074361:13
#0743b1:0023000000000000
#074321:00130000
#074371:0000002300000000
#075391:12
#075321:00000000000000000000000000000000000000000000000000000000000000000000000000000000000000000000000000000000000000000000000000000000000000000000000000000000000000000000000000000000000000000000000000000000000000000000000000000000000000000000000000000000000000000000000000000000000000000000000000000000000000000000000000000000000000000000000000000000000000000000000000000000000000000000000000000000000000000000000000000000000000000000000000000000000000000000000000000000000000000000000000000000000000000000000000000000000000000000000000000000000000000000000000000000000000000000000000000000000000000000000000000000000000000000000000000000000000000000000000000000000000000000000000000000000000000000000000000000000000000000000000000000000000000000000000000000000000000000000000000000000000000000000000000000000000000000000000000000000000000000000000000000000000000000000000000000000000000000000000000000000000000000000000000000000000000000000000000000000000000000000000000000000000000000000000000000000000000000000000000000000000000000000000000000000000000000000000000000000000000000000000000000000000000000000000000000000000000000000000000000000000000000000000000000000000000000000000000000000000000000000000000000000000000000000000000000000000000000000000000000000000000000000000000000000000000000000000000000000000000000000000000000000000000000000000000000000000000000000000000000000000000000000000000000000000000000000000000000000000000000000000000000000000000000000000000000000000000000000000000000000000000000000000000000000000000000000000000000000000000000000000000000000000000000000000000000000000000000000000000000000000000000000000000000000000000000000000000000000000000000000000000000000000000000000000000000000000000000000000000000000000000000000000000000000000000000000000000000000000000000000000000000000000000000000000000000000000000000000000000000000000000000000000000000000000000000000000000000000000000000000000000000000000000000000000000000000000000000000000000000000000000000000000000000000000000000000000000000000000000000000000000000000000000000000000000000000000000000000000000000000000000000000000000000000000000000000000000000000000000000000000000000000000000000000000000000000000000000000000000000000000000000000000000000000000000000000000000000000000000000000000000000000000000000000000000000000000000000000000000000000000000000000000000000000000000000000000000000000000000000000000000000000000000000000000000000000000000000000000000000000000000000000000000000000000000000000000000000000000000000000000000000000000000000000000000000000000000000000000000000000000000000000000000000000000000000000000000000000000000000000000000000000000000000000000000000000000000000000000000000000000000000000000000000000000000000000000000000000000000000000000000000000000000000000000000000000000000000000000000000000000000000000000000000000000000000000000000000000000000000005c000000000000000000000000000000000000000000000000000000000000000000000000000000000000000000000000000000000000000000000000000000000000000000000000000000000000000000000000000000000000000000000000000000000000000000000000000000000000000000000000000000000000000000000000000000000000000000000000000000000000000000000000000000000000000000000000000000000000000000000000000000000000000000000000000000000000000000000000000000000000000000000000000000000000000000000000000000000000000000000000000000000000000000000000000000000000000000000000000000000000000000000000000000000000000000000000000000000000000000000000000000000000000000000000000000000000000000000000000000000000000000000000000000000000000000000000000000000000000000000000000000000000000000000000000000000000000000000000000000000000000000000000000000000000000000000000000000000000000000000000000000000000000000000000000000000000000000000000000000000000000000000000000000000000000000000000000000000000000000000000
#0763c1:22
#075350:12
#075320:0000005c
#076320:22
