This file was generated by Ched 2.6.4.0.
#TITLE ""
#ARTIST ""
#DESIGNER ""
#DIFFICULTY 0
#PLAYLEVEL
#SONGID ""
#WAVE ""
#WAVEOFFSET 0
#JACKET ""
#REQUEST "ticks_per_beat 480"
#00002: 4
#BPM01: 128
#00008: 01
#TIL00: ""
#HISPEED 00
#MEASUREHS 00
#0001a:14
#00012:0014
#00118:14
#00114:0014
#0021a:14
#00212:0014
#00318:14
#00314:0014
#00814:14
#00818:0014
#00914:14
#03612:00140000
#03618:0014
#03614:00000014
#0361f:11
#0361a:24
#0371a:14
#03714:00140000
#03718:0014
#03712:00000014
#03814:0014
#03818:00000014
#03918:0014
#03914:00000014
#0401a:14
#04012:00140000
#04018:0014
#04014:00000014
#04114:00140000
#04118:0014
#0411a:14
#04112:00000014
#04318:1414
#04314:00140000
#0441a:00140000
#04414:24
#0441f:21
#04518:14
#04512:00140000
#04510:41
#04614:14
#0461a:00140000
#0471a:14
#04712:00140000
#04718:00001414
#04714:0000000000140000
#0481a:00140000
#04814:24
#04918:14
#04914:00140000
#05014:14
#05018:00140000
#0511a:14
#05112:00140000
#05118:00001414
#05114:0000000000140000
#0681a:00140000
#06814:24
#06918:14
#06912:00140000
#07014:14
#0701a:00140000
#07118:14
#07114:00140000
#0711a:00001414
#07112:0000000000140000
#07214:14
#07218:00140000
#07318:14
#07314:00140000
#07414:14
#07418:00140000
#07516:00000014
#06518:0014
#06514:00000014
#06414:0014
#06418:00000014
#06410:41
#06614:0014
#06618:00000014
#02818:0014
#02814:24000014
#02918:14
#02912:0024
#03014:0014
#03018:00000014
#0301a:24
#03114:14000014
#03118:0014
#03214:0014
#03218:00000014
#0321a:24
#03210:41
#03418:0014
#03414:24000014
#03512:0014
#03518:24
#0061a:14
#00616:00000014
#05218:0014
#05214:24000014
#05318:14
#05312:0024
#05414:0014
#05418:00000014
#0541a:24
#05410:41
#05514:14000014
#05518:0014
#05614:0014
#05618:00000014
#0561a:24
#05818:0014
#05814:24000014
#05912:0014
#05918:24
#0601a:14
#06018:0000001400000000
#06112:14
#06114:0000001400000000
#06218:14
#0621a:0000001400000000
#06314:14
#06312:0000001400000000
#01018:14
#01014:0014
#01118:14
#03312:24
#0331a:0024
#05712:24
#0571a:0024
#01210:41
#02210:41
#07556:00000054
#0065a:64
#00656:00000024
#0605a:64
#06058:0000002400000000
#06152:54
#06154:0000002400000000
#06258:54
#0625a:0000002400000000
#06354:64
#06352:0000002400000000
#04454:00000014
#04558:00000014
#04654:00000014
#04852:00000014
#0495a:00000014
#05052:00000014
#06854:00000014
#06958:00000014
#07054:00000014
#07252:00000014
#0735a:00000014
#07452:00000014
#0043a0:14
#004380:0024
#005320:14
#005340:0024
#0063a0:14
#006360:00000054
#0073a0:0024
#012340:14
#012320:0034
#013320:34
#013340:0024
#014380:14
#0143a0:0034
#0153a0:34
#015380:0024
#016320:14
#016340:0034
#017340:34
#017320:0024
#0183a0:14
#018380:0034
#019380:34
#0193a0:0024
#020340:14
#020320:0034
#021340:34
#021320:0024
#022380:14
#0223a0:0034
#023380:34
#0233a0:0024
#024320:14
#024340:0034
#025320:34
#025340:0024
#0263a0:14
#026380:0034
#0273a0:34
#027380:0024
#0383a0:14
#038380:00240000
#039320:14
#039340:00240000
#042380:14
#0423a0:00240000
#042340:0014
#042320:00000024
#044340:00001424
#045380:00001424
#046340:00001424
#048320:00001424
#0493a0:00001424
#050320:00001424
#0603a0:14000024
#060380:0000005400000000
#061320:14000024
#061340:0000005400000000
#062380:14000024
#0623a0:0000005400000000
#063340:14000024
#063320:0000005400000000
#0643a0:14240000
#065320:14240000
#0663a0:14240000
#067320:14240000
#0673a0:00001424
#068320:0014
#068340:00000024
#0693a0:0014
#069380:00000024
#070320:0014
#070340:00000024
#072340:0014
#072320:00000024
#073380:0014
#0733a0:00000024
#074340:0014
#074320:00000024
#0753a0:14
#075360:00000054
#0763a0:000000000034002400000000000000000000000000000000
