This file was generated by Ched 2.6.4.0.
#TITLE ""
#ARTIST ""
#DESIGNER ""
#DIFFICULTY 0
#PLAYLEVEL
#SONGID ""
#WAVE ""
#WAVEOFFSET 0
#JACKET ""
#REQUEST "ticks_per_beat 480"
#00002: 4
#BPM01: 124
#00008: 01
#TIL00: ""
#HISPEED 00
#MEASUREHS 00
#00512:14
#00618:14
#00610:41
#00718:14
#00814:14
#00914:14
#01214:14
#01218:0014
#02412:2616
#02410:41
#02618:1616
#03012:16
#03018:0016
#0321a:14
#03312:14
#0341a:14
#03512:14
#03618:14
#03610:41
#03714:14
#03818:14
#03914:14
#06012:0016
#06018:26
#0601f:00210000
#06212:16
#06218:0016
#06814:14
#06914:14
#07018:14
#07010:41
#07118:14
#07212:14
#0731a:14
#07412:14
#0751a:14
#07614:14
#07618:0014
#07714:14
#07718:0014
#0521f:11
#0401a:24
#06618:26
#06612:0026
#06718:26
#04718:34
#04619:0034
#04514:34
#04413:0034
#04410:41
#04912:34
#04813:0034
#0511a:34
#05019:0034
#06110:41
#001320:14
#002320:24
#0033a0:14
#0043a0:24
#0103a0:14
#0113a0:24
#013340:1424
#0143a0:14
#015380:24
#016320:14
#017340:24
#018380:14
#0193a0:24
#020340:14
#021320:24
#022380:14
#023380:24
#025320:1626
#027380:1626
#028320:1626
#029380:1626
#031320:1626
#0403a0:14
#042380:34
#043380:24
#044320:14
#044330:0034
#045340:3424
#0463a0:14
#046390:0034
#047380:3424
#048340:14
#048330:0034
#049320:3424
#050380:14
#050390:0034
#0513a0:3424
#052340:14
#053340:24
#0543a0:14
#054380:0000000000000056
#055380:0026
#056320:16000036
#057320:0036
#058320:36
#059320:3626
#061380:1626
#063320:1626
#064380:1626
#065320:1626
#067380:1626
#078340:14
#079340:0024
