This file was generated by Ched 2.6.4.0.
#TITLE ""
#ARTIST ""
#DESIGNER ""
#DIFFICULTY 0
#PLAYLEVEL
#SONGID ""
#WAVE ""
#WAVEOFFSET 0
#JACKET ""
#REQUEST "ticks_per_beat 480"
#00002: 4
#BPM01: 124
#00008: 01
#TIL00: ""
#HISPEED 00
#MEASUREHS 00
#0521f:11
#0521a:12000012
#05218:0012000000120000
#05216:00121200
#05214:1200001200000000
#06512:00132313
#0651b:00231300
#06515:0000001300000013
#06518:0013000000002300
#00314:12
#00316:00120000
#00318:0012
#0031a:0000000000001224
#00312:0000000000000018
#00515:00130000000000000000000023000000
#00518:0013000013000013
#00512:0013
#0051b:1300001300230000
#01018:13000000000000000013000000001300
#0101b:0013001300001300
#01012:1300000000000013
#0111b:13
#01112:0013001300001300
#01115:13000000000000000013000000000000
#01212:00141400
#01217:000014000000001400000000
#0121a:14000014
#01215:001400000000000014000000
#01318:142400000000142400000000000000000000000014000000
#01314:241400000000241400000000000000000000140000000000
#01312:000000000000000000000000000000000000000000000000240000240000000000000000000000000000000014000000
#0131a:00000000000000002424000000000000
#01416:18
#01417:0017
#01412:00180000
#01413:00000016
#01517:15
#01518:0013
#01515:00140000
#01812:18
#01813:0016
#01817:00170015
#01914:15
#01912:0017
#01917:00160000
#00412:00001300180013001813161317000000
#06212:1300130013000023
#06215:0000001300001300
#06218:0013000000130023
#0621b:13131300
#06412:0013
#0641b:0000001300000000
#06415:13000013
#06418:00000000000000001300000000130000
#06315:00001313
#0631b:0023000013001300
#06316:0013000000000000
#06318:0000001300000013
#06312:0000000000130000
#0791b:13
#07912:00002400002400002400000000000000
#02418:0013000000130013
#02412:2300260000000013
#02415:00000013
#0241b:2313
#02410:41
#06015:0000000000130013
#0601b:1300000013000013
#06018:00260013
#06012:13261300
#0601f:00210000
#02615:0000130000130013
#0261b:1300000013000013
#02618:0013001300001300
#02612:1313
#05915:13000013
#0591a:0014241424000000
#05912:0024142414000000
#05918:0000000000130000
#07312:0000001300000013
#07318:13000013
#07315:0013000000130000
#0681b:1300000013000013
#06815:0013001300130013
#06818:00130013
#06812:1313
#07015:0000130013000013
#07012:1300000000130000
#07018:0013001300001313
#0701b:1313
#07010:41
#04718:1300001313000000
#04715:0013000013000000
#0471b:00130000
#04712:00130000
#04515:1300001313000000
#04518:0013000013000000
#04512:00130000
#0451b:00130000
#03418:0000130013000013
#0341b:1300000000130000
#03415:0013001300001313
#03412:1313
#03212:0013000013000013
#03215:1300001300001300
#03218:0000130000130013
#0321b:1313
#0371b:0000001300000013
#03715:13000013
#03718:0013000000130000
#01616:0014
#01615:0000000000001313
#01618:00000000000000000000000000130000
#0161b:0000000000130000
#01612:24000024000024000000130000000000
#00118:0000120000000016
#00114:00000012
#00116:0012
#0011a:12
#07415:1300130000130000
#07418:0013000000001300
#0741b:1313
#07412:0000001300000013
#07712:1300001300000000
#07715:0000000013000013
#07718:00000013
#0771b:0000001300130000
#0761b:1300130000130013
#07615:0013001300000000
#07612:13001313
#07618:0013
#0751b:1300001300000000
#07518:0000000013000013
#07515:00000013
#07512:0000001300130000
#02712:0013000000001300
#02717:0013000000000000
#0271b:0000000000000013
#02715:0000001300130000
#02718:0013
#0501b:1300130013000013
#05015:0000130000130000
#05018:0013001300001300
#05012:1300000013001313
#05112:0013131313000000
#0511b:0013131313000000
#05815:00000000001300000000130013000000
#05818:0013130000000000
#05812:00000000000000240000000000000000
#0581a:0000000000000024
#05718:00000000000000000000000000130000
#05715:00000013
#05717:0013
#0571b:00130000
#05712:0024002400000000
#0571a:00000000000000000000000000000024
#05618:00000013
#05615:00000000000000001300000000130000
#05616:00000013000000000000000000000000
#05612:13
#0561b:13
#0561a:00000024000024000000000000000000
#05512:0000000000131300
#0551b:0000001313000013
#05515:0023000000000000
#05516:00002424
#05414:12000012
#05416:0012000000120000
#05418:0000120012000023
#0541a:1200001200000000
#05412:0000000000000024
#0491b:0013000013000000
#04912:00131300
#04915:1300001300000000
#04918:00130000
#04818:13
#04812:0000001300000013
#0481b:0013000000130000
#04612:13
#0461b:0000001300000013
#04615:0013000000130000
#0441b:13
#04412:0000001300000013
#04418:0013000000130000
#04410:41
#00912:1413
#00918:0013
#0091a:0000001400000000
#00916:00000014000000000000000000000000
#0071b:0013
#00715:0013
#00712:0000001400000000
#00716:00000014000000000000000000000000
#0071a:14
#0211a:14
#0211b:0000000000000013
#02115:0000000013131300
#02118:00000000000000000013001300000000
#02112:14
#0231b:13
#02315:00000013000000000000000000000000
#02312:0013
#02318:0000001313000000
#02212:13
#02218:00000013000000000000000000000000
#0221b:0013
#02215:0000001313000000
#06112:00001300000000000013000000000000
#06117:00001300000000000013000000000000
#06116:0000001300000000
#0611b:0000001300000000
#06110:41
#00818:0013000000130000
#0081b:1300000000000013
#00815:00130013
#00812:23
#00615:0013000000130000
#00612:1300000000000013
#00618:00130013
#0061b:23
#00610:41
#03818:0000130000000013
#0381b:0000001300130000
#03812:13000013
#03815:0013000013000000
#03915:1300000000130000
#03912:00001323
#03918:0000000000130000
#0391b:00001323
#03112:0023132313000000
#03115:13
#0311b:0013231323000000
#0251b:00001300000000000013000000000000
#02516:00001300000000000013000000000000
#02517:0000001300000000
#02512:0000001300000000
#03012:0013000000000000000000000000000000000000000000000000000000000000
#0301b:0000000000000000000000000000000000130000000000001300000000000000
#03018:00001300000000130000000000001300
#03015:0000130000130000
#02915:00000000000013000000000000000013
#02918:00130013
#02912:0013000013000000
#0331b:00130000000013000000000000000000
#03318:0000000000130013
#03315:00000013
#03312:00130000
#03512:00130000000000000000000000000000
#03518:0013
#03515:00000000000000000000001300000000
#0351b:00130000
#03618:0013001300001300
#0361b:1300000013000013
#03612:1300000013000013
#03615:0000130000130000
#03610:41
#0721b:1300000013000013
#07218:0013001300130000
#07215:00130013
#07212:1300000013000013
#07812:1300001300130000
#07815:0000130000000013
#0781b:0013000013000000
#07818:13000013
#06912:00130000000013000000000000000000
#06915:0000000000130013
#06918:00000013
#0691b:00130000
#0711b:00130000000000000000001300000000
#07112:00000000130000000000001300000000
#07115:0013
#06615:2300001323000000
#06612:00130023
#06618:0013230000000023
#0661b:13
#04216:14
#04318:0000131316001600
#04312:0000000000160000
#04315:00000000001300130000000000000000
#02818:0000001300001300
#02815:00000000000000001300000000130000
#0281b:00000013000000000000000000000000
#01716:0014
#01712:00000013
#0171b:00000013
#0171a:24000024000024000000000000000000
#02012:1400000014000014
#0201a:1400001414000000
#02016:00000014000000000000001400000000
#06718:0023
#06715:0026262623000000
#0401a:24
#0475b:00000043
#04752:00000033
#04758:0023
#04755:0023
#04552:00000033
#0455b:00000043
#04555:0023
#04558:0023
#0675b:00000013
#06752:00000013
#06758:0053
#06755:0063
#04958:00000013
#04955:00000013
#0495b:0023
#04952:0023
#00955:00000013
#0095b:00000013
#00952:0053
#00958:0053
#00758:00000013
#00752:00000013
#0075b:0063
#00755:0063
#03155:00000013
#03158:00000013
#0315b:0063
#03152:0053
#0655b:00130000
#06552:0013
#06252:0000000000000053
#06058:00160000
#06052:00160000
#0605b:0000000000000063
#0405a:64
#0395b:00006343
#03952:00005333
#03955:6300000000230000
#03958:0000000000230000
#02452:0000160000000053
#00852:13
#00858:0023000000000000
#0085b:63
#0065b:13
#00655:0023000000000000
#00652:53
#0035a:0000000000000014
#00352:0000000000000068
#01155:63
#01152:0023000000000000
#01456:68
#01457:0067
#01452:00680000
#01453:00000066
#01557:65
#01558:0063
#01555:00640000
#01852:58
#01853:0056
#01857:00570055
#01954:55
#01952:0057
#01957:00560000
#00452:00002300680023006823662367000000
#0795b:63
#05955:00000013
#00158:0000000000000056
#07458:0023000000000000
#0745b:63
#07452:0000002300000053
#07455:00630000
#07752:5300005300000000
#07755:0023
#0765b:0000000000230063
#07655:0023000000000000
#07652:53
#07658:0053
#0755b:6300006300000000
#07558:0023
#05656:00000063000000000000000000000000
#05652:53
#0215a:64
#02152:14
#0235b:63
#02355:00000063000000000000000000000000
#02352:0053
#02358:0053
#02252:53
#02258:00000053000000000000000000000000
#0225b:0063
#02255:0063
#06152:00005300000000000023000000000000
#06157:00005300000000000023000000000000
#06156:0000006300000000
#0615b:0000006300000000
#0105b:0023000000000000
#01058:53
#03858:0000530000000053
#0385b:0000002300000000
#0255b:00006300000000000023000000000000
#02556:00006300000000000023000000000000
#02557:0000005300000000
#02552:0000005300000000
#02757:0053000000000000
#0265b:0000000000000063
#03052:0023000000000000000000000000000000000000000000000000000000000000
#0305b:0000000000000000000000000000000000230000000000000000000000000000
#03058:00001300000000530000000000000000
#03055:0000000000130000
#02955:00000000000000000000000000000063
#03252:0023000000000000
#03255:63
#03258:0000000000000053
#0335b:00230000000000000000000000000000
#0345b:0000000000230000
#03458:0053
#03455:0000000000000063
#03552:00230000000000000000000000000000
#03558:0053
#03555:00000000000000000000006300000000
#03658:0023000000000000
#0365b:63
#03652:0000000000000053
#03755:23
#06356:0063000000000000
#07358:23
#0725b:0000000000000063
#07852:0000002300000000
#07855:00630000
#0785b:0023000000000000
#07858:53
#06952:00230000000000000000000000000000
#06855:0000000000000063
#07052:0000000000230000
#07055:0063
#07058:0000000000000053
#0715b:00230000000000000000002300000000
#07152:00000000000000000000002300000000
#07155:0063
#04256:54
#04358:00001616
#04352:0000000000160000
#02052:14
#0205a:0014
#001380:0000000000000016
#0033c0:22
#003320:0000000000000018
#004320:00005300580053005853565357000053
#005320:23
#005320:00000013000000000000000000000000
#005350:0000002300000000
#006320:13230000
#006350:0053000000000000
#0073b0:0013
#007380:00000023
#007351:0013
#007321:00000023
#0083b1:13230000
#008381:0053000000000000
#009321:0013
#009351:00000023
#009380:0013
#0093b0:00000023
#010380:13230000
#0103b0:0053000000000000
#010351:0000132300000000
#010321:00000000000000130023000000000000
#010351:0000000000132300
#011351:13230000
#011321:0053000000000000
#011380:0000132300000000
#0113b0:00000000000000130023000000000000
#011380:0000000000132300
#014360:18
#014320:00380000
#014370:0037
#014330:00000036
#015370:35000022
#015350:00340000
#015380:0033
#018320:18
#018370:00370035
#018330:0036
#019340:35
#019370:00360000
#019320:0037
#019360:00000028
#0213a0:14
#021360:00240000
#022320:13
#022350:00000023000000000000000000000000
#022381:00000013000000000000000000000000
#0223b1:0000002300000000
#0223b1:0013
#022381:00000023
#022350:0013
#022320:00000023
#0233b0:13
#023380:00000023000000000000000000000000
#023351:00000013000000000000000000000000
#023321:0000002300000000
#023321:0013
#023351:00000023
#023380:0013
#0233b0:00000023
#024320:0000000000000013
#025360:00003300000000000053000000000000
#025320:0000005300002300
#0253b1:00001300000000000053000000000000
#025371:0000005300002300
#0263b1:0000000000000013
#027371:0033000000000000
#0273b1:0000002300000000
#028321:13
#028351:00000023000000000000000000000000
#0283b1:00000000000000000000000000000013
#029381:0023000000000000
#029351:00000000000000000000000000130033
#030321:0053000000000000000000000000000000000000000000000000000000000000
#030351:0023000000000000
#030381:00000000001300330000230000000000
#0303b1:0000000000000000000000000000000000530000000000000000000000000000
#031321:0013
#031351:00000023
#0313b0:0013
#031380:00000023
#032350:13230000
#032320:0053000000000000
#032380:0000000000000013
#0333b0:00530000000000000000000000000000
#033380:00230000
#033350:0000001300000000
#033320:0000000000230000
#034380:00001323
#0343b0:0000000000530000
#034350:0000000000000013
#035320:00530000000000000000000000000000
#035350:00230000
#035350:0000001323000000
#035381:0013
#0353b1:0000000000000023
#035350:00000000000000000000001300000000
#035320:0000000000000023
#0363b0:13230000
#036380:0053000000000000
#036320:0000000000000013
#037350:53
#037320:0023000000000000
#037350:0000001300000000
#037320:0000000000230000
#038380:00132300
#0383b0:0000005300000000
#038380:0000000000000013
#0393b0:0000003333002300
#039380:0000000000530000
#039351:1300000000530000
#039321:0000003333002300
#040321:13230000
#0403a0:14
#042360:34
#0433a0:24
#040321:00001323
#041321:13230000
#041321:00001323
#042321:13230000
#042321:00001323
#043321:13230000
#044351:13230000
#044321:0033000000000000
#0443b0:00132300
#044380:0000003300000000
#044351:00001323
#044321:0000000000330000
#0443b0:00000013
#044380:0000000000000033
#0453b0:23
#045350:0013
#045320:00000023
#045381:0013
#0453b1:00000023
#046381:13230000
#0463b1:0033000000000000
#046320:00132300
#046350:0000003300000000
#046381:00001323
#0463b1:0000000000330000
#046320:00000013
#046350:0000000000000033
#047320:23
#047380:0013
#0473b0:00000023
#047351:0013
#047321:00000023
#048351:13230000
#048321:0033000000000000
#048380:00132300
#0483b0:0000003300000000
#048351:00001323
#048321:0000000000330000
#048380:00000013
#0483b0:0000000000000033
#049380:23
#0493b0:0013
#049380:00000023
#049321:0013
#049351:00000023
#052341:0000000000000012
#053361:00000022
#0533a0:0012000000000000
#053380:00000022
#054380:0000000000000013
#0553b0:0023000000000000
#055351:0013000000000000
#055321:0000002300000000
#056321:1300002300000000
#056361:00000033000000000000000000000000
#0563b1:00000000000000000000000000000013
#057381:0023000000000000
#057351:00000000000000000000000000000013
#058321:0023000000000000
#058381:00000000000000130000000000000000
#0583b1:0000000000230000
#0603b1:0000000000000013
#061371:00003300000000000053000000000000
#0613b1:0000005300002300
#061320:00001300000000000053000000000000
#061360:0000005300002300
#062320:0000000000000013
#063360:0033000000000000
#063320:0000002300000000
#0643b0:13
#064380:00000023000000000000000000000000
#064321:00000013000000000000000000000000
#064351:0000002300000000
#064321:00000000000000000000000000000013
#065351:0023000000000000
#066381:0013
#0663b1:00000023
#066351:0000000000000013
#067321:0023000000000000
#067381:0013
#0673b1:00000023
#067350:0013
#067320:00000023
#068350:0000000000000013
#069320:00530000000000000000000000000000
#069350:00230000
#069380:0000001300000000
#0693b0:0000000000230000
#070350:00001323
#070320:0000000000530000
#070380:0000000000000013
#0713b0:00530000000000000000000000000000
#071380:00230000
#071380:0000001323000000
#071351:0000000013000023
#071321:00000000000000000000005300000000
#0713b0:00000000000000000000001300000000
#071380:0000000000000023
#0723b0:0000000000000013
#073380:53
#0733b0:0023000000000000
#073380:0000001300000000
#0733b0:0000000000230000
#0743b0:13230000
#074380:0053000000000000
#074351:00132300
#074321:0000005300000000
#074321:0000000000000013
#075351:00230000
#0753b0:13
#075380:00230000
#0753b0:0000001300230000
#075380:0053
#076320:13230000
#076350:0053000000000000
#076380:00001323
#0763b0:0000000000530000
#0763b0:0000000000000013
#077380:00230000
#077321:13
#077351:00230000
#077321:0000001300230000
#077351:0053
#078381:13230000
#0783b1:0053000000000000
#078350:00132300
#078320:0000005300000000
#0793b0:13
#079370:0023
