This file was generated by Ched 2.6.4.0.
#TITLE ""
#ARTIST ""
#DESIGNER ""
#DIFFICULTY 0
#PLAYLEVEL
#SONGID ""
#WAVE ""
#WAVEOFFSET 0
#JACKET ""
#REQUEST "ticks_per_beat 480"
#00002: 4
#BPM01: 124
#00008: 01
#TIL00: ""
#HISPEED 00
#MEASUREHS 00
#0011b:13
#00118:00130000
#00115:0013
#00112:00000013
#00518:1313000000230013
#0051b:0013
#00515:00130000000000000000000023000000
#00512:0013
#02012:00000014000000000000000000001400
#02018:0000001400000000
#0201a:14000000000000000000001400000000
#02014:0014
#02115:00001313
#02118:0000000000130013
#0211a:14
#01018:0000001300000000
#01015:00000000000000130000000000001300
#01012:1300000000000000000000000000000000003313330000000000000000000000
#02418:0013000013000000
#02415:2300230000130000
#02412:00000013
#0241b:0000000000000013
#02410:41
#02612:13000013
#02615:0013000013000000
#02618:0000130000000013
#0261b:0000001300130000
#02712:00000013
#02718:0000000000000013
#0271b:0013000000130000
#02715:0013
#02815:0013
#02818:0000001300001300
#02918:00130000
#02915:0000001300001300
#0291b:0013
#03012:00000013
#03018:0000000000000013
#03015:00130000
#03315:00000013
#03318:0000000000000013
#0331b:0000001300000000
#03418:0000001300000013
#03415:00131300
#03412:13
#0341b:0013000000000000
#0361b:0000001300000000
#03615:00001313
#03618:0000000000130013
#03612:13
#03610:41
#03815:0013000000130013
#03818:00000013
#0381b:13130000
#04318:00131616
#04315:0000001300000000
#04312:0000000000160000
#03518:0013
#03515:0000001300000000
#0351a:00000000000000000000003300000000
#04515:00131300
#04518:0013001300000000
#06015:1313
#06018:0000260000130000
#0601b:00000013
#06012:0000000000000013
#0601f:00210000
#06518:0000001300002300
#06515:0000230000000013
#06512:0023
#0721b:13
#07218:00131313
#07215:0013000000130013
#07212:0000001300000000
#07115:0013
#07118:0000001300000000
#07112:00000000000000000000001300000000
#0661b:13
#06618:0013001300000023
#06612:23
#06615:00232300
#07515:13000013
#07518:0000001300000013
#07618:0000001300000013
#07612:1300000000130000
#07615:0013000013000000
#07715:13000013
#07718:0000000013000013
#0771b:0000001300000000
#07812:13
#07816:00130000
#07818:0000000000130013
#07815:00000013
#02212:1313
#02215:00000013000000000000000000000000
#04915:00130000
#04918:0013001300000000
#04912:0013
#0491b:0013
#0521a:12000012
#05214:0000001200000000
#05216:0012000000120012
#05218:00121200
#0521f:11
#0501b:1300000000000013
#05012:1300001300000013
#05018:0013000000130000
#05015:00131313
#05118:00131300
#05115:0013001300000000
#01312:00002414
#0131a:00000000000000000024000014000000
#01318:002400000000002400000000000000000000000000000000
#01314:24240000
#00312:1300000000000013
#00315:00130000
#00318:0013
#0031b:00000013
#00414:0013000013000000
#00413:00130000
#00412:0000001300000000
#00416:0000000000130000
#00618:0000000000130000
#00615:13000013
#0061b:0000000000000013
#00610:41
#00716:0013
#00815:0000000000130000
#00818:13000013
#00812:0000000000000013
#01115:0000001300000000
#01118:00000000000000130000000000000000
#0111b:1300000000000000000000000000000000003313330000000000000000000000
#00917:0013
#0251b:0000001300000000
#02518:0013000000000000
#03215:0000001300000013
#0321b:13
#03218:0013
#03715:0000001300000000
#03718:00000013
#03712:0000000000000013
#0391b:0013
#03918:13000023
#04216:14
#0621b:13000013
#06218:0013000013000000
#06215:0000130000000023
#06212:0000001300130000
#06112:0000001300000000
#06115:0013000000000000
#06110:41
#06312:0013000000130000
#0631b:00000013
#06315:0000000000000013
#06318:0013
#06418:0013
#06415:0000001300001300
#06918:00000013
#06915:0000000000000013
#06912:0000001300000000
#07015:0000001300000013
#07018:00131300
#0701b:13
#07012:0013000000000000
#07010:41
#06815:00131300
#06818:0000001300000013
#06812:13
#0681b:0013000000000000
#07418:0013000000130013
#07415:00000013
#07412:13130000
#07318:0000001300000000
#07315:00000013
#0731b:0000000000000013
#07915:13
#0791a:0024000000000000
#07916:00000000002400000000000000000000
#07912:0024
#0231b:1313
#02318:00000013000000000000000000000000
#01712:00000013
#0171b:00000013
#0171a:24
#01718:00000034000000000000000000000000
#01716:0000003400000000
#0141a:1414
#01417:00000014
#01416:00140000
#0151a:1414
#01518:00140000
#0161b:0000000000130000
#01615:0000000000001313
#01618:00000000000000000000000000130000
#01612:24
#01614:00000034000000000000000000000000
#01616:0000003400000000
#01812:1414
#01815:00000014
#01816:00140000
#01912:1414
#01915:00140000
#05418:0012000000120024
#05416:00121200
#05414:12000012
#0541a:0000001200000000
#05612:0013
#05618:1300002400001300
#05614:00000024000000000000000000000000
#05512:0000000000130000
#05515:0023000000000013
#05518:00002424
#05818:0013000000001300
#05815:0000130000130000
#0581a:00000000000000240000000000000000
#05812:0000000000000024
#05918:00242413
#0591b:13
#05915:0000000000130000
#05914:0024002400000000
#05718:0024002400001300
#05712:00130000
#05715:0013
#05714:00000000000000000000000000000024
#04718:00131300
#04715:0013001300000000
#03118:0000002300000000
#03115:0023
#06712:0023
#0671b:0023
#04012:24
#04414:0000003300000033
#04413:0033000000330000
#04410:41
#04619:0000003300000033
#0461a:0033000000330000
#0481a:0000003300000033
#04819:0033000000330000
#04813:0000003300000033
#04814:0033000000330000
#02455:00130000
#0245b:0000000000000063
#03152:00000013
#03155:0063
#03558:0053
#06058:00160000
#06052:0000000000000053
#07155:0063
#07152:00000000000000000000002300000000
#07852:53
#07856:00630000
#07652:5300000000230000
#07655:0023000063000000
#07555:63
#07558:0000005300000000
#0275b:0063000000000000
#02658:0000000000000053
#02252:5353
#02255:00000063000000000000000000000000
#0215a:64
#06755:00000013
#06752:0053
#0675b:0063
#06758:00000013
#04958:00000013
#04955:00000013
#04952:0053
#0495b:0063
#00352:0000000000000063
#00454:0023000063000000
#00453:00630000
#00452:0000002300000000
#00456:0000000000230000
#00752:00000013
#00756:0063
#01052:5300000000000000000000000000000000000023000000000000000000000000
#01055:00000000000000630000000000000000
#01158:00000000000000530000000000000000
#0115b:6300000000000000000000000000000000000023000000000000000000000000
#00655:63
#00858:53
#00957:0053
#0095b:00000013
#0255b:0000006300000000
#02558:0053000000000000
#0325b:63
#03258:0053
#03255:0000000000000063
#03455:0063
#03458:0000000000000053
#0335b:0000006300000000
#03652:53
#03658:0000000000000053
#03755:0000006300000000
#0385b:00630000
#0395b:0063
#03958:53000013
#04256:64
#04052:54
#04552:00000013
#04555:0063
#06152:0000005300000000
#06155:0063000000000000
#06352:0053000000000000
#06255:0000000000000063
#06855:0063
#06858:0000000000000053
#07058:0053
#07055:0000000000000063
#06952:0000005300000000
#07255:0000000000000063
#07358:0000005300000000
#07452:00530000
#07755:63
#0775b:0000006300000000
#07758:0023
#0235b:6363
#02358:00000053000000000000000000000000
#0145a:6464
#01457:00000054
#01456:00540000
#0155a:6464
#01558:00540000
#01852:5454
#01855:00000064
#01856:00640000
#01952:5454
#01955:00640000
#05958:00000013
#04758:0053
#0475b:00000013
#06552:0013
#001380:0000000000000013
#002380:00000023
#003320:0000000000000013
#004340:0053000053000000
#004330:00530023
#004320:0000005300000000
#004360:0000000000530000
#005350:00000013000000000000000000000000
#005320:0000002300000000
#006350:13
#006320:00230000
#007320:13000023
#007340:00000033000000000000000000000000
#007360:0000003333000000
#008380:13
#0083b0:00230000
#0093b0:13000023
#009390:00000033000000000000000000000000
#009370:0000003333000000
#010320:13
#010350:00230000
#010350:00000000000000130000000023000000
#010320:0000000000000000000000000000000000003353330000000000000000000000
#0113b0:13
#011380:00230000
#011380:00000000000000130000000023000000
#0113b0:0000000000000000000000000000000000003353330000000000000000000000
#012320:14
#012330:003400000000000000000000
#012340:003400000000
#012350:00240000
#0123a0:0014
#012390:000000000000003400000000
#012380:000034
#012370:00000024
#0143a0:1434
#014360:00340000
#014370:00000034
#0153a0:3434
#015380:00340024
#016320:14
#016340:00000034000000000000000000000000
#016360:0000003424000000
#0173a0:14
#017380:00000034000000000000000000000000
#017360:0000003424000000
#018320:1434
#018360:00340000
#018350:00000034
#019320:3434
#019350:00340000
#019360:00000024
#0213a0:14
#021380:00240000
#022320:1300003333000000
#022350:00000033000000000000000000000000
#022360:00000023
#0233b0:1300003333000000
#023380:00000033000000000000000000000000
#023370:00000023
#0243b0:0000000000000013
#025380:0033000000002300
#0253b0:0000005300000000
#026380:0000000000000013
#0273b0:0033000000000000
#027380:0000002300000000
#028350:13000023000000000000000000000000
#028350:00000000000000000000000000130033
#029320:0023000000000000
#0293b0:00000000000000000000000000130033
#030380:0023000000000000
#0303b0:00000000001300330000000000000000
#030380:0000000000230000
#031350:13230000
#031350:0013
#031320:00000023
#0323b0:13
#032380:00230000
#032380:0013
#0323b0:00000023
#032350:0000000000000013
#033320:00230000
#0333b0:0000001300000000
#033380:0000000000230000
#034350:0013
#034320:00000023
#034380:0000000000000013
#0353b0:00230000
#035380:0013
#0353a0:00000000000000000000003300000000
#0353b0:0000000000000023
#036320:13
#036350:00230000
#036380:0000000000000013
#0373b0:0023000000000000
#037350:0000001300000000
#037320:0000000000230000
#0383b0:00130000
#038380:0023
#039380:13000023
#0393b0:0000003333000000
#040320:14
#042360:34
#043320:24
#044350:1333
#044330:0033000000330000
#044320:00330033
#044340:0000003300000033
#045350:23
#045350:0013
#045320:00000023
#046380:1333
#0463a0:0033000000330000
#0463b0:00330033
#046390:0000003300000033
#047380:23
#047380:0013
#0473b0:00000023
#0483b0:1333
#048390:0033000000330000
#048380:00330033
#0483a0:0000003300000033
#0493b0:23
#048321:1333
#048341:0033000000330000
#048351:00330033
#048331:0000003300000033
#049321:23
#049321:0013
#049351:00000023
#0493b0:0013
#049380:00000023
#053380:0012000000000000
#0533a0:00000022
#055350:0013000000000000
#055320:0000002300000000
#056350:00000000000000000000000000130023
#060320:0000000000000013
#061350:0033000000002300
#061320:0000005300000000
#062350:0000000000000013
#063320:0033000000000000
#063350:0000002300000000
#064380:13000023000000000000000000000000
#064380:00000000000000000000000000130033
#0653b0:0023000000000000
#066350:0013
#066320:00000023
#066380:0000000000000013
#0673b0:00230000
#067320:0013
#067350:00000023
#0673b1:0013
#067381:00000023
#068351:0013
#068321:00000023
#068381:0000000000000013
#0693b1:00230000
#069321:0000001300000000
#069351:0000000000230000
#070381:0013
#0703b1:00000023
#070351:0000000000000013
#071321:00230000
#071351:0000000013000023
#071321:00000000000000000000003300000000
#072351:0000000000000013
#073321:0023000000000000
#073381:0000001300000000
#0733b1:0000000000230000
#074321:00130000
#074351:0023
#075351:13
#075321:00230000
#075381:0000001300000000
#0753b1:0000000000230000
#076321:13230000
#076351:0053000000000000
#076351:00001323
#076321:0000000000530000
#077351:13
#077321:00230000
#0773b1:0000001300230000
#077381:0053
#078321:1323
#078361:00330000
