This file was generated by Ched 2.6.4.0.
#TITLE ""
#ARTIST ""
#DESIGNER ""
#DIFFICULTY 0
#PLAYLEVEL
#SONGID ""
#WAVE ""
#WAVEOFFSET 0
#JACKET ""
#REQUEST "ticks_per_beat 480"
#00002: 4
#BPM01: 124
#00008: 01
#TIL00: ""
#HISPEED 00
#MEASUREHS 00
#0011c:12
#0011a:00120000
#00116:1212
#00112:000000000000121c
#00118:0000001200001200
#00517:0000001300130000
#00518:00130000000000000000000000000000
#00515:0013000000000000
#00516:0000000000000000001300000000000013000000000000001300000000000000
#0051b:1300000013002313
#00512:00000013000000000000230000001300
#0071b:1313
#00715:00000013000000000000000000000000
#00712:0013001300131300
#00718:00160016
#00716:1313
#00717:0000001300130000
#00714:0000000000000013
#00618:00160016
#00614:0000000000130013
#00612:13000013
#00616:0013000013000000
#0061b:0013
#00617:23
#00610:41
#01216:1414140014141400
#0121a:001414000000140000000000
#01212:140000000000001414000000
#01314:241400000000000000000000000000000000000000000000
#01318:140024000000000000000000250015000000000000000000260000260000000000000000000000000000000000000000
#01316:000000000000000000141414
#01313:000000000000152500000000000000000000000000000000
#01312:00000000000000002626000000000000
#0171b:13131313
#01718:00000000000000000000000000130000
#01715:0000000000000013
#01712:00000000000024000000130000000013
#01716:2414
#01714:00000024000000000000000000000000
#02012:14001313
#02016:00000014000014000000001400001400
#0201b:13130000
#0201a:0014
#02112:1400130013000013
#02117:00001300000000000013000000000000
#02114:0000000000130000
#02119:00000000000000000000001300000000
#02116:0000001300001300
#0211b:1300130013000013
#01016:00001300000013130000000013000000
#01012:1300000000000013
#01017:13000000130000000013130000001300
#0101b:0013000000000000
#02412:2400000013000013
#02416:00000013
#02417:0000000000000013
#02418:0014260000000000
#0241b:00001313
#02414:0000000000130000
#02410:41
#0261b:1300131300131313
#02615:13130000
#02616:00001414
#02612:0013001313130013
#02618:00130013000000000000000000000000
#02716:0000130000130000
#0271b:0000001300001300
#02717:1300000000000013
#02712:0013000013000000
#02816:13001313
#02819:0000001300000000
#0281b:13000000000000001300000013130000
#02812:00000013130000000000130000000013
#02817:00000000130000000000000000000013
#0291b:00001300130000000000130013130000
#02916:00130013
#02914:0000001300000000
#02912:00000000000000001300000000000013
#02917:0013
#03017:0000000013000000130000000000000000130000000000000000000000000000
#03012:00000000131300000000001300000000
#03016:0013000000000000000000000000000000000000130000000000000000000000
#0301b:00000000000000130000000013000000
#03018:0000000000000013
#03015:00000000000000000000000000130013
#03118:0013000000000000
#0311a:0000001300000000
#03112:13
#03114:00130000
#0311b:1323
#03115:0023000000000000
#03119:00230000
#03113:0000002300000000
#03214:0000001300000000
#03217:0013000013001300
#0321b:1300000000130013
#03216:1300130000130013
#03212:0013000013000000
#03219:0000001300000000
#0331b:1300001300130013
#03312:00001313
#03316:0000001300000000
#03317:00000013
#03616:00130000
#03619:0000001300000000
#03617:00001313
#03615:0000000000130000
#03612:13000013
#0361b:1300130000000013
#03614:0013000000000000
#03610:41
#03717:1300130000130000
#0371b:0000001300000000
#03719:0013
#03716:0013001300001300
#03712:1300130000000013
#0381b:0013001300130013
#03812:00130013
#03817:13131313
#03816:0000001300130013
#0781b:1300001300001300
#07816:1300000000000013
#07812:0013000013230000
#07818:00130000
#07817:0000000000130000
#06012:1300260013000023
#06015:0000000000130000
#06018:00260013
#0601b:1300000013000023
#06017:0013000000000000
#06016:000000000000000000000000000000000000000000000000000000000000000000000000000000000000000000000000000000000000000000000000000000000000000000000000000000000000000000000000000000000000000000000000000000000000000000000000000000000000000000000000000000000000000000000000000000000000000000000000000000000000000000000000000000000000000000000000000000000000000000000000000000000000000000000000000000000000000000000000000000000000000000000000000000000000000000000000000000000000000000000013000000000000000000000000000000000000000000000000000000000000000000000000000000000000000000000000000000000000000000000000000000000000000000000000000000000000000000000000000000000000000000000000000000000000000000000000000000000000000000000000000000000000000000000000000000000000000000000000000000000000000000000000000000000000000000000000000000000000000000000000000000000000000000000000000000000000000000000000000000000000000000000000000000000000000000000000000000000000000000000000000000000000000000000000000000000000000000000000000000000000000000000000000000000000000000000000000000000000000000000000000000000000000000000000000000000000000000000000000000000000000000000000000000000000000000000000000000000000000000000000000000000000000000000000000000000000000000000000000000000000000000000000000000000000000000000000000000000000000000000000000000000000000000000000000000000000000000000000000000000000000000000000000000000000000000000000000000000000000000000000000000000000000000000000000000000000000000000000000000000000000000000000000000000000000000000000000000000000000000000000000000000000000000000000000000000000000000000000000000000000000000000000000000000000000000000000000000000000000000000000000000000000000000000000000000000000000000000000000000000000000000000000000000000000000000000000000000000000000000000000000000000000000000000000000000000000000000000000000000000000000000000000000000000000000000000000000000000000000000000000000000000000000000000000000000000000000000000000000000000000000000000000000000000000000000000000000000000000000000000000000000000000000000000000000000000000000000000000000000000000000000000000000000000000000000000000000000000000000000000000000000000000000000000000000000000000000000000000000000000000000000000000000000000000000000000000000000000000000000000000000000000000000000000000000000000000000000000000000000000000000000000000000000000000000000000000000000000000000000000000000000000000000000000000000000000000000000000000000000000000000000000000000000000000000000000000000000000000000000000000000000000000000000000000000000000000000000000000000000000000000000000000000000000000000000000000000000000000000000000000000000000000000000000000000000000000000000000000000000000000000000000000000000000000000000000000000000000000000000000000000000000000000000000000000000000000000000000000000000000000000000000000000000000000000000000000000000000000000000000000000000000000000000000000000000000000000000000000000000000000000000000000000000000000000000000000000000000000000000000000000000000000000000000000000000000000000000000000000000000000000000000000000000000000000000000000000000000000000000000000000000000000000000000000000000000000000000000000000000000000000000000000000000000000000000000000000000000000000000000000000000000000000000000000000000000000000000000000000000000000000000000000000000000000000000000000000000000000000000000000000000000000000000000000000000000000000000000000000000000000000000000000000000000000000000000000000000000000000000000000000000000000000000000000000000000000000000000000000000000000000000000000000000000000000000000000000000000000000000000000000000000000000000000000000000000000000000000000000000000000000000000000000000000000000000000000000000000000000000000000000000000000000000000000000000000000000000000000000000000000000000000000000000000000000000000000000000000000000000000000
#0601f:00210000
#06215:13
#06212:00130000000013001300000000002400
#0621b:00131300
#06219:0000000000130000
#06216:0000141400001400
#06218:0013000000000000
#06214:0000000000130000
#0621a:0000000000000024
#06118:00000000000000001300000000000013
#0611a:00130013
#06117:12
#06112:0013000000000013
#06114:0000001300130000
#0611b:0023000000000023
#06113:00230023
#06119:0000002300230000
#06115:0023
#06110:41
#06312:0000001400131300
#06316:0013
#06317:14000013
#06315:00140000
#0631b:0000000013000013
#0631a:0024000000000000
#0651b:00001300130013000000000000130000
#06512:1313001313002600
#06518:00000000000000000000001300001300
#06515:0000000026130000
#06516:00240000
#06517:22
#06812:1300000013000013
#06816:00130013
#06817:0000000013000013
#06819:0000000000130000
#0681b:13130013
#06814:0013001300000000
#06916:0000001300001300
#06912:0000000000130000
#06914:0000000000000013
#0691b:0013131300001300
#06917:00130000000000000000000000000000
#07217:0013
#0721b:1300130000131313
#07212:1313
#07216:0000130000130013
#07214:0013001300000000
#0731b:0000131300131300
#07316:0000131300001300
#07314:0000000000000013
#07312:0013000013000000
#07317:13
#0741b:1300001300130013
#07412:13131313
#07412:0013
#07417:00130013
#07419:0013000000000000
#07617:0000130000130013
#0761b:2300001313000000
#07612:1300000023000013
#07616:0013001300001300
#07712:1300000023000013
#07717:0000130000130013
#07716:0013001300001300
#0771b:2300001313000000
#04912:0000001313000000
#0491b:0013000013000000
#04917:0000000000130000
#04916:000000000000000000000000000000000000000000000000000000000000000000000000000000000000000000000000000000000000000000000000000000000000000000000000000000000000000000000000000000000000000000000000000000000000000000000000000000000000000000000000000000000000000000000000000000000000000000000000000000000000000000000000000000000000000000000000000000000000000000000000000000000000000000000000000000000000000000000000000000000000000000000000000000000000000000000000000000000000000000000000000000000000000000000000000000000000000000000000000000000000000000000000000000000000000000000000000000000000000000000000000000000000000000000000000000000000000000000000000000000000000000000000000000000000000000000000000000000000000000000000000000000000000000000000000000000000000000000000000000000000000000000000000000000000000000000000000000000000000000000000000000000000000000000000000000000000000000000000000000000000000000000000000000000000000000000000000000000000000000000000000000000000000000000000000000000000000000000000000000000000000000000000000000000000000000000000000000000000000000000000000000000000000000000000000000000000000000000000000000000000000000000000000000000000000000000000000000000000000000000000000000000000000000000000000000000000000000000000000000000000000000000000000000000000000000000000000000000000000000000000000000000000000000000000000000000000000000000000000000000000000000000000000000000000000000000000000000000000000000000000000000000000000000000000000000000000000000000000000000000000000000000000000000000000000000000000000000000000000000000000000000000000000000000000000000000000000000000000000000000000000000000000000000000000000000000000000000000000000000000000000000000000000000000000000000000000000000000000000000000000000000000000000000000000000000000000000000000000000000000000000000000000000000000000000000000000000000000000000000000000000000000000000000000000000000000000000000000000000000000000000000000000000000000000000000000000000000000000000000000000000000000000000000000000000000000000000000000000000000000000000000000000000000000000000000000000000000000000000000000000000000000000000000000000000000000000000000000000000000000000000000000000000000000000000000000000000000000000000000000000000000000000000000000000000000000000000000000000000000000000000000000000000000000000000000000000000000000000000000000000000000000000000000000000000000000000000000000000000000000000001300000000000000000000000000000000000000000000000000000000000000000000000000000000000000000000000000000000000000000000000000000000000000000000000000000000000000000000000000000000000000000000000000000000000000000000000000000000000000000000000000000000000000000000000000000000000000000000000000000000000000000000000000000000000000000000000000000000000000000000000000000000000000000000000000000000000000000000000000000000000000000000000000000000000000000000000000000000000000000000000000000000000000000000000000000000000000000000000000000000000000000000000000000000000000000000000000000000000000000000000000000000000000000000000000000000000000000000000000000000000000000000000000000000000000000000000000000000000000000000000000000000000000000000000000000000000000000000000000000000000000000000000000000000000000000000000000000000000000000000000000000000000000000000000000000000000000000000000000000000000000000000000000000000000000000000000000000000000000000000000000000000000000000000000000000000000000000000000000000000000000000000000000000000000000000000000000000000000000000000000000000000000000000000000000000000000000000000000000000000000000000000000000000000000000000000000000000000000000000000000000000000000000000000000000000000000000000000000000000000000000000000000000000000000000000000000000000000000000000000000000000000000000000000000000000000000000000000000000000000000000000000000000000000000000000000000000000000000000000000
#05515:0023000000130000
#05518:0000000026000013
#0551b:1300001300001300
#05512:00131326
#0561b:13000000000013000000000013130000
#05618:00000026000000001300000000000000
#05615:13000013
#05612:00000013000026001300000000000013
#05916:1400000000140000
#05918:00000016
#05912:0024142414002600
#0591a:0014241424000000
#05012:1615141300000013
#0501b:0000001300000013
#0501a:00000014
#05019:0000000000150000
#05018:0016
#05118:0016151413000000
#05115:0013
#05114:0000001400000000
#05113:00150000
#05112:0016000000000000
#0641b:13000000130000000000000013130000
#06416:00000013130000000000000013000000
#06412:13000000000000001300000000000013
#06414:0000000000130000
#06417:0000001300000000000000001300000000000000000000000000000000000000
#00312:1200000000000016
#00314:00120000
#00318:0000000012000026
#0031c:00000012
#00316:0000001200001200
#01518:0014140000131300
#01514:1400001400000000
#01515:0013
#01912:0000000000161600
#01918:1300001415000000
#01915:0013000000000000
#01914:00140000
#02214:0000141400000000
#02213:0000000015150000
#02215:1313000000000000
#02218:1313141415151616
#02212:0000000000001616
#02312:1600000000000000000000000000000000000000343434340000000000000000
#02318:00160015001400130000000000340000
#02313:0000000015000000000000000000000000000034000000000000000000000000
#02314:00000000140000000034000000000000
#02315:0000000000000000000000001300000000340000000000000000000000000000
#02316:00001414
#0231a:0000000000000000000000000000000000000000000000000000000034343434
#02319:0000000000000000000000000000000000000000000000000000003400000000
#02317:0000000000000000000000000000000000000000000000000034000000000000
#04617:13130000
#0461b:0013001300000000
#04616:0000000000130013
#04612:00000013
#04817:13130000
#0481b:0013001300000000
#04812:0000000000130013
#04816:00000013
#0521a:12000012
#05218:0000001200120000
#05216:00121200
#0521c:0000000000000012
#05214:0012000000000000
#05212:12
#0521f:11
#05318:1200001212000000
#05314:0012
#05315:0000000000120000
#05317:00000000000000000000001200000000
#05319:00000012
#05316:0000000000000012
#0531a:0000000000000012
#05418:0000121200000023
#0541a:0012000012000000
#0541c:1200000000121200
#05412:0000000000000026
#0401b:13000013000000000000001300000000
#04012:24
#0411b:00000013000000000000001300000000
#04116:14
#0421b:00000013000000000000001300000000
#04212:14
#04312:0000001416000000
#04315:0000000000160000
#04318:00000000001400000000000016000000
#0431a:00000014000000000000000000000000
#04316:00000000000000140000000000000000
#04314:00140000
#05718:00002600000000001300000013130026
#05712:00000000130026001300000013000013
#0571b:0000001300000000
#05716:0013000000000000000000000000000000000000000000000000000000000000
#05818:0013000000001326
#05815:00000000131300000000130000000000
#0581b:00000000130000130000000000000000
#05812:00000000000000260000000000001300
#05816:0013000000000000000000000000000000000000000000000000000000000000
#05817:0000000000000000000000000000000000130000000000000000000000000000
#06716:0000000000120000
#06718:0000000023120000
#06712:1323000000000000
#0671b:1323000000000000
#06713:00230000
#06714:0000002300000000
#06719:0000002300000000
#0671a:00230000
#06715:0023
#01418:1616160000151500
#01412:1600001600000000
#01413:0000000015000015
#01812:1616000000000000
#01818:1600001414000013
#01813:00150000
#01815:0000000000131300
#00912:13161316
#00918:00000013000000000000000000000000
#0091b:0013001300131300
#00917:1313
#00916:0000001300130000
#00919:0000000000000013
#00812:00161316
#00819:0000000000130013
#0081b:13000013
#00817:0013000013000000
#00816:23
#0161b:0000000000131300
#01615:00000000000000000000000000130000
#01618:00000024000000000000000000001300
#01616:2414
#01612:13131313
#0161a:0000002400000000
#01117:00001300000013130000000013000000
#01116:13000000130000000013130000000000
#0111b:13
#01112:0013000000000000
#0471b:0013000013000000
#04712:0000001300130000
#04716:0000000000130000
#04717:0013
#06612:13261323
#06615:00001300000013000000130000130013
#0661b:00130013
#06618:26000000001300002600000000002300
#03518:0012
#03516:00130000000000000000001200000000
#0351b:001300000000000000000000
#03412:1300001300001313
#0341b:0013000013000000
#03419:0000000000000013
#03417:130000000000000000130000000000001300000000000000
#03415:00130000
#03416:0013000000000000
#03916:0000000000140000
#03917:13
#03912:13002424
#0391a:00001424
#03915:0024000000000000
#03913:00000000002400000000000000000000
#02519:0000000000000013
#02517:0013001300001300
#02512:0013001300001300
#02516:13130000
#0251b:00130000
#07914:00000000001400000000000000000000
#07916:0024000014000000
#0791a:0014000000000000
#0791b:13
#07912:1324
#07918:00000000002400000000000000000000
#0701b:1300000013000013
#07017:00130013
#07016:0000000013000013
#07014:0000000000130000
#07012:13130013
#07019:0013001300000000
#07010:41
#07116:00130000000013000000000000000000
#07118:0000000000000013
#07112:0013130013001300
#0711b:00000000000013000000001300000000
#07117:0013
#07515:0013000000000013
#07512:13000000001300001300000000000000
#0751b:1313
#07513:0000000000130000
#07519:00000013
#0751a:0000000000130000
#07514:00000013
#07518:0000000000000013
#00412:000000000000000000000000000000000000000000000000000000000000000013000000000000000000000000000000000000000000000000000000000000000000000000000000000000000000000000000000000000000000000000000000000000000000000000000000000000000000000000000000000000000000000000000000000000000000000000000000000000000000000000000000000000130000000000000000000000000000000000000000000000000000000000000000
#00417:00151400
#00416:0000000000140000
#00415:00000014
#00413:000000000000000000000000000000000000000000000000000000000000000000000000000000000000000000000000000000000000000000000000000000001300000000000000000000000000000000000000000000000000000000000000000000000000000000000000000000000000000000000000000000000000000000000000000000130000000000000000000000000000000000000000000000000000000000000000000000000000000000000000000000000000000000000000
#00414:00000000000000000000000000000000000000000000000000000000000000000000000000130000000000000000000000000000000000000000000000000000
#04416:13130000
#04412:0013001300000000
#04417:0000000000130013
#0441b:00000013
#04410:41
#04512:0013000013000000
#0451b:0000001300130000
#04517:0000000000130000
#04516:0013
#02052:14
#0205a:0014
#07652:5313
#07656:0023000000000000
#0765b:1363
#07657:0000000000230000
#0325b:63
#03257:0023000000000000
#03256:0000000000230063
#03252:0053
#00652:53
#00656:0023000000000000
#00657:13
#00658:00160016
#01052:53
#01056:00002300000000630000000000000000
#0105b:00000013
#01057:0000530000530000
#05958:00000016
#05952:0014001400001600
#0595a:00141400
#00358:0000000000000016
#00352:0000000000000066
#01352:00000000000000000036000000000000
#01358:00000000000000000046000000000000
#03952:00000034
#0395a:00006444
#03956:0000000000240000
#03957:53
#06252:0000000000000054
#0625a:0000000000000044
#02458:0024460000000000
#02452:5400360000000053
#05452:0000000000000016
#05458:0000000000000053
#05558:0016
#05552:00230016
#0555b:23
#05555:0063000000000000
#0405b:1313
#04052:54
#0415b:1313
#04156:24
#0425b:1313
#04252:54
#0435b:13
#04352:0016
#04355:0000000000160000
#04358:00000016
#05658:00000016000000000000000000000000
#05652:00000000000016000000000000000053
#0565b:00000000000000000000000000630000
#05758:00001600000000000000000000000016
#05752:00000000000016000000000000000053
#05756:0023000000000000000000000000000000000000000000000000000000000000
#05852:00000000000000160000000000000000
#05858:0000000000000016
#05856:0023000000000000000000000000000000000000000000000000000000000000
#05857:0000000000000000000000000000000000230000000000000000000000000000
#0585b:00000000000000630000000000000000
#06058:00460000
#06052:53360000
#06056:000000000000000000000000000000000000000000000000000000000000000000000000000000000000000000000000000000000000000000000000000000000000000000000000000000000000000000000000000000000000000000000000000000000000000000000000000000000000000000000000000000000000000000000000000000000000000000000000000000000000000000000000000000000000000000000000000000000000000000000000000000000000000000000000000000000000000000000000000000000000000000000000000000000000000000000000000000000000000000000023000000000000000000000000000000000000000000000000000000000000000000000000000000000000000000000000000000000000000000000000000000000000000000000000000000000000000000000000000000000000000000000000000000000000000000000000000000000000000000000000000000000000000000000000000000000000000000000000000000000000000000000000000000000000000000000000000000000000000000000000000000000000000000000000000000000000000000000000000000000000000000000000000000000000000000000000000000000000000000000000000000000000000000000000000000000000000000000000000000000000000000000000000000000000000000000000000000000000000000000000000000000000000000000000000000000000000000000000000000000000000000000000000000000000000000000000000000000000000000000000000000000000000000000000000000000000000000000000000000000000000000000000000000000000000000000000000000000000000000000000000000000000000000000000000000000000000000000000000000000000000000000000000000000000000000000000000000000000000000000000000000000000000000000000000000000000000000000000000000000000000000000000000000000000000000000000000000000000000000000000000000000000000000000000000000000000000000000000000000000000000000000000000000000000000000000000000000000000000000000000000000000000000000000000000000000000000000000000000000000000000000000000000000000000000000000000000000000000000000000000000000000000000000000000000000000000000000000000000000000000000000000000000000000000000000000000000000000000000000000000000000000000000000000000000000000000000000000000000000000000000000000000000000000000000000000000000000000000000000000000000000000000000000000000000000000000000000000000000000000000000000000000000000000000000000000000000000000000000000000000000000000000000000000000000000000000000000000000000000000000000000000000000000000000000000000000000000000000000000000000000000000000000000000000000000000000000000000000000000000000000000000000000000000000000000000000000000000000000000000000000000000000000000000000000000000000000000000000000000000000000000000000000000000000000000000000000000000000000000000000000000000000000000000000000000000000000000000000000000000000000000000000000000000000000000000000000000000000000000000000000000000000000000000000000000000000000000000000000000000000000000000000000000000000000000000000000000000000000000000000000000000000000000000000000000000000000000000000000000000000000000000000000000000000000000000000000000000000000000000000000000000000000000000000000000000000000000000000000000000000000000000000000000000000000000000000000000000000000000000000000000000000000000000000000000000000000000000000000000000000000000000000000000000000000000000000000000000000000000000000000000000000000000000000000000000000000000000000000000000000000000000000000000000000000000000000000000000000000000000000000000000000000000000000000000000000000000000000000000000000000000000000000000000000000000000000000000000000000000000000000000000000000000000000000000000000000000000000000000000000000000000000000000000000000000000000000000000000000000000000000000000000000000000000000000000000000000000000000000000000000000000000000000000000000000000000000000000000000000000000000000000000000000000000000000000000000000000000000000000000000000000000000000000000000000000000000000000000000000000000000000000000000000000000000000000000000000000000000000000000000000000000000000000000000000000000000000000000000000000000
#06057:0023000000000000
#0605b:63
#06557:42
#06555:0046
#06556:00340000
#06756:0000000000220000
#06758:0000000063220000
#0675a:00000044
#06752:00000034
#06755:0053
#00557:0000000000430000
#00556:0000000000000000002300000000000000000000000000003300000000000000
#00552:00000053000000000000000000000000
#00758:00160016
#00852:00160016
#0085b:63
#00857:0023000000000000
#00856:13
#00952:00160016
#02152:14
#0115b:63
#01157:00002300000000530000000000000000
#01156:0000630000630000
#01152:00000013
#0475b:00006343
#04757:00006343
#04752:0000330000230000
#04756:0000000000230000
#04957:0000000000230000
#04956:000000000000000000000000000000000000000000000000000000000000000000000000000000000000000000000000000000000000000000000000000000000000000000000000000000000000000000000000000000000000000000000000000000000000000000000000000000000000000000000000000000000000000000000000000000000000000000000000000000000000000000000000000000000000000000000000000000000000000000000000000000000000000000000000000000000000000000000000000000000000000000000000000000000000000000000000000000000000000000000000000000000000000000000000000000000000000000000000000000000000000000000000000000000000000000000000000000000000000000000000000000000000000000000000000000000000000000000000000000000000000000000000000000000000000000000000000000000000000000000000000000000000000000000000000000000000000000000000000000000000000000000000000000000000000000000000000000000000000000000000000000000000000000000000000000000000000000000000000000000000000000000000000000000000000000000000000000000000000000000000000000000000000000000000000000000000000000000000000000000000000000000000000000000000000000000000000000000000000000000000000000000000000000000000000000000000000000000000000000000000000000000000000000000000000000000000000000000000000000000000000000000000000000000000000000000000000000000000000000000000000000000000000000000000000000000000000000000000000000000000000000000000000000000000000000000000000000000000000000000000000000000000000000000000000000000000000000000000000000000000000000000000000000000000000000000000000000000000000000000000000000000000000000000000000000000000000000000000000000000000000000000000000000000000000000000000000000000000000000000000000000000000000000000000000000000000000000000000000000000000000000000000000000000000000000000000000000000000000000000000000000000000000000000000000000000000000000000000000000000000000000000000000000000000000000000000000000000000000000000000000000000000000000000000000000000000000000000000000000000000000000000000000000000000000000000000000000000000000000000000000000000000000000000000000000000000000000000000000000000000000000000000000000000000000000000000000000000000000000000000000000000000000000000000000000000000000000000000000000000000000000000000000000000000000000000000000000000000000000000000000000000000000000000000000000000000000000000000000000000000000000000000000000000000000000000000000000000000000000000000000000000000000000000000000000000000000000000000000000000000002300000000000000000000000000000000000000000000000000000000000000000000000000000000000000000000000000000000000000000000000000000000000000000000000000000000000000000000000000000000000000000000000000000000000000000000000000000000000000000000000000000000000000000000000000000000000000000000000000000000000000000000000000000000000000000000000000000000000000000000000000000000000000000000000000000000000000000000000000000000000000000000000000000000000000000000000000000000000000000000000000000000000000000000000000000000000000000000000000000000000000000000000000000000000000000000000000000000000000000000000000000000000000000000000000000000000000000000000000000000000000000000000000000000000000000000000000000000000000000000000000000000000000000000000000000000000000000000000000000000000000000000000000000000000000000000000000000000000000000000000000000000000000000000000000000000000000000000000000000000000000000000000000000000000000000000000000000000000000000000000000000000000000000000000000000000000000000000000000000000000000000000000000000000000000000000000000000000000000000000000000000000000000000000000000000000000000000000000000000000000000000000000000000000000000000000000000000000000000000000000000000000000000000000000000000000000000000000000000000000000000000000000000000000000000000000000000000000000000000000000000000000000000000000000000000000000000000000000000000000000000000000000000000000000000000000000000000000000000000000
#04952:00335333
#0495b:00006343
#04657:00130000
#04652:00000013
#04857:00130000
#04856:00000013
#06352:0034000000005300
#06357:24
#06355:00240000
#0635a:0064000000000000
#0635b:0063
#0355c:0000000000000012
#03552:0000000000000012
#03558:0052
#03556:00230000000000000000006200000000
#0355b:002300000000000000000000
#03457:530023
#03452:0000002300000053
#03459:0000000000000053
#0345b:0023000063000000
#03455:00630000
#0335b:63
#03356:0000006300000000
#03352:0023
#01452:5600002600000000
#01458:0026660000256500
#01453:0000000055000025
#01554:5400002400000000
#01558:0024640000230000
#01555:0053
#01858:6600002464000023
#01852:0026000000000000
#01853:00550000
#01855:0000000000235300
#01952:0000000000260000
#01958:6300002465000000
#01955:0023000000000000
#01954:00540000
#02356:00006454
#01252:54
#01256:0024000000240000
#0125a:0064
#03052:00003300005300000000000000000000
#03056:0023000000000000000000000000000000000000000000000000000000000000
#03057:0000000000000000000000000000000000230000000000000000000000000000
#0305b:00000000000000630000430000000000
#0295b:00000000000000000000000000630000
#02952:00000000000000000000000000000053
#0315b:00000043
#03152:00000033
#0365b:0000000000000063
#03757:23
#03756:0000006300000000
#03856:0000002300000000
#03852:00530000
#07958:00000000004400000000000000000000
#07952:0034
#07956:0034000000000000
#0685b:00130013
#06852:0000000000000053
#0695b:0000136300001300
#06957:00230000000000000000000000000000
#0725b:0000130000001363
#07252:0053
#07256:0000000000230000
#0735b:00130013
#07357:23
#07356:0000006300000000
#07352:0023
#07052:00130013
#0705b:0000000000000063
#07152:00135313
#07156:00230000000000000000000000000000
#07452:00130013
#07457:00530000
#0745b:0000002300000000
#07555:0013000000000013
#07552:00000000001300000000000000000000
#0755b:6313
#07553:0000000000130000
#07559:00000013
#07752:5313
#07756:0023000000000000
#0775b:1363
#07757:0000000000230000
#02556:23230000
#02557:0053005300000000
#0255b:00230000
#02552:0053005300000000
#07856:63
#07852:0023000000130000
#07858:00530000
#0785b:0000002300000000
#02652:0000000000000033
#0265b:0000000000000063
#0275b:0043000000000000
#02757:23
#02752:0053000000000000
#02756:00230000
#0285b:63
#02852:00000000000000000000000000000053
#0645b:63
#06457:0000002300000000000000005300000000000000000000000000000000000000
#06456:00630000
#00452:000000000000000000000000000000000000000000000000000000000000000023000000000000000000000000000000000000000000000000000000000000000000000000000000000000000000000000000000000000000000000000000000000000000000000000000000000000000000000000000000000000000000000000000000000000000000000000000000000000000000000000000000000000230000000000000000000000000000000000000000000000000000000000000000
#00457:00656400
#00456:0000000000640000
#00455:00000064
#00453:000000000000000000000000000000000000000000000000000000000000000000000000000000000000000000000000000000000000000000000000000000002300000000000000000000000000000000000000000000000000000000000000000000000000000000000000000000000000000000000000000000000000000000000000000000230000000000000000000000000000000000000000000000000000000000000000000000000000000000000000000000000000000000000000
#00454:00000000000000000000000000000000000000000000000000000000000000000000000000230000000000000000000000000000000000000000000000000000
#00152:000000000000005c
#04456:00130000
#0445b:00000013
#04557:0000000000230000
#04552:00005333
#0455b:0000430000230000
#04556:00005333
#001320:000000000000001c
#0033c0:22
#003320:0000000000000016
#004320:000000000000000000000000000000000000000000000000000000000000000053000000000000000000000000000000000000000000000000000000000000000000000000000000000000000000000000000000000000000000000000000000000000000000000000000000000000000000000000000000000000000000000000000000000000000000000000000000000000000000000000000000000000530000000000000000000000000000000000000000000000000000000000000000
#004370:00555400
#004330:000000000000000000000000000000000000000000000000000000000000000000000000000000000000000000000000000000000000000000000000000000005300000000000000000000000000000000000000000000000000000000000000000000000000000000000000000000000000000000000000000000000000000000000000000000530000000000000000000000000000000000000000000000000000000000000000000000000000000000000000000000000000000000000000
#004340:00000000000000000000000000000000000000000000000000000000000000000000000000530000000000000000000000000000000000000000000000000000
#004360:0000000000540000
#004350:00000054
#005360:23
#005320:00000013000023000000000000000000
#005360:0000000000000000005300000000000000000000000000000000000000000000
#006320:13230000
#006360:0053000000000000
#0083b0:13230000
#008370:0053000000000000
#010320:13230000
#010360:0053000000000000
#010371:00130000
#0103b1:00000000000000230000000000000000
#010360:00000000000000130000000000000000
#010320:0000000000230000
#010371:0000000000130000
#0103b1:00000000000000000000005323000000
#0113b1:13230000
#011371:0053000000000000
#011360:00130000
#011320:00000000000000230000000000000000
#011371:00000000000000130000000000000000
#0113b1:0000000000230000
#011360:0000000000130000
#011320:00000000000000000000005323000000
#012320:14240000
#012360:0054000000000000
#0123a0:00001424
#012360:0000000000540000
#014320:16260000
#014380:0056000000000000
#014381:00162600
#014321:0000005600000000
#014330:00001525
#014380:0000000000550000
#014381:00000015
#014331:0000000000000055
#015381:25
#015340:14240000
#015380:0054000000000000
#015381:00142400
#015341:0000005400000000
#015350:00001323
#015380:0000000000530000
#018380:16250000
#018320:0056000000000000
#018331:00150000
#018381:0000005400000000
#018341:0024
#018380:00001423
#018350:0000000000530000
#018351:00000013
#018381:0000000000000053
#019351:23
#019380:13240000
#019350:0053000000000000
#019341:00140000
#019381:0000005400000000
#019331:0025
#019380:00001526
#019320:0000000000560000
#023360:0014
#023350:0000000000000000000000000000000000340000000000000000000000000000
#023340:00000000000000000034000000000000
#023330:0000000000000000000000000000000000000034000000000000000000000000
#023320:0000000000000000000000000000000000000000343434342400000000000000
#023361:00000014
#023371:0000000000000000000000000000000000000000000000000034000000000000
#023381:00000000000000000000000000340000
#023391:0000000000000000000000000000000000000000000000000000003400000000
#0233a1:0000000000000000000000000000000000000000000000000000000034343434
#0243a1:24
#024320:14260000
#024380:0054000000000000
#024320:0000000000000013
#025360:5300530000230000
#025320:0053005300000000
#025371:0013005300000000
#0253b1:0000530000230000
#0263b1:0000000000000013
#027371:53
#0273b1:0023000000000000
#027320:0013002300000000
#027360:00530000
#027370:0013
#0273b0:0000000000230000
#027360:00000013
#027320:0000000000000023
#0283b0:13
#028370:00530023000000000000000000000000
#028320:00000000000000000000000000000013
#029360:5323000000000000
#0293b0:00000000000000000000000000130000
#029370:00000000000000000000000000000023
#029321:00000000000000000000000000000013
#030361:0053000000000000000000000000000000000000000000000000000000000000
#030321:0023000000000000
#030321:00000000001300000000000000000000
#030361:00000000000000230000000000000000
#0303b0:00000000000000130000230000000000
#030370:0000000000000000000000000000000000530000000000000000000000000000
#0313b0:0013
#031320:00000023
#031321:0013
#0313b1:00000023
#0323b1:13230000
#032371:0053000000000000
#032321:00001323
#032361:0000000000530000
#032361:0000000000000013
#033321:00230000
#0333b0:13
#033360:00230000
#033360:0000001300230000
#033320:0053
#034370:13
#0343b0:0053000000000000
#034380:00230000
#034351:00130000
#034321:0000005300000000
#034361:0023
#0343b0:0013
#034370:000053
#034390:0000000000000053
#0353b0:005300000000000000000000
#035370:00230000
#034321:0000000000000013
#035361:00530000000000000000000000000000
#035321:00230000
#035361:0000001222000000
#035380:0012
#0353c0:0000000000000022
#035361:00000000000000000000001200000000
#035321:0000000000000022
#0363b1:0000000000000013
#037371:53
#0373b1:0023000000000000
#037361:0000001300000000
#037321:0000000000230000
#0373b1:0000000000001323
#038321:1323000000000000
#038321:00132300
#038361:0000005300000000
#039371:13
#0393a1:0000000000000000005400003400000034000000000000002400000000000000
#039361:0000000000540000
#040321:14
#041361:54
#042321:34
#043361:24
#0403b0:00132300
#0403b0:00000013
#0413b0:23
#0413b0:00132300
#0413b0:00000013
#0423b0:23
#0423b0:00132300
#0423b0:00000013
#0433b0:23
#0443b0:13332300
#044360:0033003300000000
#044371:00001333
#044321:0000000000330033
#045371:23
#0453b0:13230000
#045360:0033000000000000
#045321:00133323
#045371:0000003300530000
#045360:00001323
#0453b0:0000000000530000
#046320:13332300
#046370:0033003300000000
#046361:00001333
#0463b1:0000000000330033
#047361:23
#047320:13230000
#047370:0033000000000000
#0473b1:00133323
#047361:0000003300530000
#047370:00001323
#047320:0000000000530000
#048320:13332300
#048370:0033003300000000
#0483b1:00001333
#048361:0000000000330033
#0493b1:23
#049320:13230000
#049370:0033000000000000
#0493b1:00133323
#049361:0000003300000000
#049371:0000000000530000
#049320:00001323
#049360:000000000000000000000000000000000000000000000000000000000000000000000000000000000000000000000000000000000000000000000000000000000000000000000000000000000000000000000000000000000000000000000000000000000000000000000000000000000000000000000000000000000000000000000000000000000000000000000000000000000000000000000000000000000000000000000000000000000000000000000000000000000000000000000000000000000000000000000000000000000000000000000000000000000000000000000000000000000000000000000000000000000000000000000000000000000000000000000000000000000000000000000000000000000000000000000000000000000000000000000000000000000000000000000000000000000000000000000000000000000000000000000000000000000000000000000000000000000000000000000000000000000000000000000000000000000000000000000000000000000000000000000000000000000000000000000000000000000000000000000000000000000000000000000000000000000000000000000000000000000000000000000000000000000000000000000000000000000000000000000000000000000000000000000000000000000000000000000000000000000000000000000000000000000000000000000000000000000000000000000000000000000000000000000000000000000000000000000000000000000000000000000000000000000000000000000000000000000000000000000000000000000000000000000000000000000000000000000000000000000000000000000000000000000000000000000000000000000000000000000000000000000000000000000000000000000000000000000000000000000000000000000000000000000000000000000000000000000000000000000000000000000000000000000000000000000000000000000000000000000000000000000000000000000000000000000000000000000000000000000000000000000000000000000000000000000000000000000000000000000000000000000000000000000000000000000000000000000000000000000000000000000000000000000000000000000000000000000000000000000000000000000000000000000000000000000000000000000000000000000000000000000000000000000000000000000000000000000000000000000000000000000000000000000000000000000000000000000000000000000000000000000000000000000000000000000000000000000000000000000000000000000000000000000000000000000000000000000000000000000000000000000000000000000000000000000000000000000000000000000000000000000000000000000000000000000000000000000000000000000000000000000000000000000000000000000000000000000000000000000000000000000000000000000000000000000000000000000000000000000000000000000000000000000000000000000000000000000000000000000000000000000000000000000000000000000000000000000000000000000000005300000000000000000000000000000000000000000000000000000000000000000000000000000000000000000000000000000000000000000000000000000000000000000000000000000000000000000000000000000000000000000000000000000000000000000000000000000000000000000000000000000000000000000000000000000000000000000000000000000000000000000000000000000000000000000000000000000000000000000000000000000000000000000000000000000000000000000000000000000000000000000000000000000000000000000000000000000000000000000000000000000000000000000000000000000000000000000000000000000000000000000000000000000000000000000000000000000000000000000000000000000000000000000000000000000000000000000000000000000000000000000000000000000000000000000000000000000000000000000000000000000000000000000000000000000000000000000000000000000000000000000000000000000000000000000000000000000000000000000000000000000000000000000000000000000000000000000000000000000000000000000000000000000000000000000000000000000000000000000000000000000000000000000000000000000000000000000000000000000000000000000000000000000000000000000000000000000000000000000000000000000000000000000000000000000000000000000000000000000000000000000000000000000000000000000000000000000000000000000000000000000000000000000000000000000000000000000000000000000000000000000000000000000000000000000000000000000000000000000000000000000000000000000000000000000000000000000000000000000000000000000000000000000000000000000000000000000000000000000000
#050380:16
#0503a0:00240000
#050320:00001624
#053340:0012000000000000
#053360:0000002200000000
#054340:12
#054320:0000000000000026
#054381:0000000000000013
#0553b1:53
#055381:0023000000000000
#055350:0013002300000000
#055320:00530000
#0563b0:00000000000000000000000000130000
#056370:00000000000000000000000000000023
#056321:00000000000000000000000000000013
#057361:0053000000000000000000000000000000000000000000000000000000000000
#057321:0023000000000000
#057321:00000000000000000000000000130033
#058361:0053000000000000000000000000000000000000000000000000000000000000
#058321:0023000000000000
#0583b1:00000000001300330000230000000000
#058371:0000000000000000000000000000000000530000000000000000000000000000
#0603b1:13
#060371:0053000000000000
#060381:00260000
#060320:13260000
#060360:000000000000000000000000000000000000000000000000000000000000000000000000000000000000000000000000000000000000000000000000000000000000000000000000000000000000000000000000000000000000000000000000000000000000000000000000000000000000000000000000000000000000000000000000000000000000000000000000000000000000000000000000000000000000000000000000000000000000000000000000000000000000000000000000000000000000000000000000000000000000000000000000000000000000000000000000000000000000000000000053000000000000000000000000000000000000000000000000000000000000000000000000000000000000000000000000000000000000000000000000000000000000000000000000000000000000000000000000000000000000000000000000000000000000000000000000000000000000000000000000000000000000000000000000000000000000000000000000000000000000000000000000000000000000000000000000000000000000000000000000000000000000000000000000000000000000000000000000000000000000000000000000000000000000000000000000000000000000000000000000000000000000000000000000000000000000000000000000000000000000000000000000000000000000000000000000000000000000000000000000000000000000000000000000000000000000000000000000000000000000000000000000000000000000000000000000000000000000000000000000000000000000000000000000000000000000000000000000000000000000000000000000000000000000000000000000000000000000000000000000000000000000000000000000000000000000000000000000000000000000000000000000000000000000000000000000000000000000000000000000000000000000000000000000000000000000000000000000000000000000000000000000000000000000000000000000000000000000000000000000000000000000000000000000000000000000000000000000000000000000000000000000000000000000000000000000000000000000000000000000000000000000000000000000000000000000000000000000000000000000000000000000000000000000000000000000000000000000000000000000000000000000000000000000000000000000000000000000000000000000000000000000000000000000000000000000000000000000000000000000000000000000000000000000000000000000000000000000000000000000000000000000000000000000000000000000000000000000000000000000000000000000000000000000000000000000000000000000000000000000000000000000000000000000000000000000000000000000000000000000000000000000000000000000000000000000000000000000000000000000000000000000000000000000000000000000000000000000000000000000000000000000000000000000000000000000000000000000000000000000000000000000000000000000000000000000000000000000000000000000000000000000000000000000000000000000000000000000000000000000000000000000000000000000000000000000000000000000000000000000000000000000000000000000000000000000000000000000000000000000000000000000000000000000000000000000000000000000000000000000000000000000000000000000000000000000000000000000000000000000000000000000000000000000000000000000000000000000000000000000000000000000000000000000000000000000000000000000000000000000000000000000000000000000000000000000000000000000000000000000000000000000000000000000000000000000000000000000000000000000000000000000000000000000000000000000000000000000000000000000000000000000000000000000000000000000000000000000000000000000000000000000000000000000000000000000000000000000000000000000000000000000000000000000000000000000000000000000000000000000000000000000000000000000000000000000000000000000000000000000000000000000000000000000000000000000000000000000000000000000000000000000000000000000000000000000000000000000000000000000000000000000000000000000000000000000000000000000000000000000000000000000000000000000000000000000000000000000000000000000000000000000000000000000000000000000000000000000000000000000000000000000000000000000000000000000000000000000000000000000000000000000000000000000000000000000000000000000000000000000000000000000000000000000000000000000000000000000000000000000000000000000000000000000000000000000000000000000000000000000000000000000000000000000000000000000000000000000000000000000
#062320:0000000000000014
#063370:54
#063320:0024000000000000
#0633a1:0014002400000000
#063351:00540000
#0633b1:0013
#063371:0000000000230000
#063321:00000013
#063361:0000000000000023
#0643b1:13000023000000000000000000000000
#064371:0000005300000000000000000000000000000000000000000000000000000000
#064361:00130000
#064321:0000002300000000
#064370:0000001300000000
#0643b0:0023
#067350:0013
#067360:0000000000520000
#067320:00000024
#067381:0000000013520000
#0673a1:00000024
#068321:0000000000000013
#069371:00530000000000000000000000000000
#069321:00230000
#0693b1:0000001300000000
#069361:0000000000230000
#0703b1:0000000000000013
#071361:00530000000000000000000000000000
#0713b1:00230000
#071321:0013
#071361:00000000000000000000002300000000
#072321:00001323
#072361:0000000000530000
#0723b1:0000000000000013
#073371:53
#0733b1:0023000000000000
#073361:0000001300230000
#073321:0053
#074371:00132300
#0743b1:0000005300000000
#0753b1:13
#075371:00000000002300000000000000000000
#076321:13230000
#076361:0053000000000000
#0763b1:00001323
#076371:0000000000530000
#077321:13230000
#077361:0053000000000000
#0773b1:00001323
#077371:0000000000530000
#078361:13
#078321:0053000000000000
#078351:00230000
#078380:00130000
#0783b0:0000005300000000
#078370:0023
