This file was generated by Ched 2.6.4.0.
#TITLE ""
#ARTIST ""
#DESIGNER ""
#DIFFICULTY 0
#PLAYLEVEL
#SONGID ""
#WAVE ""
#WAVEOFFSET 0
#JACKET ""
#REQUEST "ticks_per_beat 480"
#00002: 4
#BPM01: 124
#00008: 01
#TIL00: ""
#HISPEED 00
#MEASUREHS 00
#02012:14
#02016:0014
#04318:00001414
#04314:0000000000140000
#04215:14
#00114:14
#0051a:14
#00512:0014
#00714:14
#00718:0014
#00918:14
#00914:0014
#0121a:14
#01214:14
#01218:0014
#01212:0014
#0211a:14
#02112:0014
#02418:2614
#02414:00000014
#02412:00260000
#02410:41
#02614:14
#02618:00140000
#02612:0014
#02616:00000014
#02714:00000014
#0271a:14
#02718:00140000
#02814:00000014
#02914:00000014
#03018:14
#03013:00140000
#03019:0014
#03012:00000014
#03214:1414
#0321a:00140014
#03312:1414
#03318:00140014
#03414:14
#0341a:00140000
#03412:0014
#03418:00000014
#03618:1414
#03612:00140014
#03610:41
#0371a:1414
#03714:00140014
#03818:14
#03812:00140000
#0381a:0014
#03814:00000014
#05512:0014
#05516:00000014
#06014:0014
#06018:00260014
#06012:26
#0601f:00210000
#06218:14
#06214:00140000
#0621a:0014
#06216:00000014
#06318:00000014
#06312:14
#06314:00140000
#06418:00000014
#06414:14
#06412:00140000
#06516:00240014
#06512:24
#0651a:0024
#06612:14
#06618:00140000
#06614:0014
#0661a:00000014
#06818:14
#06814:00140000
#0681a:0014
#06812:00000014
#0701a:14
#07012:00140000
#07018:0014
#07014:00000014
#07010:41
#07218:14
#07214:00140000
#0721a:0014
#07212:00000014
#07318:14
#07314:00140000
#0731a:0014
#07312:00000014
#0751a:14
#07512:00140000
#07518:0014
#07514:00000014
#06712:14000024
#06715:00140000
#06114:14
#06112:00140000
#06110:41
#05918:14000024
#0591a:00140000
#0311a:14000024
#03117:00140000
#02518:14
#0251a:00140000
#01412:14
#01414:0014
#01512:14
#0181a:14
#01818:0014
#0191a:14
#01618:14
#01714:14
#00312:0000000000000014
#00415:00000000001400000000000000000000
#0521f:11
#01318:2424
#01314:00240000
#04012:24
#0541a:0000000000000024
#07818:0000000000000034
#0781a:0000000000340000
#07819:00000034
#00610:41
#04410:41
#02452:00160000
#04255:64
#04052:54
#01358:0014
#0315a:64000014
#03157:00240000
#03554:0014
#03958:0014
#04554:0014
#04758:0014
#04952:0014
#0515a:0014
#0545a:0000000000000014
#05958:54000014
#0595a:00240000
#06058:00160000
#06752:54000014
#06755:00240000
#06352:54
#06354:00240000
#06454:64
#06452:00240000
#06154:64
#06152:00240000
#0275a:64
#02758:00240000
#02558:54
#0255a:00240000
#01452:54
#01454:0064
#01552:54
#0185a:64
#01858:0054
#0195a:64
#01658:54
#01754:64
#00352:0000000000000054
#00455:00000000002400000000000000000000
#0013a0:0000000014000054
#003380:24
#003320:0000000014000034
#004350:00000000005400000000000000000000
#004320:00000024
#0063a0:1424
#008320:1424
#0103a0:14
#010380:0024
#011320:14
#011340:0024
#014320:14
#014340:0034
#015320:34
#015340:0024
#016380:14
#0163a0:0024
#017340:14
#017320:0024
#0183a0:14
#018380:0034
#0193a0:34
#019380:0024
#0223a0:14
#022380:0024
#023320:14
#023340:0024
#025380:1424
#0253a0:00540000
#0273a0:1424
#027380:00540000
#028380:14
#0283a0:0024
#0293a0:14
#029380:0024
#0313a0:14003424
#031370:00540000
#035340:1424
#039380:1424
#040320:14
#042350:34
#043320:24
#044320:14
#044330:00340034
#044340:0034
#045320:34
#045330:00340000
#045340:0024
#0463a0:14
#046390:00340034
#046380:0034
#0473a0:34
#047390:00340000
#047380:0024
#048340:14
#048330:00340034
#048320:0034
#049340:34
#049330:00340000
#049320:0024
#050380:14
#050390:00340034
#0503a0:0034
#051380:34
#051390:00340000
#0513a0:0024
#052340:14
#052320:0034
#053340:24
#054380:14
#0543a0:0000000034000024
#0563a0:14
#056380:0024
#056340:00000014
#057320:0024
#057380:00000014
#0583a0:00340000
#058380:00000034
#059380:34003424
#0593a0:00540000
#061340:1424
#061320:00540000
#063320:1424
#063340:00540000
#064340:1424
#064320:00540000
#067320:14003424
#067350:00540000
#069380:14240000
#069340:00001424
#0713a0:14240000
#071320:00001424
#074380:14240000
#074340:00001424
#076380:14
#0763a0:00240000
#076340:0014
#076320:00000024
#0773a0:14
#077380:00240000
#077320:0014
#077340:00000024
#078380:1400000000000034
#0783a0:0000000034340000
#078390:00000034
#079380:00003400003400002400000000000000
