This file was generated by Ched 2.7.0.0.
#TITLE ""
#ARTIST ""
#DESIGNER ""
#DIFFICULTY 0
#PLAYLEVEL
#SONGID ""
#WAVE ""
#WAVEOFFSET 0
#JACKET ""
#REQUEST "ticks_per_beat 480"
#00002: 4
#BPM01: 160
#00008: 01
#TIL00: ""
#HISPEED 00
#MEASUREHS 00
#0001a:14
#00114:14
#00218:14
#00312:14
#0121a:14
#0131a:14
#01414:14
#01514:14
#02018:14
#02118:14
#02212:14
#02312:14
#0281a:14
#02810:41
#02914:14
#0301a:14
#03114:14
#03218:14
#03312:14
#03418:14
#03512:14
#03612:0016
#03618:26
#03610:41
#03718:16
#03712:0016
#04012:0016
#04018:26
#04118:16
#04112:0016
#04412:0016
#04418:26
#04518:16
#04512:0016
#04818:16
#04812:0016
#04918:16
#04912:0016
#06012:14
#0601f:11
#06118:14
#06214:14
#0631a:14
#06412:14
#06418:0014
#06514:14
#0651a:0014
#07018:0016
#07012:26
#0701f:21
#07112:16
#07118:0016
#07110:41
#07418:0016
#07412:26
#07512:16
#07518:0016
#07818:0016
#07812:26
#07912:16
#07918:0016
#08212:16
#08218:0016
#08312:16
#08318:0016
#0861a:14
#08610:41
#08714:14
#08818:14
#08912:14
#0901a:14
#09114:14
#09218:26
#09312:26
#09418:26
#09512:0026000000000000
#01610:41
#05210:41
#0043a0:14
#0053a0:24
#006340:14
#007340:24
#008380:14
#009380:24
#010320:14
#011320:24
#016380:14
#017380:24
#018320:14
#019320:24
#0243a0:14
#0253a0:24
#026340:14
#027340:24
#038380:1626
#039320:1626
#042380:1626
#043320:1626
#046380:1626
#047320:1626
#050380:16
#051380:26
#052320:14
#053320:24
#054380:14
#055380:24
#056340:14
#057340:24
#0583a0:14
#0593a0:24
#066320:14
#068320:24
#0663a1:14
#0683a1:24
#072321:1626
#073381:1626
#076321:1626
#077381:1626
#080321:1626
#081381:1626
#084321:16
#085321:26
#095321:00001600003600003600000000000000
#096321:26
