This file was generated by Ched 2.7.0.0.
#TITLE ""
#ARTIST ""
#DESIGNER ""
#DIFFICULTY 0
#PLAYLEVEL
#SONGID ""
#WAVE ""
#WAVEOFFSET 0
#JACKET ""
#REQUEST "ticks_per_beat 480"
#00002: 4
#BPM01: 160
#00008: 01
#TIL00: ""
#HISPEED 00
#MEASUREHS 00
#00012:13130000
#00018:0013001300000000
#00015:00001313
#0001b:0000000000130013
#00112:13130000
#00118:0013001300000000
#00115:00001313
#0011b:0000000000130013
#00212:13130000
#00218:0013001300000000
#00215:00001313
#0021b:0000000000130013
#00318:1414000000000000
#00314:0000141400000000
#00312:24000025
#00319:00002425
#0031a:00240000
#00313:0024
#00412:13000000000000130000000013000000
#00418:13000000000000130000000013001300
#0041b:00001300001300000000000000000000
#00415:00130000
#0051b:13000000000000130000000013000000
#00515:13000000001300130000000013001300
#00512:0013000000000000
#00518:00130000
#00612:13000000000000130000000013000000
#00618:13000000000000130000000013000000
#0061b:00001300001300000000000000001300
#00615:00130000
#00712:1300001300000000
#0071b:00000013000000000000130000000000
#00715:00000013000000000000000013001300
#00718:13000000000013000000000000130013
#01015:13230000000000000000000000000000
#01018:00000013230000000014240000002600
#01014:00000000000014240000000000000000
#01012:00000026
#01118:1400001400000000
#01114:00000014000000343434343434343434
#01112:2400001400000000
#0111a:00000024000000343434343434343434
#0121b:0013130000001300
#01212:0000131313000013
#01218:0000000013130000
#01215:00000013
#01315:13000013
#01318:1300000000130013
#01312:0013000000130000
#01316:0000001300000000
#0131b:0033000000000000
#01412:13131300
#01416:0013000000000000
#0141b:13131313
#01417:0000001300000000
#01414:0000000000000013
#01419:0000000000000013
#01517:13
#0151b:0013001300000023
#01512:1333000000232300
#01518:0000000000232300
#01515:0000000000000023
#01615:2313000013130000
#01612:0000131300001313
#01618:0013
#0161b:23
#01610:41
#01715:1313000013230000
#01712:0000131300001323
#0171b:1300000000230000
#01718:0000000000000023
#01912:1300000000130000
#01915:0000000000001313
#01918:13001300000000001300000000130013
#0191b:0000131300130000
#02012:1313000013000013
#02015:0000131300000000
#02014:0000000000130000
#02016:00000013
#0201b:13130013
#0211b:00130013
#02118:0000000000130000
#02112:0013000000130000
#02115:00000013
#02116:13
#02718:00000000000000000013001300000000
#02712:0000131300001313
#0271b:13000000000000000000000000130013
#02715:1313000013130000
#0281b:0013000000130000
#02818:0000001300000013
#02810:41
#0291b:0013000000130013
#02915:1333330000130013
#02912:00000013
#02918:00000013
#02919:00130000
#02917:0000001300000000
#03015:0000131300000000
#03018:1300000000130000
#03012:13
#0301b:0000001300000013
#03016:0000000000000013
#03112:0013130023130000
#03118:00000000000000000013000000000000
#03115:00000000000000000000000000130013
#0311b:0000000000002313
#03212:0013000000130000
#03215:0000001300000013
#03312:0013000000000000
#03314:00130000
#03316:0000001300000000
#03318:1300000000130014
#03315:00000013
#03319:0033000000000000
#0331a:00330000
#03412:1400140000240024
#03418:00140000
#0341a:0000001400240024
#03414:0000001400000000
#03416:00000014
#03515:0000000000130000
#03516:0013000000000000
#03517:0000001300000000
#0351a:0024000000001400
#03512:0000002400002400
#03518:0000000000230000
#03612:1300130000130000
#03616:0013001300000013
#0361b:23230000
#03610:41
#03712:1300000000230013
#0371b:0000231300000013
#03717:1300000000230000
#03716:0000231300000000
#0391b:13
#03912:0000131300000000
#03916:13
#03915:0000000000230000
#03918:0000000000230000
#0401b:1300130000000013
#04017:0013001300130000
#04012:00230000
#04117:1300000000230000
#04116:0000231300000000
#04112:1300000000230013
#0411b:0000231300000013
#04415:00130013000000000000000000000000
#0441b:2313000000000000
#04412:00000000001300130000000000001300
#04418:0000231300000000
#04416:0000000000130000
#0451b:1300000000230000
#04512:0000231300000013
#04518:0000000000000013
#04517:0000231300000000
#04516:1300000000230000
#0481b:00231300
#04817:13000023
#04816:00231300
#04812:13000023
#04917:1313
#04919:0013000000000000
#04916:0000130000130000
#04914:0000001300000000
#0491b:0000230000130000
#04912:2323
#04915:0000000000002323
#04918:00000000000000000000000000230000
#0501a:14241400
#05012:24142400
#05016:0014001400140000
#05015:0000000000002323
#05018:00000000000000000000000000230023
#05212:13000000000000130000000013000000
#05217:13000000000000130000000013000000
#0521b:00001300001300000000000000000000
#05216:0000130000130000
#05219:0000000000000013
#05210:41
#0531b:1300000000130000
#05316:13
#05312:00001300000000130000000013000000
#05318:00130000
#05315:00000000001300000000000000000000
#05314:0000000000000013
#05317:00000000000000130000000013000000
#05319:0000000000000013
#05416:1300000000130000
#0541b:13000000001300000000000000001300
#05418:0013000000000000
#05415:00130000
#05417:00000000000000130000000013000000
#05412:00000000000000130000000013000000
#05512:13000025
#05519:00000013000000000000000025000000
#05514:00000013000000000000000000000000
#0551b:0000001300000000
#05516:0000001300000000
#05517:1300000000130000
#05612:13000000000000130000000013000000
#05618:13000000000000130000000013000000
#0561b:00001300001300000000000000000000
#05615:0000130000130000
#0561a:0000000000000013
#0571b:1300000000131300
#05715:13000000001300000000000000000000
#05712:00001300000000130000000000000000
#05718:00130000
#05716:00000013
#05714:0000000000000013
#05717:00000000000000130000000000000000
#05812:13000000000000130000000013000000
#05817:13000000000000130000000013000000
#0581b:00001300001300000000000000001300
#05815:00130000
#05816:0000000000130000
#05912:13
#05919:00000013000000000000000000000000
#05914:00000013000000000000000000000000
#0591b:0000001300000000
#05916:0000001300000000
#05917:1300000000130000
#05915:0000000000001313
#05918:00000000000000000000000000130013
#0621b:13131313
#06218:0000001300000013
#06216:0000000000130000
#06212:24242424
#07012:1300130000130000
#07016:0013001300001313
#0701b:23230000
#0701f:21
#07112:1300000000230000
#0711b:0000231300000013
#07115:0000000000000013
#07117:1300000000230000
#07116:0000231300000000
#07110:41
#0721b:0013001323000000
#07215:0013001300002300
#07212:1300230000130013
#07218:2300000000130013
#07312:0000131300000000
#07315:0000000000230000
#07318:2300000000230000
#0741b:1300130000001313
#07417:0013001300130000
#07412:2300232300000000
#07517:0000231300000013
#07512:0000231300000013
#0751b:1300000000230000
#07516:1300000000230000
#07815:00130013000000000000000000000000
#0781b:2313000000000000
#07812:00000000001300130000000013001300
#07818:0000231300000000
#07816:0000000000130000
#0791b:1300000000230013
#07912:0000231300000013
#07916:1300000000230000
#07917:0000231300000000
#08114:13
#08119:13
#08112:0023000000230000
#0811b:0023000000230000
#08218:0014000024000013
#08212:0014000024001400
#0821a:14140014
#08214:14140000
#0831a:14241400
#08315:00001300000000000000130000230000
#08312:24142400
#08318:0000001300002323
#08414:0013001300130000
#08419:0013001300130000
#0841b:13000000000000001300000000230000
#08412:26132623
#08418:00000000260000000000000000000023
#08415:0000000000000023
#03819:0013000000130000
#03812:13001323
#03814:0000001300000013
#03817:23000013
#0381b:00132300
#03816:00230000
#04615:1300000000130023
#04612:0013002313000000
#0461b:1300130000230013
#04618:0023001300001300
#04715:0013000013000000
#04712:1300001300230000
#04718:0013000013000000
#0471b:0000001300230000
#08812:0000000000000013
#08817:0000000000000013
#0891a:24000000000000000000140000000024
#08912:0000142400002400
#08916:1400001400000000
#08918:00000000000000000000000000240000
#08914:0000000000000024
#09012:13000000000000130000000013000000
#0901b:00001300001300000000000000000000
#09016:0000130000130000
#09017:00000000000000130000000013000000
#09019:0000000000000013
#0911b:1300000000130013
#09116:1300000000000013
#09112:00001300000000130000000013000000
#09118:00130000
#09115:00000000001300000000000000000000
#09117:00000000000000130000000013000000
#09215:13230000000000000000000000000000
#09218:00000013230000000014240000000000
#09214:00000000000014240000000000000000
#09213:0000000000002525
#09318:13230000000014240000000025002500
#09315:00000013230000000000000000000000
#09314:00000000000000000014240000000000
#09415:13230000000000000000000000000000
#09418:00000013230000000014240000002600
#09414:00000000000014240000000000000000
#09412:00000026
#00815:13000000000000130000000013001300
#00812:00001300001300000000000000000000
#00818:00130000
#0081b:00000000000000130000000013000000
#00912:13000000000000130000000013000000
#00918:13000000001300130000000013001300
#0091b:0013000000000000
#00915:00130000
#01815:0013
#01818:2313000013130000
#0181b:0000131300001313
#01812:23
#0221b:1313000013000013
#02218:0000131300000000
#02219:0000000000130000
#02217:00000013
#02212:13130013
#02312:0000130000000023
#0231b:0013000000232300
#02317:13
#02315:0000000000232300
#02318:0000000000000023
#02415:0013
#02418:2313000013130000
#0241b:0000131300001313
#02412:23
#02512:1300000000230000
#02518:1313000013230000
#0251b:0000131300001323
#02515:0000000000000023
#02618:0013
#02615:2313000013130000
#02612:0000131300001313
#0261b:23
#04214:0013000000130000
#0421b:13001323
#04219:0000001300000013
#04216:23000013
#04212:00132300
#04217:00230000
#04312:1300130000230000
#04317:1300130000230000
#04316:0013000000000000
#0431b:0013000000000000
#06312:13131313
#06315:0000001300000013
#06317:0000000000130000
#0631a:24242424
#07612:0013001323000000
#07618:0013001300002300
#0761b:1300230000130013
#07615:2300000000130013
#07715:13
#07712:0023000000000000
#0771b:0023000000230000
#07716:0000000000230000
#0801b:0013002300130023
#08015:13130013
#08012:0023001300230023
#08018:1313
#0601f:11
#0601a:00242400
#06012:24000024
#05112:24000025
#05119:00000025
#0611a:2424
#06114:2424
#06118:00240000
#06112:00240000
#0641a:2424
#06412:00230023
#06415:2323
#06612:2400000024240000
#0661a:0000240024240000
#06614:0000240000000024
#06618:2400000000000024
#06912:0000002c
#06916:00340000
#06915:0036
#08512:23000024
#0851a:00000024
#08616:24
#08610:41
#09512:0024000024000000
#09518:0024000024000000
#09514:00000000002400000034343434343434
#0951a:00000000002400000034343434343434
#06512:2424
#0651b:00230023
#06518:2323
#06713:0034000000000000
#06712:0000003434000000
#06719:0034000000000000
#0671a:0000003434000000
#00352:00000035
#00359:00000045
#00452:00000000000000630000000000000000
#00458:00000000000000630000000000000000
#00652:00000000000000630000000000000000
#00658:00000000000000630000000000000000
#00752:0000005300000000
#01058:0000000000000046
#01052:00000036
#01152:0000005400000000
#01158:0000005400000000
#01254:14
#0125a:14
#01358:53
#01356:0000001300000000
#0135b:0000001300000000
#01452:0053
#0205b:00130013
#0155b:0000001300000000
#01552:53
#01556:0000001300000000
#0215b:00130013
#02158:0000000000130000
#02152:0053000000000000
#02156:0000001300000000
#03058:5300000000130000
#03055:0000005300000000
#03052:0000000000130000
#0305b:0000000000000053
#03157:00130000
#03152:00130000
#03356:0000001300000000
#03358:5300000000630064
#0335b:0000001300000000
#03355:00000063
#03452:1400140000140014
#0345a:1400001400140014
#03552:0000003400003400
#0355a:0044000000004400
#0365b:13130000
#03652:63530000
#03656:0023002300000000
#03756:0000135300000000
#0375b:00130000
#03757:5300000000130000
#03752:0000000000130000
#0395b:53
#03955:0000000000630000
#03957:0000001300000000
#03952:0000001300000000
#0405b:53630000
#04057:0023002300000000
#04052:13130000
#0415b:0000135300000000
#04156:00130000
#04152:5300000000130000
#04157:0000000000130000
#04557:0000135300000000
#04552:00130000
#04556:5300000000130000
#0455b:0000000000130000
#04752:0000005300330000
#0475b:0000005300430000
#04755:0063000023000000
#04758:0053000023000000
#04856:00135300
#0485b:00130000
#04852:00000013
#04857:53000013
#05152:14000015
#05159:00000015
#0505a:1414
#05052:00140000
#05257:00000000000000630000000000000000
#05352:00000000000000530000000000000000
#05457:00000000000000630000000000000000
#05556:0000005300000000
#05552:00000035
#05559:00000045
#05658:00000000000000630000000000000000
#05752:00000000000000530000000000000000
#05857:00000000000000630000000000000000
#05956:0000005300000000
#0615a:4454
#06154:4454
#06158:00340014
#06152:00340014
#06056:00140014
#0605a:00146400
#06052:54000014
#06452:00130013
#06456:00140014
#0645a:5454
#06752:00000014
#0675a:00000014
#06654:0000340000000064
#06658:4400000000000054
#06952:0000001c
#07052:63530000
#07056:0023002300000000
#0705b:13130000
#0725b:0023000053000000
#07255:0000002300005300
#07258:5300000000230000
#07252:0000530000000023
#0745b:53630000
#07457:0023002300000000
#07452:13
#07156:0000135300000000
#0715b:00130000
#07157:5300000000130000
#07152:0000000000130000
#07355:0000000000630000
#07358:5300000000530000
#0735b:0000001300000000
#07352:0000001300000000
#07957:0000135300000000
#07952:00130000
#07956:5300000000130000
#0795b:0000000000130000
#08152:0053000000330000
#0815b:0053000000430000
#08155:0000001300000000
#08158:0000001300000000
#08258:0014
#0825a:00540000
#08254:00540000
#08252:0014
#08552:13000014
#0855a:00000014
#04655:6300000000230000
#04652:0023000063000000
#0465b:0000530000000023
#04658:0000002300005300
#0835a:1414
#08352:00140000
#09057:00000000000000630000000000000000
#09152:00000000000000530000000000000000
#09654:14
#0965a:14
#09552:0054
#09558:0054
#09358:0000000000004545
#09253:0000000000003535
#09452:00000036
#09458:0000000000000046
#08956:0000140000140000
#08952:0000145400000000
#0895a:5400000000140000
#0055b:00000000000000530000000000000000
#00555:00000000000000530000000000000000
#0085b:00000000000000530000000000000000
#00855:00000000000000530000000000000000
#00952:00000000000000630000000000000000
#00958:00000000000000630000000000000000
#0165b:53
#01658:0053
#0175b:53
#01852:53
#01855:0053
#01952:53
#02252:00130013
#02352:00130000
#0235b:0063000000000000
#02357:0000001300000000
#02455:0063
#02452:63
#02552:63
#02658:0063
#0265b:63
#0275b:63
#02952:0000001300000000
#02955:53
#02957:0000001300000000
#04356:0053001300000000
#04352:0000230000530000
#0435b:0053001300000000
#04357:0000230000530000
#06552:6464
#0655b:00130013
#06556:00140014
#07556:6300000000130000
#07557:0000136300000000
#07552:00130000
#0755b:0000000000130000
#07652:0023000063000000
#07658:0000002300006300
#07655:6300000000230000
#0765b:0000630000000023
#0775b:0053000000530000
#07752:0053000000000000
#07758:0000001300000000
#07755:0000001300000000
#07756:0000000000530000
#0805b:0023000000230000
#08052:0000002300000000
#08058:5353
#08055:00530000
#004320:00000000000000130000000000000000
#004350:0000000000230000
#004381:00000000000000130000000000000000
#0043b1:0000000000230000
#0053b1:00000000000000130000000000000000
#005381:0000000000230000
#005350:00000000000000130000000000000000
#005320:0000000000230000
#006320:00000000000000130000000000000000
#006350:0000000000230000
#006381:00000000000000130000000000000000
#0063b1:0000000000230000
#007321:0000001300000000
#007351:0000000000230000
#0083b1:00000000000000130000000000000000
#008381:0000000000230000
#008350:00000000000000130000000000000000
#008320:0000000000230000
#009320:00000000000000130000000000000000
#009350:0000000000230000
#009381:00000000000000130000000000000000
#0093b1:0000000000230000
#011321:0000001400000000
#011341:00000000000000343434343434343434
#012341:24
#011380:0000001400000000
#0113a0:00000000000000343434343434343434
#0123a0:24
#013380:13
#0133b0:0033002300000000
#014320:0013
#014360:00000023
#015320:1333000000000000
#015360:0000002300000000
#0163b0:13
#016380:0033
#0173b0:33
#017380:0023
#018320:13
#018350:0033
#019320:33
#019350:0023
#021320:0013000000000000
#021360:0000002300000000
#0233b0:0013000000000000
#023370:0000002300000000
#024320:13
#024350:0033
#025320:33
#025350:0023
#0263b0:13
#026380:0033
#0273b0:33
#027380:0023
#028350:1323000000000000
#028320:0000132300000000
#028350:0000000013230000
#028320:0000000000001323
#029350:1333330000000000
#029320:0000002300000000
#030380:13
#0303b0:00230000
#030350:0000001300000000
#030320:0000000000230000
#0303b0:0000000000000013
#031370:0033230000000000
#032380:1323000000000000
#0323b0:0000132300000000
#032380:0000000013230000
#0323b0:0000000000001323
#033380:13
#033390:0033000000000000
#0333a0:00330000
#0333b0:0000002300000000
#033380:0000000000130000
#0333b0:00000023
#033351:00000013
#033321:0000000000000023
#033380:0000000000000014
#0343a0:24
#036320:13332300
#036360:0033003300000000
#036371:0000000013230000
#0363b1:0000000000001323
#037371:13
#0373b1:00230000
#037361:0000001300000000
#037321:0000000000230000
#0393b1:13
#039371:0000332300000000
#039351:0000000000130000
#040321:23
#0403b0:13332300
#040370:0033003300000000
#040321:0000000013230000
#040361:0000000000001323
#041321:13
#041361:00230000
#0413b1:0000001300000000
#041371:0000000000230000
#043361:0013002300000000
#043321:00530000
#0433b0:0013002300000000
#043370:00530000
#043320:0000000000130000
#043360:0000000000000023
#043371:0000000000130000
#0433b1:0000000000000023
#0443b1:0000000013230000
#044371:0000000000001323
#045361:13
#045321:00230000
#045371:0000001300000000
#0453b1:0000000000230000
#046351:13230000
#046321:0033000000000000
#0463b0:00132300
#046380:0000003300000000
#046321:00001323
#046351:0000000000330000
#046380:00000013
#0463b0:0000000000000033
#047380:23
#047350:0013000053000000
#047320:0000003300230000
#047381:0013000053000000
#0473b1:0000003300230000
#048371:13
#0483b1:00230000
#048361:0013
#048321:00000023
#052371:00000000000000130000000000000000
#0523b1:0000000000230000
#053321:00000000000000130000000000000000
#053361:0000000000230000
#054371:00000000000000130000000000000000
#0543b1:0000000000230000
#055361:0000001300000000
#055321:0000000000230000
#056381:00000000000000130000000000000000
#0563b1:0000000000230000
#057321:00000000000000130000000000000000
#057361:0000000000230000
#058371:00000000000000130000000000000000
#0583b1:0000000000230000
#059361:0000001300000000
#059321:0000000000230000
#060321:14
#060361:00240000
#0603a1:0014
#060361:00000024
#0613a1:0014
#061381:00000024
#061340:0014
#061320:00000024
#0643a0:14
#064360:00240000
#0643a0:0014
#064360:00000024
#065320:14
#065360:00240000
#065320:0014
#065360:00000024
#066340:0000000000000014
#067330:0034000000000000
#067320:0000003434002400
#066381:0000000000000014
#067391:0034000000000000
#0673a1:0000003434002400
#068371:12
#069371:32
#069361:00340000
#069351:0036
#069321:0000002c
#070321:13332300
#070361:0033003300000000
#070370:0000000013230000
#0703b0:0000000000001323
#071370:13
#0713b0:00230000
#071360:0000001300000000
#071320:0000000000230000
#072380:13230000
#0723b0:0033000000000000
#072321:00132300
#072351:0000003300000000
#0723b0:00001323
#072380:0000000000330000
#072351:00000013
#072321:0000000000000033
#073351:23
#073380:13
#0733b0:0000332300000000
#073350:0000000000130000
#073320:0000000000000023
#073381:0000000000130000
#0733b1:0000000000000023
#0743b1:13332300
#074371:0033003300000000
#074320:0000000013230000
#074360:0000000000001323
#075360:13
#075320:00230000
#075370:0000001300000000
#0753b0:0000000000230000
#076350:13230000
#076320:0033000000000000
#0763b1:00132300
#076381:0000003300000000
#076320:00001323
#076350:0000000000330000
#076381:00000013
#0763b1:0000000000000033
#077381:23
#077321:0013000000000000
#077351:0000002300000000
#0773b0:0013000000000000
#077380:0000002300000000
#077360:0000000000130000
#077320:0000000000000023
#0773b1:0000000000130000
#077371:0000000000000023
#0783b1:0000000013230000
#078371:0000000000001323
#079361:13
#079321:00230000
#079371:0000001300000000
#0793b1:0000000000230000
#080381:13230000
#0803b1:0033000000000000
#080350:00132300
#080320:0000003300000000
#080381:00001323
#0803b1:0000000000330000
#081321:0013000000000000
#081351:0000002300000000
#0813b0:0013000000000000
#081380:0000002300000000
#0823a0:00140000
#082380:0024
#082341:00140000
#082321:0024
#086361:14000000005454545454545454545454
#086351:0056005600560056005600560056000000000000000000000000000000000000
#086371:00525252520000000000000000000000
#086341:0000000000000000000000000000005800580058005800580058005800580058
#087361:54545454540000000000000000000000
#087341:0058005800580058005800580058005800000000000000000000000000000000
#087351:00000000005656565656565656565656
#087331:00000000000000000000000000000000005a005a005a005a005a005a005a005a
#088341:58
#088321:005c005c005c005c005c005c005c00002c000000000000000000000000000000
#088351:00565656565656560000000000000000
#0893a1:14
#089361:00240000
#089321:0000001400000000
#089361:0000000000240000
#090371:00000000000000130000000000000000
#0903b1:0000000000230000
#091321:00000000000000130000000000000000
#091361:0000000000230000
#095321:0014
#095341:00000000000000000034343434343434
#096341:24
#095380:0014
#0953a0:00000000000000000034343434343434
#0963a0:24
