This file was generated by Ched 2.7.0.0.
#TITLE ""
#ARTIST ""
#DESIGNER ""
#DIFFICULTY 0
#PLAYLEVEL
#SONGID ""
#WAVE ""
#WAVEOFFSET 0
#JACKET ""
#REQUEST "ticks_per_beat 480"
#00002: 4
#BPM01: 160
#00008: 01
#TIL00: ""
#HISPEED 00
#MEASUREHS 00
#00012:13130000
#00018:00001313
#00115:13130000
#0011b:00001313
#00212:13130000
#00218:00001313
#00318:0014001400000000
#00312:00002424
#0031a:00002424
#00314:24240000
#00415:1300130000000013
#0041b:0013000000000000
#00418:00000000001300000000000013000000
#00412:00000000000000130000000000000000
#0051b:13000000000000130000000000000000
#00512:0013000000000000
#00518:0000130000000013
#00515:00000000001300000000000013000000
#00716:00000014000000000000000000000000
#00712:0000001400000000
#0071a:14
#0071b:00000013
#00715:0000000000000013
#01018:13000013000014000014000026000000
#01015:00230000230000000000000000000000
#01014:00000000000000240000240000000000
#01012:0000000000000026
#01112:0000001400000000
#0111a:24
#01116:00000024000000000000000000000000
#01114:00000000000000343434343434343434
#01218:0013000000130000
#0121b:0000001300000013
#01215:0013
#01212:00130013
#01315:13000013
#01318:0000000000130013
#01312:0033000000000000
#01412:1313
#01418:0013000000000013
#01415:00130000
#0141b:0000001300000000
#01515:13000023
#0151b:0013000000000000
#01512:0000000000230000
#01518:0000000000000023
#0201b:1313
#02018:0013001300001300
#02015:0000130000130000
#02012:0000000000000013
#02118:0000000000130000
#02115:00000013
#02112:0013000000000000
#0211b:13
#02812:0013000000130000
#02815:0000001300000013
#0281b:1313
#02818:00130013
#02810:41
#02912:0000000000130000
#02918:00000013
#02915:0000000000000013
#0291b:1333330000000000
#03018:13
#03015:0000001300000013
#0301b:0000000000000013
#03412:1400140000240024
#03418:00140000
#0341a:0000001400240024
#03414:0000001400000000
#03513:0000000000130000
#03519:00000015
#0351a:0024000000230000
#03512:0000002400002500
#03612:13130000
#03615:0013001300001300
#0361b:0000000000000013
#03618:0000000000130000
#03610:41
#03712:1300000000000013
#0371b:0000001300000000
#03715:00230000
#03718:0000000000230000
#0391b:1300000000230000
#03912:0000000000230000
#0441b:0013000000000013
#04418:0000001300001300
#04412:00231300
#04415:2300000000130000
#04515:1300000000000013
#04518:0000001300000000
#04512:00230000
#0451b:0000000000230000
#0481b:00231300
#04812:13000023
#04818:13000023
#04815:00231300
#04918:0013000000000000
#0491b:0000001300130000
#04915:0000230000000013
#04912:2323
#05212:13000000000000130000000000000000
#0521b:0013000000001300
#05215:0000130000000013
#05218:00000000001300000000000000000000
#05210:41
#05318:13000000130000130000000000001300
#05312:0013000000001300
#05315:00000000001300000000000000000000
#05415:13000000130000130000000000001300
#0541b:0013000000000000
#05418:00000000001300000000000013000000
#0551a:14000024
#05516:00000014000000000000000000000000
#05512:0000001400002400
#0621b:1313
#06218:00130013
#06212:24242424
#07018:0000000000130000
#0701b:0000000000000013
#07015:00000013
#07012:2413
#0701a:00240000
#0701f:21
#07115:0000230000000013
#07112:13
#0711b:0000001300000000
#07118:0000000000230000
#07110:41
#07818:0013000000001300
#07812:0000001300000013
#0781b:2313
#07815:0000230000130000
#07912:0000001300000013
#0791b:1300000000000013
#07918:00230000
#07915:0000000000230000
#08112:1300000000240000
#0811a:0000000000240000
#0811b:0023000000000000
#08216:0000000000000014
#08218:14140000
#08214:0014000000000000
#08212:00000014
#0821a:0024
#08316:0014001400000000
#08312:0000240000140000
#0831a:2424
#08414:00001400000000000000140000240024
#08412:0000001400000000
#0841a:2424
#08418:0000240000002424
#03818:0013000000130000
#03815:2300001300002300
#03812:0000000000000013
#0381b:00232300
#04715:0013000000000000
#04718:13
#0471b:0000000000230000
#04712:0000000000230000
#0901b:13000000000000130000000000000000
#09015:00001300001300000000000000000000
#09018:0000130000000013
#09012:00000013
#09115:1300130000000013
#0911b:0013000000001300
#09118:00000000001300000000000000000000
#09112:00000000000000130000000000000000
#0921b:13
#09218:00000013000000000014000025002500
#0921a:0000001400000000
#09215:00230000000000000000000000000000
#09212:0000230000240000
#09214:00000000000000240000000000000000
#01618:0013
#0161b:23
#01610:41
#0171b:13
#01718:0000000000000023
#01715:0000000000230000
#01815:0013
#01812:23
#01912:13
#02415:0013
#02412:23
#02512:13
#02515:0000000000000023
#02518:0000000000230000
#02618:0013
#0261b:23
#0271b:13
#02715:0000000000000013
#00615:1300130000000013
#0061b:0013000000000000
#00618:00000000001300000000000013000000
#00612:00000000000000130000000000000000
#00818:1300130000000013
#00812:0013000000000000
#00815:00000000001300000000000013000000
#0081b:00000000000000130000000000000000
#00912:13000000000000130000000000000000
#0091b:0013000000000000
#00915:0000130000000013
#00918:00000000001300000000000013000000
#02212:1313
#02215:0013001300001300
#02218:0000130000130000
#0221b:0000000000000013
#0231b:0013000000230000
#02312:13
#02318:0000000000000023
#02315:00000023
#0321b:0013000000130000
#03218:0000001300000013
#03212:1313
#03215:00130013
#03312:1333330000000000
#0331b:0000000000130000
#03315:00000013
#03318:0000000000000013
#03118:0000000000000013
#0401b:13130000
#04018:0013001300001300
#04012:0000000000000013
#04015:0000000000130000
#0411b:1300000000000013
#04112:0000001300000000
#04118:00230000
#04115:0000000000230000
#04215:0013000000130000
#04218:2300001300002300
#0421b:0000000000000013
#04212:00232300
#04312:13
#04318:0013000000000000
#04315:0000000000230000
#0431b:0000000000230000
#04618:1313
#0461b:00130013
#04612:0023000000230000
#04615:0000002300000023
#0561b:13000000000000130000000000000000
#05612:0013000000001300
#05618:0000130000000013
#05615:00000000001300000000000000000000
#05715:13000000130000130000000000001300
#0571b:0013000000001300
#05718:00000000001300000000000000000000
#05818:13000000130000130000000000001300
#05812:0013000000000000
#05815:00000000001300000000000013000000
#05912:14000014
#05916:00000014000000000000000000000000
#0591a:0000001400001400
#06312:1313
#06315:00130013
#0631a:24242424
#07415:0000000000130000
#07412:2400000000000013
#07418:00240013
#0741b:0013
#07414:0000002400000000
#07518:0000230000000013
#0751b:13
#07512:0000001300000000
#07515:0000000000230000
#07715:1300000000230000
#0771b:0000000000230000
#07718:0023000000000000
#08812:0000000000000014
#09312:1300001400000000
#09315:00000013000000000000000000000000
#09314:00000000000000000014000000000000
#09318:00230000000000240000000000000000
#0931b:00230000
#0931a:0000000000240000
#09313:0000000000002525
#0941b:13
#09418:00000013000000000014000026000000
#0941a:0000001400000000
#09415:00230000000000000000000000000000
#09412:0000230000240026
#09414:00000000000000240000000000000000
#0601f:11
#0601a:0024
#06012:24
#05112:24000025
#05119:00000025
#0511a:24
#06112:2424
#0611a:00242400
#0641a:0024
#06412:24
#06612:2400000024240024
#0661a:0000240024240024
#06618:24
#06614:00240000
#06912:0000002c
#06916:00340000
#06915:0036
#08518:24
#08512:00000024
#08918:00000024
#08914:0000000000000024
#0891a:24
#08912:0000002400000000
#09518:0024000024000000
#09514:00000000002400000000000000000000
#0951a:00000000000000000034343434343434
#08018:2300000000000023
#08015:00230023
#0801b:0023
#0651a:0024
#06512:24
#0721b:23
#07215:00230000
#07218:0023
#07212:00000023
#07318:2300000000230000
#07312:0000000000230000
#07612:23
#07618:00230000
#07615:0023
#0761b:00000023
#0861a:24
#08610:41
#06719:0034000000000000
#06718:0000003434000000
#06713:0034000000000000
#06714:0000003434000000
#00452:00000000000000630000000000000000
#00752:0000005400000000
#01152:0000005400000000
#01254:14
#01355:63
#01352:0000001300000000
#01452:0053
#03058:53
#03055:0000005300000053
#03052:0000000000130000
#0305b:0000000000000053
#03152:00130000
#03158:00130000
#03452:1400000000140014
#0345a:0000000000140014
#03652:63530000
#03655:0023002300000000
#03755:00130000
#03758:0000000000130000
#03752:53
#0375b:0000005300000000
#0395b:53
#03958:0000001300000000
#04552:00130000
#0455b:0000000000130000
#04555:53
#04558:0000005300000000
#04855:00130000
#0485b:00130000
#04852:00000013
#04858:00000013
#05152:14000015
#05159:00000015
#0515a:14
#05252:00000000000000630000000000000000
#05358:00000000000000530000000000000000
#05455:00000000000000630000000000000000
#05552:0000005400001400
#0555a:00000014
#0615a:00145400
#06152:1454
#06158:00000014
#06154:00000014
#06056:00140014
#0605a:0064
#06052:54
#06456:00140014
#06452:64
#0645a:0054
#06758:00000014
#06754:00000014
#0665a:0000000000000064
#06652:0000000000000054
#06952:0000001c
#07052:14
#0705a:00140000
#07155:00130000
#07158:0000000000130000
#0715b:0000005300000000
#07152:53
#07452:14
#07958:00130000
#07955:0000000000130000
#0795b:53
#07952:0000005300000000
#0825a:0014
#08258:00540000
#08558:14
#08552:00000014
#08158:0000001300000000
#0815b:0053000000000000
#08152:0000000000140000
#0815a:0000000000140000
#04755:0063000000000000
#0475b:0000000000130000
#04752:0000000000130000
#0905b:00000000000000630000000000000000
#09152:00000000000000530000000000000000
#0965a:14
#09558:0054
#0355a:0044000000000000
#03552:0000003400001500
#03559:00000015
#02152:0063000000000000
#02155:0000001300000000
#08956:0000140000140000
#08952:0000005400000000
#0895a:54
#0055b:00000000000000530000000000000000
#0165b:53
#01658:0053
#0175b:53
#01852:53
#01855:0053
#01952:53
#02455:0063
#02452:63
#02552:63
#02658:0063
#0265b:63
#0275b:63
#02958:0000001300000000
#0295b:53
#0735b:0000001300000000
#07358:5300000000530000
#07352:0000000000530000
#0775b:0000001300530000
#07755:0000000000530000
#07758:0053000000000000
#00352:00000014
#0035a:00000014
#00652:00000000000000630000000000000000
#0085b:00000000000000530000000000000000
#00952:00000000000000630000000000000000
#01058:00000016
#01052:0000000000000016
#01558:0000001300000000
#0155b:0053000000000000
#0235b:0053000000000000
#02358:0000001300000000
#03352:63
#03355:0000001300000000
#0405b:53630000
#04058:0023002300000000
#0415b:63
#04152:0000006300000000
#04158:00130000
#04155:0000000000130000
#0435b:0000001300630000
#04358:0053000000000000
#04355:0000000000630000
#04955:0000000000000053
#0565b:00000000000000530000000000000000
#05755:00000000000000630000000000000000
#05858:00000000000000530000000000000000
#0595a:0000006400000000
#0655a:0054
#06552:64
#06556:00140014
#0755b:63
#07552:0000006300000000
#07558:00130000
#07555:0000000000130000
#08352:0000000000540000
#09458:00000016
#09452:0000000000000016
#004320:00000000000000130000000000000000
#004350:0000000000230000
#0053b0:00000000000000130000000000000000
#005380:0000000000230000
#006320:00000000000000130000000000000000
#006350:0000000000230000
#007320:0000001400000000
#007360:0000000000240000
#0083b0:00000000000000130000000000000000
#008380:0000000000230000
#009320:00000000000000130000000000000000
#009350:0000000000230000
#011320:0000001400000000
#011340:00000000000000343434343434343434
#012340:24
#013350:13
#013320:0033002300000000
#014320:0013
#014350:00000023
#0153b0:0013000000000000
#015380:0000002300000000
#0163b0:13
#016380:0033
#0173b0:33
#017380:0023
#018320:13
#018350:0033
#019320:33
#019350:00000023
#021320:0013000000000000
#021350:0000002300000000
#0233b0:0013000000000000
#023380:0000002300000000
#024320:13
#024350:0033
#025320:33
#025350:0023
#0263b0:13
#026380:0033
#0273b0:33
#027380:00000023
#0293b0:1333330000000000
#029380:0000002300000000
#030380:13
#0303b0:00230000
#030350:0000001300000000
#030320:0000000000230000
#030350:0000000000000013
#031320:0033230000000000
#0303b1:0000000000000013
#031381:0033230000000000
#033321:1333330000000000
#033351:0000002300000000
#036321:13332300
#036351:0033003300000000
#037321:13
#037351:00230000
#0373b1:0000001300000000
#037381:0000000000230000
#0393b1:13
#039381:0000332300000000
#0403b1:13332300
#040381:0033003300000000
#0413b1:13
#041381:00230000
#041321:0000001300000000
#041351:0000000000230000
#043381:0013000000000000
#0433b1:0000002300000000
#043351:0000000000130000
#043321:0000000000000023
#0433b0:0000000000130000
#043380:0000000000000023
#045350:13
#045320:00230000
#045380:0000001300000000
#0453b0:0000000000230000
#047350:0013000000000000
#047320:0000002300000000
#049350:0000000000000013
#050320:00000023
#052320:00000000000000130000000000000000
#052350:0000000000230000
#053380:00000000000000130000000000000000
#0533b0:0000000000230000
#054350:00000000000000130000000000000000
#054320:0000000000230000
#055320:0000001400000000
#055360:0000000000240000
#0563b0:00000000000000130000000000000000
#056380:0000000000230000
#057350:00000000000000130000000000000000
#057320:0000000000230000
#058380:00000000000000130000000000000000
#0583b0:0000000000230000
#0593a0:0000001400000000
#059360:0000000000240000
#060320:14
#060360:00240000
#0603a0:0014
#060360:00000024
#0613a0:0014
#061380:00000024
#061321:0014
#061341:00000024
#064321:14
#064361:00240000
#0643a1:0014
#064361:00000024
#065321:14
#065361:00240000
#0653a1:0014
#065361:00000024
#0663a1:0000000000000014
#067391:0034000000000000
#067381:0000003434002400
#066320:0000000000000014
#067330:0034000000000000
#067340:0000003434002400
#068370:12
#069370:32
#069360:00340000
#069350:0036
#069320:0000002c
#071320:13
#071350:00230000
#0713b0:0000001300000000
#071380:0000000000230000
#0723b0:13
#072380:0023000000000000
#072350:00130000
#072320:0000002300000000
#072380:0013
#0723b0:0000000000230000
#072320:00000013
#072350:0000000000000023
#073380:13
#0733b0:0000332300000000
#073320:0000000000130000
#073350:0000000000000023
#073381:0000000000130000
#0733b1:0000000000000023
#0753b1:13
#075381:00230000
#075321:0000001300000000
#075351:0000000000230000
#076321:13
#076351:0023000000000000
#076381:00130000
#0763b1:0000002300000000
#076351:0013
#076321:0000000000230000
#0763b1:00000013
#076381:0000000000000023
#077381:0013000000000000
#0773b1:0000002300000000
#077351:0000000000130000
#077321:0000000000000023
#0773b0:0000000000130000
#077380:0000000000000023
#0793b0:13
#079380:00230000
#079320:0000001300000000
#079350:0000000000230000
#080380:13
#0803b0:0023000000000000
#080350:00130000
#080320:0000002300000000
#0803b0:0013
#080380:0000000000230000
#0813b0:0013000000000000
#081380:0000002300000000
#082380:00140000
#0823a0:0024
#083320:0000000000140000
#083360:0000000000000024
#0863a0:1454545454545454
#086390:00540054005400540054005400540054
#0873a0:5454545454545454
#087390:00540054005400540054005400540054
#0883a0:5454545424000000
#088390:00540054005400540000000000000000
#0893a0:14
#089360:00240000
#089320:0000001400000000
#089360:0000000000240000
#0903b0:00000000000000130000000000000000
#090380:0000000000230000
#091320:00000000000000130000000000000000
#091350:0000000000230000
#095380:0014
#0953a0:00000000000000000034343434343434
#0963a0:24
