This file was generated by Ched 2.7.0.0.
#TITLE ""
#ARTIST ""
#DESIGNER ""
#DIFFICULTY 0
#PLAYLEVEL
#SONGID ""
#WAVE ""
#WAVEOFFSET 0
#JACKET ""
#REQUEST "ticks_per_beat 480"
#00002: 4
#BPM01: 160
#00008: 01
#TIL00: ""
#HISPEED 00
#MEASUREHS 00
#00316:1414141400000000
#00312:23230025
#00319:00002325
#0031b:0023002300000000
#00314:0023
#00412:13000000131300000000130000001300
#00418:13
#0041b:00001300000000130000000013000000
#00417:00000000001300000000000000001300
#00415:00001300000000130000000000000000
#00416:00000013
#0051b:13000000131300000000130000001300
#00515:13
#00512:00001300000000130000000013000000
#00516:00000000001300000000000000001300
#00518:00001300000000130000000000000000
#00517:00000013
#00612:13000000131300000000130000001300
#00618:13
#0061b:00001300000000130000000013000000
#00617:00000000001300000000000000001300
#00616:00000013
#00615:00001300000000130000000000000000
#00716:14001414001414000000000000000000
#00712:00000013000000000000130013000000
#0071b:1300001300001300
#00715:00000000000000000000000000130013
#00718:0000000000000013
#01016:00000013230014240014240000001300
#01017:13230000000000000000000013000000
#01012:00230000000000230000000024000000
#0101a:0000000000000024
#0101b:0000230000230000
#01118:14000000000000000013000000000000
#01114:00000014000000000000130000000000
#01112:2400001300000000
#01117:00000000000000130000000000000000
#01113:0013
#01119:00000000000000000000001300000000
#01115:00000013
#0111a:00000024000000000000000000130000
#01116:0000000000000013
#0111b:00000000000000000000000000000013
#0121b:1313130000130013
#01212:1300001300130013
#01215:0013000013000000
#01218:0000001300001300
#01312:1333000000000000
#0131b:0000001300130000
#01318:0013000000000000
#0131a:00130000
#01314:0013
#01319:0013
#01418:0013000013000000
#01412:0013001300130013
#0141b:1300001300000000
#01415:00130000
#01416:00000013
#01417:0000000000000013
#0151b:1300001300000023
#01516:13
#01512:0013000000232300
#01517:0013000000232323
#01519:00131300
#01514:0013
#0161b:2313
#01615:00001300000000130000000013000000
#01612:23000000131300000000000000001300
#01618:00130013
#01610:41
#0171b:1300000000230000
#01715:13000000131300000000000000000000
#01712:00001300000000130000000000002300
#01714:00000013
#01719:00000013
#01717:00000000000000130000000000002300
#02012:13131313
#02016:0013000000130000
#02017:0000001300000013
#0201b:13131313
#0211b:1300130000131300
#02112:0013000000131300
#02114:1300000013000013
#02119:0000000013000013
#0221b:1313
#02219:0013000000130000
#02217:00130013
#02214:0000001300000013
#02212:00130013
#02216:1313
#02312:0013130013000023
#02317:0013000000000000
#02316:1300000000232323
#02318:0013
#0231b:1300000000232300
#02812:0013000000130000
#0281b:0000001300000013
#02817:00130013
#02816:1313
#02810:41
#02919:0013000000000013
#0291b:0000131300001300
#02912:1300000013130000
#02916:00000013
#02914:0000330000000013
#02917:13000000000000000013000000000000
#02913:0033000000000000
#03016:0000131300000013
#03017:1300000000130000
#03012:13
#0301b:0000001300000013
#03014:0013000000001300
#03019:00001313
#03112:00001300130000000000000000130013
#03115:00000000000000000013001300000000
#0311b:0000000023130000
#03118:0000000000002313
#03113:13
#03114:0000001300000000
#03119:0000001300000000
#03216:1313000013130000
#03217:0000131300001313
#03314:0013000000000000
#03312:0000131300000000
#0331b:13
#03318:0000000013130014
#03315:00000000000000000013000013000000
#03316:13
#0331a:0033000000000000
#03319:00330000
#03416:1400242400000000
#03412:0000130000240024
#0341b:0000001300000000
#03419:00000013
#03414:00000013
#0341a:0000000000240024
#03514:0000000000130000
#03519:0000000000132500
#03516:0014001400000000
#0351b:0023000000000000
#03512:0000002300002500
#03612:13
#03617:0013000000130000
#03616:0000001300000013
#0361b:13130000
#03610:41
#03712:1300000000230000
#0371b:0000231300000013
#03716:0000231300000013
#03714:0013000000001300
#03719:00001313
#03717:1300000000230000
#03916:00130000
#03912:1300001300000000
#03914:0013000013000000
#03919:0013000013000000
#0391b:13130000
#03917:0000001300000000
#03915:0000000000230000
#03918:0000000000230000
#04415:00130013260013000000000000000000
#04418:2613000000000000
#04412:00000000001300130000000000000000
#04416:0000000000130000
#04417:0000000000000013
#0471b:0000130000231300
#04715:00000000000000000000000000130013
#04718:0000000000000013
#04719:0013001300000000
#04712:1300000013231300
#04717:0013
#04714:0013001300000000
#04716:00130000
#0481b:0000230013132300
#04814:0000000000000013
#04812:1313230000002300
#04819:0000000000000013
#0501b:13231323
#05012:23132323
#05016:0014001400140000
#05018:00000000000000000000000000230023
#05015:0000000000000023
#06212:13251325
#0621b:00130013
#06217:0000001300000013
#06216:0013000000130000
#06219:2525
#0631b:13001313
#06319:0013001300000000
#06317:0000130000130000
#06318:00000000000000000000000000130000
#06315:0000000000000013
#06312:24000000240000002400000024000013
#04616:1300000000130000
#04612:0013000013000000
#0461b:1300130000000013
#04617:0000001300001300
#04619:0023000000230000
#04614:0000002300000023
#00812:13000000131300000000130000001300
#0081b:00001300000000130000000013000000
#00817:00000000001300000000000000001300
#00815:00001300000000130000000000000000
#00816:00000013
#00818:13
#0091b:13000000131300000000130000001300
#00915:13
#00912:00001300000000130000000013000000
#00916:00000000001300000000000000001300
#00918:00001300000000130000000000000000
#00917:00000013
#01818:00001300000000130000000013000000
#0181b:23000000131300000000000000001300
#01812:2313
#01815:00130013
#01918:13
#0191b:00001313000000000000000000000000
#01917:00000000001313000000000000000000
#01916:00000013000000000000130014141414
#01912:0000001300000000
#02712:00001313000000000000001300000000
#02719:00000013
#02714:00000000000000000000000000130000
#0271b:0000001300000013
#02716:00000000001313000000000000000013
#02715:13
#02717:00000013000000000000130000000000
#03816:0013000000130000
#03817:0000001300000013
#03812:14241424
#0381a:24142414
#04216:0000001300000013
#04217:0013000000130000
#0421a:14241424
#04212:24142414
#0451b:1300000000230000
#04512:0000231300000013
#04517:0000231300000013
#04519:0013000000001300
#04514:00001313
#04516:1300000000230000
#04914:0013001300130000
#04919:0013001300130000
#0491b:1313
#04912:29132913
#04915:00000000290000000000000029230000
#04918:0000000000000023
#05212:13000000131300000000130000001300
#05218:13
#0521b:00001300000000130000000013000000
#05217:00000000001300000000000000001300
#05216:00000000000000130000000013000000
#05215:0013000000000000
#05210:41
#0531b:13000000131300000000130000001300
#05315:13
#05312:00001300000000130000000013000000
#05316:00000000001300000000000000001300
#05317:00000000000000130000000013000000
#05318:0013000000000000
#05412:13000000131300000000130000001300
#05418:13
#0541b:00001300000000130000000013000000
#05417:00000000001300000000000000001300
#05416:00000000000000130000000013000000
#05415:0013000000000000
#05516:14001414001414000000000023000000
#05512:00000013000000000000130023000000
#0551b:1300001300000000
#05612:13000000131300000000130000001300
#05618:13
#0561b:00001300000000130000000013000000
#05617:00000000001300000000000000001300
#05616:00000000000000130000000013000000
#05615:0013000000000000
#0571b:13000000131300000000130000001300
#05715:13
#05712:00001300000000130000000013000000
#05716:00000000001300000000000000001300
#05717:00000000000000130000000013000000
#05718:0013000000000000
#05812:13000000131300000000130000001300
#05818:13
#0581b:00001300000000130000000013000000
#05817:00000000001300000000000000001300
#05816:00000000000000130000000013000000
#05815:0013000000000000
#05916:14001414001414000000000014141414
#05912:00000013000000000000130000000000
#0591b:1300001300000000
#06016:0014001400140014
#06012:14242400
#0601a:24001424
#0601f:11
#06114:0000000000140000
#06118:0000000000140000
#06116:2414000000000000
#06113:0000241400000000
#06119:0000241400000000
#0611a:0024
#06112:0024
#06414:0015000000000000
#06417:0000000000150000
#06412:00252500
#06419:25002525
#06514:0015000000000000
#06517:0000000000150000
#06512:25252500
#06519:25002525
#07016:0013000000001313
#07017:0000001300130000
#07019:0013000000000000
#07014:0000001300000000
#07012:23
#0701b:23230000
#0701f:21
#07112:1300000000230013
#0711b:0000231300000013
#07114:0013000000001300
#07119:00001313
#07117:1300000000230000
#07116:0000231300000000
#07110:41
#07314:0013000000000000
#0731b:00131300
#07312:1300001313000000
#07316:1400142400000000
#07315:0000000000230000
#07318:0000000000230000
#0811b:1300000013231300
#08115:00000000000000000000000000130013
#08118:0000000000000013
#08112:0000130000231300
#08114:0013002300000000
#08116:0013
#08119:0013002300000000
#08117:00130000
#08215:0000000000000013
#08212:1313230000001300
#0821b:13002313
#08218:00000000000000000000000000130013
#08216:0023
#08217:0033230000000000
#0841b:13000000230000001300000023000023
#08412:23000000130000002300000023000023
#08416:00001414000014140000141400000000
#08418:00000000000000000000000000230000
#08415:0000000000000023
#07212:1313000013130000
#0721b:0000131300001313
#07216:24242424
#07816:0000000000130000
#07817:0000000000000013
#0781b:00130013
#07812:13261300
#07815:00130013000013000000000000000000
#07818:26001300001300130000000000000000
#0791b:1300000000230013
#07912:0000231300000013
#07919:0013000000001300
#07914:00001313
#07916:1300000000230000
#07917:0000231300000000
#08314:0013001300130000
#08319:0013001300130000
#0831b:1313
#08312:29132913
#08315:00000000290000000000000029230000
#08318:0000000000000023
#09216:00000013230014240014240000001300
#09217:13230000000000000000000013000000
#09212:00230000000000230000000024000000
#0921a:0000000000000024
#0921b:0000230000230000
#09012:13000000131300000000130000001300
#09018:13
#0901b:00001300000000130000000013000000
#09017:00000000001300000000000000001300
#09016:00000000000000130000000013000000
#09015:0013000000000000
#0911b:13000000131300000000130000001300
#09115:13
#09112:00001300000000130000000013000000
#09116:00000000001300000000000000001300
#09117:00000000000000130000000013000000
#09118:0013000000000000
#09512:00000000002500001200000000000000
#09518:00000000000000000012000000000000
#09513:0000000000120000
#09519:00000000002500000000001200000000
#09514:00000012
#0951a:00000000000000000000000000120000
#09515:0000000000000012
#0951b:00000000000000000000000000000012
#09516:0024000000000000
#08612:13000000131300000000130000001300
#08618:13
#0861b:00001300000000130000000013000000
#08617:00000000001300000000000000001300
#08616:00000000000000130000000013000000
#08615:0013000000000000
#08610:41
#0871b:13000000131300000000130000001300
#08715:13
#08712:00001300000000130000000013000000
#08716:00000000001300000000000000001300
#08717:00000000000000130000000013000000
#08718:0013000000000000
#08812:13000000131300000000130000001300
#08818:13
#0881b:00001300000000130000000013000000
#08817:00000000001300000000000000001300
#08816:00000000000000130000000013000000
#08815:0013000000000000
#08916:14140014140014001400140000000000
#08912:00232423
#08918:00000000000000000000000000230000
#08915:0000000000000023
#0891b:00230000000023000000000023000023
#0891a:0000000000240000
#02412:2313
#02418:00001300000000130000000013000000
#0241b:23000000131300000000000000001300
#02415:00130013
#02512:1300000000230000
#02518:13000000131300000000000000000000
#0251b:00001300000000130000000000002300
#02519:00000013
#02514:00000013
#02516:00000000000000130000000000002300
#02615:00001300000000130000000013000000
#02612:23000000131300000000000000001300
#0261b:2313
#02618:00130013
#0401b:13
#04016:0013000000130000
#04017:0000001300000013
#04012:13130000
#0411b:1300000000230000
#04112:0000231300000013
#04117:0000231300000013
#04119:0013000000001300
#04114:00001313
#04116:1300000000230000
#04317:00130000
#0431b:1300001300230000
#04319:0013000013000000
#04314:0013000013000000
#04312:1300130000230000
#04316:0000001300000000
#04315:00000013
#04318:00000013
#06816:12
#06916:12121200
#06912:00000026
#06918:00000026
#07417:0013000000001313
#07416:0000001300130000
#07414:0013000000000000
#07419:0000001300000000
#0741b:23
#07412:23230000
#0751b:1300000000230013
#07512:0000231300000013
#07519:0013000000001300
#07514:00001313
#07516:1300000000230000
#07517:0000231300000000
#07715:00000013
#07718:00000013
#07719:0013000000000000
#07712:00000000130000001300233300330000
#0771b:13000000000013001300233300330000
#07716:1400142400000000
#08017:1300000000130000
#0801b:0013000013000000
#08012:1300130000000013
#08016:0000001300001300
#08014:0023000000230000
#08019:0000002300000023
#06616:14140000
#06612:2400000024240000
#0661a:0000240024240000
#06618:0000000000000024
#06614:0000000000000024
#0761b:1313000013130000
#07612:0000131300001313
#07616:24242424
#00012:1313
#00015:0013000000130000
#00018:00130013
#0001b:1300001313000013
#0011b:1313
#00118:0013000000130000
#00115:00130013
#00112:1300001313000013
#00212:1313
#00215:0013000000130000
#00218:00130013
#0021b:1300001313000013
#09317:00000013230000000000000000001300
#09316:13230000000014240014240013000000
#0931b:00230000000000230000000000000000
#09312:0000230000230024
#0931a:00000024
#09416:00000013230014240014240000001300
#09417:13230000000000000000000013000000
#09412:00230000000000230000000024000000
#0941a:0000000000000024
#0941b:0000230000230000
#05112:23000025
#05119:00000025
#0511b:23
#08515:26
#08512:00000026
#08518:00000026
#09612:2c
#06719:0034000000000000
#0671a:0000003434000000
#06713:0034000000000000
#06712:0000003434000000
#00352:00000035
#00359:00000045
#0045b:00000000000000630000000043000000
#00452:0000000000000033
#00552:00000000000000530000000033000000
#0055b:0000000000000043
#0065b:00000000000000630000000043000000
#00652:0000000000000033
#0075b:0000005300000000
#00752:0000000000130000
#00756:0000000000130000
#0105a:0000000000000044
#01052:00330000000000330000000034000000
#0105b:0000430000430000
#01056:0000000000000043
#01057:00000033
#01352:53
#0135b:0000001300000000
#01356:0000001300000000
#01458:0023000053000000
#0145b:53
#01455:00530000
#01452:0000002300000000
#01552:0053000000000000
#0155b:0000001300000000
#01556:0000001300000000
#0165b:5353
#01655:00000000000000530000000000000000
#01658:00530053
#0175b:53
#01752:00000000000000530000000000000000
#0205b:00130013
#02052:00130013
#0215b:0000130000131300
#02152:0053000000131300
#02156:0000001300000000
#02252:00130013
#02257:00130013
#02352:00130000
#02357:0053000000000000
#0235b:0000001300000000
#02952:63
#02956:0000001300000000
#0295b:0000001300000000
#03056:0000135300000000
#0305b:0000130000000053
#03057:5300000000130000
#03052:0000000000130000
#03157:00130000
#03152:00130000
#03154:0000001300000000
#03159:0000001300000000
#03352:0000001300000000
#0335b:53
#03357:0000001300000000
#03358:0000000000630064
#03355:00000063
#03456:1400141400000000
#0345a:1400000000140014
#03452:0000130000140014
#0345b:0000001300000000
#03552:0000003300003500
#03559:00000045
#0355b:0043000000000000
#03556:0044003400000000
#03652:6300330000130000
#03657:0023000000130000
#0365b:4300630043000013
#03656:0000002300000013
#03756:0000135300000000
#0375b:00130000
#03757:5300000000130000
#03752:0000000000130000
#03958:0000000000530000
#03955:0000000000630000
#03952:0000001300000000
#03957:0000001300000000
#04752:0000000000330000
#0475b:0000000000430000
#04757:13
#04852:00130013
#0485b:00130013
#05152:13000015
#05159:00000015
#0515b:13
#0505b:1313
#05052:00130000
#05056:0014001400140000
#0615a:00005444
#06152:00005434
#06156:14
#06153:00140000
#06159:00140000
#06154:0000000000240000
#06158:0000000000240000
#0605a:64140014
#06052:00145414
#06056:0024000000240000
#0675a:00000014
#06752:00000014
#06658:0000000000000054
#06652:3400000014140000
#0665a:0000440014140000
#06654:0000000000000064
#04656:6300130000230000
#04652:0023000063001300
#0465b:0000530013000023
#04657:0000002300005300
#0085b:00000000000000630000000043000000
#00852:0000000000000033
#00952:00000000000000530000000033000000
#0095b:0000000000000043
#01252:5300000000230000
#01255:0023000053000000
#0125b:0000530000000023
#01258:0000002300005300
#01858:00000000000000630000000000000000
#01852:6363
#01855:00630063
#01957:0000006300000000
#04456:0000000000130000
#04457:0000000000000013
#0445b:0000000000130000
#04452:0000000000000013
#04556:6300000000130000
#04557:0000136300000000
#04552:00130000
#0455b:0000000000130000
#0495b:1313
#04952:00130000
#0525b:00000000000000630000000043000000
#05252:0000000000000033
#05352:00000000000000530000000033000000
#0535b:0000000000000043
#0545b:00000000000000630000000043000000
#05452:0000000000000033
#05552:00000033000000000000000013000000
#0555b:4300005300000000
#05556:00000013
#0565b:00000000000000630000000043000000
#05652:0000000000000033
#05752:00000000000000530000000033000000
#0575b:0000000000000043
#0585b:00000000000000630000000043000000
#05852:0000000000000033
#05952:00000033000000000000000000000000
#0595b:4300005300000000
#06252:1313
#0625b:00130013
#06352:14141414
#06557:0000000000250000
#06554:0025000000000000
#06559:65450035
#06552:00456535
#06457:0000000000250000
#06454:0025000000000000
#06459:65450035
#06452:00456535
#07056:0023000000000013
#07057:0000002300130000
#07052:5300330000130000
#0705b:4300530043000013
#0845b:1313
#08452:00130000
#07157:5300000000130000
#07156:0000135300000000
#0715b:00130000
#07152:0000000000130000
#07856:0000000000130000
#07857:0000000000000013
#0785b:0000000000130000
#07852:0000000000000013
#07956:6300000000130000
#07957:0000136300000000
#07952:00130000
#0795b:0000000000130000
#0835b:1313
#08352:00130000
#08252:00130000
#08256:0013
#08257:00130000
#0825b:5313
#08555:16
#08552:00000016
#08558:00000016
#03856:0033000000330000
#03857:0000004300000043
#0385a:0044000000440000
#03852:0000003400000034
#04257:0043000000430000
#04256:0000003300000033
#04252:0034000000340000
#0425a:0000004400000044
#0905b:00000000000000630000000043000000
#09052:0000000000000033
#09152:00000000000000530000000033000000
#0915b:0000000000000043
#09257:00000033
#09256:0000000000000043
#09252:00330000000000330000000034000000
#0925a:0000000000000044
#0925b:0000430000430000
#09556:0014000000000000
#09559:00000000001500000000000000000000
#09552:00000000001500000000000000000000
#0865b:00000000000000630000000043000000
#08652:0000000000000033
#08752:00000000000000530000000033000000
#0875b:0000000000000043
#0885b:00000000000000630000000043000000
#08852:0000000000000033
#08952:0014
#0895a:0000000000140000
#02452:6363
#02458:00000000000000630000000000000000
#02455:00630063
#02552:63
#0255b:00000000000000630000000000000000
#02655:00000000000000530000000000000000
#0265b:5353
#02658:00530053
#02756:0000005300000000
#0405b:5300430000130000
#04056:0023000000130000
#04057:0000002300000013
#04052:3300530033000013
#04156:6300000000130000
#04157:0000136300000000
#04152:00130000
#0415b:0000000000130000
#04352:0000000000530000
#04355:00000023
#04358:00000023
#0435b:0000001300630000
#04356:0000001300000000
#06958:00000016
#06952:00000016
#07457:0023000000000013
#07456:0000002300130000
#0745b:6300430000130000
#07452:3300630033000013
#07556:6300000000130000
#07557:0000136300000000
#07552:00130000
#0755b:0000000000130000
#07752:0000000000530000
#07755:00000023
#07758:00000023
#0775b:0000000000630000
#07756:0000001400000000
#08057:5300130000230000
#0805b:0023000053001300
#08052:0000630013000023
#08056:0000002300006300
#0815b:0000000000430000
#08152:0000000000330000
#08156:13
#08159:0000001300000000
#08154:0000001300000000
#09652:3c
#07256:0044003400440034
#0725b:0000004300000043
#07252:0033000000330000
#0765b:0043000000430000
#07652:0000003300000033
#07656:0034004400340044
#07355:0000000000630000
#07358:0000000000530000
#07356:0000001400000000
#09356:00000043
#09357:0000000000000033
#0935b:00430000000000430000000000000000
#09352:0000330000330034
#0935a:00000044
#09457:00000033
#09456:0000000000000043
#09452:00330000000000330000000034000000
#0945a:0000000000000044
#0945b:0000430000430000
#0043b0:00000000000000130000000000000000
#004380:0000000000230000
#005320:00000000000000130000000000000000
#005350:0000000000230000
#0063b0:00000000000000130000000000000000
#006380:0000000000230000
#0073b0:0000001300000000
#007360:0000000000230000
#0083b0:00000000000000130000000000000000
#008380:0000000000230000
#009320:00000000000000130000000000000000
#009350:0000000000230000
#012320:13230000
#012350:0033000000000000
#0123b1:00132300
#012381:0000003300000000
#012350:00001323
#012320:0000000000330000
#012381:00000013
#0123b1:0000000000000033
#013381:23
#013320:1333000000000000
#013360:0000002300000000
#013320:0000000000132300
#013381:0000000000001323
#013350:0000000000000013
#014350:23
#0143b1:13230000
#014381:0033000000000000
#014350:00132300
#014320:0000003300000000
#014381:0013
#0143b1:00000023
#015321:0013000000000000
#015361:0000002300000000
#0163b1:1333
#016381:00330033
#0173b1:33
#017381:00230000
#016350:00000000000000130000000000000000
#016320:0000000000230000
#017321:00000000000000130000000000000000
#017361:0000000000230000
#018321:1333
#018351:00330033
#019321:23
#018380:00000000000000130000000000000000
#0183b0:0000000000230000
#019371:0000001300000000
#0193b1:0000000000230000
#021321:0013000000000000
#021361:0000002300000000
#023371:0013000000000000
#0233b1:0000002300000000
#024321:1333
#024351:00330033
#025321:33
#025351:00230000
#024380:00000000000000130000000000000000
#0243b0:0000000000230000
#0253b1:00000000000000130000000000000000
#025371:0000000000230000
#0263b1:1333
#026381:00330033
#0273b1:23
#026350:00000000000000130000000000000000
#026320:0000000000230000
#027361:0000001300000000
#027321:0000000000230000
#0283b1:1323000000000000
#028321:0000132300000000
#0283b1:0000000013230000
#028321:0000000000001323
#029321:13
#029331:0033000000000000
#029341:00330000
#029361:0000002300000000
#030371:13
#0303b1:00230000
#030361:0000001300000000
#030321:0000000000230000
#0303b1:0000000000000013
#031371:0033230000000000
#0323b1:1323000000000000
#032321:0000132300000000
#0323b1:0000000013230000
#032321:0000000000001323
#0333b1:13
#0333a1:0033000000000000
#033391:00330000
#033371:0000002300000000
#033381:0000000000130000
#0333b1:00000023
#033350:00000013
#033320:0000000000000023
#033381:0000000000000014
#0343a1:24
#036321:13230000
#036371:0033000000000000
#0363b0:00132300
#036360:0000003300000000
#036321:0000000013230000
#0363b1:0000000000001323
#037371:13
#0373b1:00230000
#037361:0000001300000000
#037321:0000000000230000
#0383a1:1424000000000000
#038321:0000142400000000
#0383a1:0000000014240000
#038321:0000000000001424
#039351:0000000000130000
#039321:0000000000000023
#039380:0000000000130000
#0393b0:0000000000000023
#0403b0:13230000
#040360:0033000000000000
#040321:00132300
#040371:0000003300000000
#0403b0:0000000013230000
#040320:0000000000001323
#041360:13
#041320:00230000
#041370:0000001300000000
#0413b0:0000000000230000
#042320:1424000000000000
#0423a0:0000142400000000
#042320:0000000014240000
#0423a0:0000000000001424
#043320:0000000000130023
#043350:00000053
#0433b1:0000000000130023
#043381:00000053
#0443b1:0000000013230000
#044321:0000000000001323
#045361:13
#045321:00230000
#045371:0000001300000000
#0453b1:0000000000230000
#046361:13230000
#046321:0033000000000000
#0463b0:00132300
#046370:0000003300000000
#046321:00001323
#046361:0000000000330000
#046370:00000013
#0463b0:0000000000000033
#047370:23
#0483b0:13230000
#048370:0033000000000000
#048320:00001323
#048360:0000000000330000
#0523b0:00000000000000130000000000000000
#052370:0000000000230000
#053320:00000000000000130000000000000000
#053360:0000000000230000
#0543b0:00000000000000130000000000000000
#054370:0000000000230000
#0553b0:0000001300000000
#055360:0000000000332300
#0563b0:00000000000000130000000000000000
#056370:0000000000230000
#057320:00000000000000130000000000000000
#057360:0000000000230000
#0583b0:00000000000000130000000000000000
#058370:0000000000230000
#0593b0:0000001300000000
#059360:0000000000230000
#0603a0:14240000
#060360:0034000000000000
#060320:00001424
#060360:0000000000340000
#0613a0:00001424
#061380:0000000000340000
#061321:00001424
#061341:0000000000340000
#064391:15250000
#064341:0055000000000000
#064321:00001525
#064371:0000000000550000
#065391:15250000
#065341:0055000000000000
#065321:00001525
#065371:0000000000550000
#066381:0000000000000014
#067391:0034000000000000
#0673a1:0000003434002400
#066340:0000000000000014
#067330:0034000000000000
#067320:0000003434002400
#068380:12
#069380:32323226
#070320:13230000
#070360:0033000000000000
#0703b1:00132300
#070371:0000003300000000
#070320:0000000013230000
#0703b0:0000000000001323
#071370:13
#0713b0:00230000
#071360:0000001300000000
#071320:0000000000230000
#072360:1424000000000000
#072360:0000142400000000
#072360:0000000014240000
#072360:0000000000001424
#073350:0000000000130000
#073320:0000000000000023
#073381:0000000000130000
#0733b1:0000000000000023
#0743b1:13230000
#074371:0033000000000000
#074320:00132300
#074360:0000003300000000
#0743b1:0000000013230000
#074321:0000000000001323
#075361:13
#075321:00230000
#075371:0000001300000000
#0753b1:0000000000230000
#076361:1424000000000000
#076361:0000142400000000
#076361:0000000014240000
#076361:0000000000001424
#077321:00000000000000000000133300332300
#077351:00000033
#0773b0:00000000000000000000133300332300
#077380:00000033
#0783b0:0000000013230000
#078320:0000000000001323
#079360:13
#079320:00230000
#079370:0000001300000000
#0793b0:0000000000230000
#080370:13230000
#0803b0:0033000000000000
#080321:00132300
#080361:0000003300000000
#0803b0:00001323
#080370:0000000000330000
#080361:00000013
#080321:0000000000000033
#081361:23
#0823b1:13
#082371:0033230000000000
#0863b1:00000000000000130000000000000000
#086371:0000000000230000
#087321:00000000000000130000000000000000
#087361:0000000000230000
#0883b1:00000000000000130000000000000000
#088371:0000000000230000
#0903b1:00000000000000130000000000000000
#090371:0000000000230000
#091321:00000000000000130000000000000000
#091361:0000000000230000
