This file was generated by Ched 2.7.0.0.
#TITLE ""
#ARTIST ""
#DESIGNER ""
#DIFFICULTY 0
#PLAYLEVEL
#SONGID ""
#WAVE ""
#WAVEOFFSET 0
#JACKET ""
#REQUEST "ticks_per_beat 480"
#00002: 4
#BPM01: 160
#00008: 01
#TIL00: ""
#HISPEED 00
#MEASUREHS 00
#0001a:14
#00014:0014
#00118:14
#00112:0014
#0021a:14
#00214:0014
#00318:14
#00312:0024
#00414:00140000
#0041a:2414
#00512:1414
#00518:00140000
#0061a:1414
#00614:00140000
#00712:1414
#00718:00140000
#0081a:14
#00814:00140000
#00818:0014
#00812:00000014
#0091a:14
#00914:00140000
#00918:0014
#00912:00000014
#0121a:00140000
#01214:00001414
#01318:14140000
#01312:00001414
#0141a:14140000
#01414:00001414
#01518:14140000
#01512:00001414
#0161a:14
#01618:0000000000000014
#01610:41
#01812:14
#01814:0000000000000014
#0201a:14140000
#02014:00001414
#02118:14
#0211a:00343400
#02212:14140000
#02218:00001414
#02314:14
#02312:00343400
#02418:14
#0241a:0000000000000014
#02614:14
#02612:0000000000000014
#0281a:14
#02814:00140000
#02818:0014
#02812:00000014
#02810:41
#02918:1414
#02912:00140000
#02914:00000014
#03218:14
#03212:00140000
#0321a:0014
#03214:00000014
#0331a:14
#03314:00140000
#03318:0014
#03312:00000014
#03518:14
#03612:14
#0361a:00140000
#03614:0014
#03618:00000014
#03610:41
#03712:14
#0371a:00140000
#03714:0014
#03718:00000014
#03912:14
#03914:00343400
#0401a:14
#04012:00140000
#04018:0014
#04014:00000014
#0411a:14
#04112:00140000
#04118:0014
#04114:00000014
#0431a:14
#04318:00343400
#04412:14
#0441a:00140000
#04414:0014
#04418:00000014
#04512:14
#0451a:00140000
#04514:0014
#04518:00000014
#04718:14
#04712:14
#0471a:00343400
#04714:00343400
#04912:14
#04918:00140000
#04914:0014
#0491a:00000014
#05012:14
#05018:00140000
#05014:0014
#0501a:00000014
#05112:14
#05218:14
#05210:41
#0531a:00000014
#05612:14140000
#05618:00001414
#05714:14140000
#0571a:00001414
#05812:14140000
#05818:00001414
#05914:14140000
#0591a:00001414
#06212:14
#06218:00140000
#06214:0014
#0621a:00000014
#06312:14
#06318:00140000
#06314:0014
#0631a:00000014
#07018:0014
#07014:00000014
#0701a:24
#07012:00240000
#0701f:21
#0711a:14
#07112:00140000
#07118:0014
#07114:00000014
#07110:41
#0731a:14
#07318:00343400
#07414:0014
#07418:00000014
#07412:24
#0741a:00240000
#07512:14
#0751a:00140000
#07514:0014
#07518:00000014
#07712:14
#07714:00343400
#07818:0014
#07814:00000014
#0781a:24
#07812:00240000
#0791a:14
#07912:00140000
#07918:0014
#07914:00000014
#08114:14
#0811a:14
#08112:00343400
#08118:00343400
#0831a:14
#08314:00140000
#08318:0014
#08312:00000014
#0841a:14
#08612:14
#08610:41
#08715:00140000
#08918:14
#08914:0014
#0901a:14
#09117:14
#0601f:11
#04812:24
#04818:24
#0481a:0024
#04814:0024
#06412:24
#06418:24
#0641a:0024
#06414:0024
#06512:24
#06518:24
#0651a:0024
#06514:0024
#06612:24
#06618:00240000
#06614:0024
#0661a:00000024
#06712:24
#0821a:24
#08214:24
#08212:0024
#08218:0024
#08512:24
#0851a:24
#09514:0024000024000000
#09518:00000000002400000000000000000000
#05518:00000024
#0101a:00000034000034000034000034003400
#0111a:00000034000034000000000000000000
#0165a:54
#01658:0000000000000024
#01852:64
#01854:0000000000000024
#02158:54
#02354:64
#02458:64
#0245a:0000000000000024
#02654:54
#02652:0000000000000024
#03558:54
#03652:14
#0365a:00140000
#03952:54
#0405a:14
#04052:00140000
#0435a:64
#04452:14
#0445a:00140000
#04758:54
#04752:54
#05152:54
#05258:54
#0535a:00000024
#06752:54
#0735a:64
#07752:54
#08154:64
#0815a:64
#0705a:14
#07052:00140000
#07452:14
#0745a:00140000
#0785a:14
#07852:00140000
#0845a:54
#08652:54
#08755:00240000
#0905a:64
#09157:24
#09554:0054
#05558:00000014
#0103a0:14000034000034000034000034003400
#011380:34
#0113a0:00000034000034000000000000000000
#0123a0:24
#0163a0:14
#016380:0000000000000054
#0173a0:00000024
#018320:14
#018340:0000000000000054
#019320:00000024
#021380:14
#0213a0:00343424
#023340:14
#023320:00343424
#024380:14
#0243a0:0000000000000054
#025380:00000024
#026340:14
#026320:0000000000000054
#027340:00000024
#0303a0:14
#030380:00240000
#030320:0014
#030340:00000024
#0313a0:14
#031380:00240000
#031320:0014
#031340:00000024
#034380:14
#0343a0:00240000
#034340:0014
#034320:00000024
#035380:14
#0353a0:00000024
#038320:14
#038340:00240000
#0383a0:0014
#038380:00000024
#039320:14
#039340:00343424
#0423a0:14
#042380:00240000
#042320:0014
#042340:00000024
#0433a0:14
#043380:00343424
#046380:14
#0463a0:00240000
#046321:14
#046341:00240000
#046341:0014
#046321:00000024
#0463a0:0014
#046380:00000024
#047380:14
#0473a0:00343424
#047321:14
#047341:00343424
#051321:14
#051341:00000024
#052381:14
#0533a1:00000054
#055381:00003424
#060321:14240000
#060381:00001424
#061341:14240000
#0613a1:00001424
#067321:14
#067341:00000024
#0723a1:14
#072381:00240000
#072321:0014
#072341:00000024
#0733a1:14
#073381:00343424
#076321:14
#076341:00240000
#0763a1:0014
#076381:00000024
#077321:14
#077341:00343424
#080341:14
#080321:00240000
#0803a0:14
#080380:00240000
#080380:0014
#0803a0:00000024
#080321:0014
#080341:00000024
#081341:14
#081321:00343424
#0813a0:14
#081380:00343424
#0843a0:14
#084380:00000024
#086320:14
#087350:00540000
#088320:0024
#0903a0:14
#091370:54
#0923a0:34000034000034000034000024000000
#093340:14000034000034000034000024000000
#094380:14000034000034000034000024000000
#095340:0014
#096320:24
