This file was generated by Ched 2.7.0.0.
#TITLE ""
#ARTIST ""
#DESIGNER ""
#DIFFICULTY 0
#PLAYLEVEL
#SONGID ""
#WAVE ""
#WAVEOFFSET 0
#JACKET ""
#REQUEST "ticks_per_beat 480"
#00002: 4
#BPM01: 200
#00008: 01
#TIL00: ""
#VOLUME: ""
#HISPEED 00
#MEASUREHS 00
#0091a:14
#0101a:14
#01114:14
#01214:14
#01318:14
#01418:14
#01512:14
#01612:14
#01718:14
#01812:14
#0191a:14
#02014:14
#0231a:14
#02118:14
#02212:14
#02414:14
#02512:0016
#02518:26
#02510:41
#02618:1616
#02712:16
#02718:0016
#02812:1616
#03318:16
#03312:0016
#03418:16
#03412:0016
#03512:0016
#03518:16
#03618:1616
#0411a:14
#0421a:0014
#04412:14
#04512:0014
#04718:14
#04710:41
#04814:0014
#0501a:14
#05112:0014
#0551a:00140000
#05812:00140000
#0651a:14
#0661a:14
#06714:14
#06814:14
#06918:14
#07018:14
#07112:14
#07212:14
#07312:0016
#07318:26
#0731f:21
#07418:16
#07412:0016
#07410:41
#07512:0016
#07518:16
#07618:1616
#08118:0016
#08112:26
#08212:16
#08218:0016
#08512:16
#08518:0016
#08510:41
#08612:1616
#08718:16
#08712:0016
#08818:1616
#08912:16
#08918:0016
#09012:16
#09018:0016
#09112:16
#09118:0016
#09212:1616
#09712:14
#0981a:14
#0621f:11
#03113:0036
#03213:36
#02917:0036
#03017:36
#06010:0041
#03710:41
#0013a0:14
#0023a0:24
#003340:14
#004340:24
#005380:14
#006380:24
#007320:14
#008320:24
#029380:16
#029370:0036
#030370:36
#030360:0026
#031320:16
#031330:0036
#032330:36
#032340:0026
#037320:1626
#038380:1626
#039320:160000000036000036000036
#040320:0026
#053380:14
#053390:00000034
#0543a0:0024
#056340:14
#056330:00000034
#057320:0024
#059380:14
#0593a0:00000034
#0603a0:0034
#061380:00240000
#062340:14
#062320:00000034
#063320:0034
#064340:00240000
#077320:1626
#078380:1626
#079320:1626
#080380:1626
#083320:1626
#084380:1626
#093380:1626
#094320:1626
#095380:160000000036000036000036
#096380:0026
#099320:140000000034000034000034
#100320:0024
