This file was generated by Ched 2.7.0.0.
#TITLE ""
#ARTIST ""
#DESIGNER ""
#DIFFICULTY 0
#PLAYLEVEL
#SONGID ""
#WAVE ""
#WAVEOFFSET 0
#JACKET ""
#REQUEST "ticks_per_beat 480"
#00002: 4
#BPM01: 200
#00008: 01
#TIL00: ""
#VOLUME: ""
#HISPEED 00
#MEASUREHS 00
#0621a:131313131313131313131313
#06219:001500150015001500150015001500150015001500150015
#06215:00131300
#0621f:11
#06212:23000023
#05715:1313
#05718:00132313
#05712:0000130000000013
#05217:13
#05212:0013
#05117:0013
#0511b:00000013
#05116:13
#05818:00231300
#0581b:13000013
#05815:0000001300001300
#0501b:0000000000000013
#05012:00130013
#05016:1313
#05918:13
#0591a:0013
#05919:00130000
#05912:24000024
#04815:00130013
#04812:1313
#0481b:13000013
#04818:0023
#04918:13
#0491b:00130000
#04915:00231300
#06113:13
#06117:00001323
#0611a:00240000
#06014:00000013
#06015:0013
#06016:13130000
#0601a:0024
#06010:0041
#0781b:13131313
#07816:0013
#07812:13
#07712:13131313
#07717:0013
#0771b:13
#01812:13000013
#01815:00131300
#0181b:00130000
#01818:13000013
#0931b:0000001300000000
#09317:13
#09312:13000013
#09315:00131300
#0941b:2313
#09412:1323
#0811b:13
#08112:13130013
#08116:0013
#08719:00001313
#0871b:13130000
#03015:00130000
#03016:13000013
#0301b:13000013
#03018:00130000
#0291b:00130000
#02916:00130000
#02912:0013
#02914:00000013
#02917:0013
#02919:00000013
#06818:00000013
#06815:000000000026000013000000
#06715:000000000026000000130000
#06718:000013
#06618:00000013
#06615:000000000026000013000000
#06515:000000000026000000130000
#06518:000013
#07215:000000000000001300000013
#0721b:000000000013
#07212:00000013
#07218:000000240000000013000000
#0721a:0024
#07216:24
#07618:001400000000
#0761a:0024
#07612:0024
#07614:00240000
#07616:24
#04718:23001313
#0471b:00130000
#04712:00130000
#04715:13000023
#04710:41
#04117:0013
#0411b:13
#04114:00130013
#04112:0013
#04116:23
#04119:00330033
#04316:13
#04317:0013
#04319:00130000
#0431b:13
#04314:00330000
#04615:00130000
#0461b:1313
#04618:00130000
#04612:13
#0451b:0013
#04515:00002313
#04512:13
#04418:23130013
#04412:1313
#04415:00000013
#0441b:0013
#04219:00000013
#04212:0013
#04216:13
#04217:0023
#04214:00000033
#03614:001400000000
#0361a:0024
#03612:0024
#03618:00240000
#03616:24
#03317:13
#03316:0013
#03312:13000033
#03314:00130000
#03319:00000013
#0331b:00330000
#02218:13
#02215:13130000
#0221b:0000001300000000
#02216:0000000000220000
#0221c:000000000000000000000000000000000022000000000000
#02115:13
#02118:1300130000220000
#02112:000000000000000000130000000000000022000000000000
#01316:000000130013000000000000
#01317:000000000000000000130013
#01312:000013
#0131b:002300130000
#00912:13000013
#00916:00130000
#00919:000000000013000000000000
#00914:0013
#00917:000013
#0091b:000023000000000000000013
#01016:130000000000130000000013
#0101b:000000000013000000000013
#01012:001300001300
#01017:00130013
#01117:00130000
#01114:000000000013000000000000
#01119:0013
#01116:000013
#0111b:00000013
#01112:000023000000000000000013
#01217:130000000000130000000013
#01212:000000000013000000000013
#0121b:001300001300
#01216:00130013
#0991c:000012
#09918:000000000000000000000012
#09916:000012
#09912:000000000012000000000000
#09512:130023
#09517:130023
#0951b:000000130023000000000023
#09516:000000000023000000000023
#09116:00140014
#0911a:2424
#09112:2424
#05612:0013
#05615:23130023
#0561b:0000001300000000
#05618:1300000000000013
#05518:13001313
#05512:0000000000130000
#05515:00130000
#0551b:00230000
#0541b:0013000000001300
#05412:0000000000000013
#05415:0013
#05418:0023
#05315:2313
#05312:00130023
#05318:13000013
#0531b:0000001300000000
#0391b:130023
#03916:130023
#03912:000000130023000000000023
#03917:000000000023000000000023
#03416:00130013
#03417:1313
#0341b:00000013
#03412:0013
#03512:13
#03517:13
#0351b:0013
#03516:0013
#07318:161600000000
#07312:00160000
#07317:0013
#07314:00000013
#0731f:21
#0731b:00000033
#03712:0000001300000000
#03716:13
#0371b:13000013
#03718:00131300
#03710:41
#03216:13131300
#0321b:0013
#03114:00001313
#03112:13130000
#0281b:1313
#02817:00130000
#02816:13
#02812:0013
#02617:00000013
#02612:00000013
#02414:0016
#02418:26
#0201b:13000013
#02019:0013
#02012:00131313
#02017:00130000
#01715:00000013
#01718:0013
#0171b:00130000
#01712:24
#0171a:24
#01516:00140014
#0151a:000000000000000000000014
#0151b:0013
#01512:0013
#01616:140000000024000000000000
#0161a:000024
#01612:000024
#00816:1313
#0081b:1313
#00817:00000013
#00812:00130000
#00712:00130013
#00717:00130013
#0071b:0013
#00716:13
#00612:00130013
#00616:0013
#0051b:00130013
#00517:0013
#00416:00130013
#00412:1313
#00316:00130013
#00312:0013
#00217:00130013
#0021b:1313
#00117:00130013
#0011b:1313
#0141b:001300000000
#01412:1313
#01415:00000013
#01418:00000013
#01416:00242400
#0271b:00130000
#02717:1313
#02712:1313
#02716:00000013
#0251b:00130013
#02517:0013
#02510:41
#08618:00130000
#08617:13000013
#08612:13000013
#08615:00130000
#08512:00130000
#08517:00130000
#0851b:0013
#08519:00000013
#08516:0013
#08514:00000013
#08510:41
#08412:2313
#08416:00130000
#08417:13
#08415:00000013
#08418:00000013
#0841b:0023
#08312:00130000
#0831b:1323
#08317:00000013
#08316:2313
#07417:00130013
#07416:1313
#07412:00000013
#0741b:0013
#07410:41
#0751b:13
#07516:13
#07512:0013
#07517:0013
#07018:001300000000
#07016:00000014
#07015:00130000
#07012:240000000024000024000000
#0701a:000000000024000000000000
#0711a:1424
#07116:00140014
#07112:2414
#08817:13132300
#08812:0023
#09619:00000013
#09614:00000013
#0631a:131313131313131313131313
#06319:001500150015001500150015001500150015001500150015
#06315:13130013
#06312:0023
#0641a:131313131313131313131313
#06419:001500150015001500150015001500150015001500150015
#06415:1323
#06412:00230000
#06918:16
#06912:00242424
#08216:00000013
#0821b:00000013
#03812:2313
#0381b:1323
#0891b:00000023
#08918:0023
#08915:00230000
#08912:23
#0921a:24
#09218:0026
#09215:00260000
#09212:26
#08016:24242424
#08012:24
#07917:23000023
#0791b:0023
#07916:00232300
#07912:23
#02312:002600260026
#02318:262626
#09012:23
#09015:00230000
#09018:0023
#0901b:00000023
#0625a:535353535353535353535353
#06259:002500250025002500250025002500250025002500250025
#05752:0000000000000023
#05755:0063
#05758:0013
#04855:00000023
#04852:0053
#0485b:23
#01852:00000063
#01855:0063
#0185b:00530000
#01858:53
#0935b:0000002300000000
#09357:63
#0945b:2323
#09452:2323
#0815b:13
#08152:13
#03055:00130000
#03058:00130000
#0495b:00530000
#04955:0013
#04958:0013
#04157:0023
#0415b:63
#04356:23
#04655:00630000
#04652:0013
#0455b:1363
#04458:00000053
#04452:53
#04252:0053
#03357:53
#03356:0063
#02258:63
#0225b:0000001300000000
#02155:53
#02152:0000001300000000
#0105b:000000000000000000000013
#01056:000000000000000000000013
#01252:000000000000000000000013
#01257:000000000000000000000013
#09552:63
#09557:13
#09556:000000000000000000000063
#0955b:000000000000000000000063
#0565b:0000002300000000
#05658:53
#05655:13000013
#05552:0000000000230000
#05555:00630000
#0555b:00130000
#05452:0000000000000023
#05455:0063
#0545b:0023000000000000
#05458:0013
#05358:53000053
#0535b:0000002300000000
#05352:00000013
#05355:13
#07856:00135300
#07852:63000013
#07757:00136300
#0775b:53000013
#0395b:53
#03956:13
#03957:000000000000000000000053
#03952:000000000000000000000053
#03456:00630063
#03457:6363
#0345b:00000063
#03452:0063
#03552:63000013
#03557:63000013
#0355b:00135300
#03556:00135300
#07352:00360000
#07357:0053
#03752:0000002300000000
#03756:53
#0285b:0053
#02857:00530000
#02856:63
#02852:0063
#02454:0056
#02458:56
#0205b:13
#01656:64
#01652:000000000014000000000000
#0155b:1313
#01552:1313
#00856:0053
#0085b:53
#00857:00000013
#00852:00130000
#00757:00000013
#00752:00130000
#02752:53
#02757:0053
#08658:00130000
#08655:00130000
#08452:0063
#08456:00630000
#08457:53
#08455:00000023
#08458:00000023
#0845b:0053
#0835b:63
#08356:0063
#07457:00530053
#07456:5353
#07452:00000053
#0745b:0053
#0755b:53000013
#07556:53000013
#07552:00136300
#07557:00136300
#03256:0013
#0325b:00131300
#0715a:6444
#07156:00240024
#07152:3454
#07056:00000014
#07052:14
#01455:00000063
#01458:00000063
#04752:00230000
#04755:63
#04758:00000053
#06056:13
#0605b:13
#06157:00001353
#06152:0013
#0635a:535353535353535353535353
#06359:002500250025002500250025002500250025002500250025
#0645a:535353535353535353535353
#06459:002500250025002500250025002500250025002500250025
#06455:0013
#06958:56
#03852:2323
#0385b:2323
#05858:00130000
#0765a:0014
#07652:0014
#0365a:0014
#03652:0014
#09258:0016
#09255:00160000
#09252:16
#08052:1414
#0805a:00140014
#07956:0053
#07957:53
#01752:14
#0175a:14
#08852:00131300
#08857:0013
#08754:00000013
#08756:00130000
#0405b:0013
#04056:0013
#03159:00000013
#03157:00130000
#02958:13
#02955:13
#02558:16
#00252:000000000000000000000013
#08552:33
#0855b:43
#0045b:000000000000000000000013
#001320:130033330000000033330000
#001360:000000000033330000000033
#002360:330000000033330000000000
#002320:000033330000000033330023
#0033b0:000013330000000033330000
#003370:000000000033330000000033
#004370:330000000033330000000000
#0043b0:000033330000000033330023
#005360:000013330000000033330000
#005320:000000000033330000000033
#006320:23
#0063b1:130000000033330000000033
#006371:000033330000000033330000
#0073b1:23
#0083b1:13
#008371:00230000
#008361:0013
#008321:00000023
#014351:00000013
#015321:23
#014380:00000013
#0153b0:23
#016360:14
#016320:000000000024000000000000
#018380:1323
#0183b0:00330000
#018351:0013
#018321:00000033
#019351:23
#019380:13230000
#019351:00132300
#019380:00001323
#019351:00000013
#020351:23
#021351:13
#021321:00230000
#022381:13
#0223b1:00230000
#024381:16
#024341:0036
#025381:26
#025361:00130033
#025321:0033
#026321:3323
#026361:00330000
#026370:1323
#0263b0:00330000
#027320:13
#027360:00230000
#027370:0013
#0273b0:00000023
#028360:13
#028320:00230000
#028371:00130000
#0283b1:0033
#028381:000000000053
#029381:23
#028320:0013
#028350:000000000053
#029350:23
#031370:13230000
#031390:00001323
#0323b0:13230000
#033370:13
#0333b0:00332300
#033361:0013
#033321:00000033
#034321:23
#034370:13
#0343b0:00230000
#034361:00130033
#034321:0033
#035321:33
#035361:00230000
#034370:0013
#0343b0:00000033
#035370:33
#0353b0:00230000
#035360:0013
#035320:00000023
#0353b1:0013
#035371:00000023
#037361:13000023
#037321:0000005300000000
#038321:13
#038351:00230000
#0383b0:13
#038380:00230000
#0383b0:0013
#038380:00000023
#038321:0013
#038351:00000023
#0393b1:13
#039371:00230000
#039371:000000000000000000000013
#0403b1:0023
#039320:000000000000000000000013
#040360:0023
#0413b0:13
#041390:00330033
#041370:0033
#0423b0:23
#042320:0013
#042340:00000033
#043360:33
#043340:00330000
#043320:0023
#044320:13
#044350:00230000
#044380:00000013
#0453b0:23
#0453b0:0013
#045380:00000023
#046350:00130000
#046320:0023
#047350:1323
#047320:00330000
#047380:00000013
#0483b0:33
#048380:00230000
#048320:0013
#048350:00000033
#049320:23
#0493b0:00130000
#049380:0023
#0503b0:1333
#050370:00330023
#051320:0013
#051360:00000033
#052320:33
#052360:00230000
#0523b1:00130000
#052371:0023
#053381:13000033
#0533b1:0000005300000000
#0543b1:0053000000000000
#054381:0023
#054350:1333230000000000
#054350:0013
#054320:0000000000000053
#055350:00330000
#055320:0000000000530000
#056350:23
#056381:13000023
#0563b1:0000005300000000
#057351:0013
#057321:0000000000000053
#058351:00230000
#0593b1:00000013
#0603b1:23
#061321:00132300
#061371:00000013
#0623a1:335353535353535353535353
#062391:005500550055005500550055005500550055005500550055
#0633a1:535353535353535353535353
#063391:005500550055005500550055005500550055005500550055
#0643a1:535353535353535353535353
#064391:005500550055005500550055005500550055005500550055
#0653a1:23
#065350:13230000
#0653b1:000000130023000000000000
#066381:13230000
#066320:000000130023000000000000
#067350:13
#067320:00230000
#0673b1:000000130023000000000000
#068381:13
#0683b1:00230000
#068320:000000130023000000000000
#069380:16
#0703a0:24
#0713a0:1424
#071360:00540000
#071321:0014
#071361:00000054
#072321:24
#073371:0013
#0733b1:00000033
#0743b1:23
#074360:13
#074320:00230000
#074371:00130033
#0743b1:0033
#0753b1:33
#075371:00230000
#074360:0013
#074320:00000033
#075360:33
#075320:00230000
#075370:0013
#0753b0:00000023
#075321:0013
#075361:00000023
#0773b1:13
#077371:00230000
#077371:0013
#0773b1:00000023
#078321:13
#078361:00230000
#078361:0013
#078321:00000023
#079371:13
#0793b1:00230000
#079361:0013
#079321:00000023
#080361:14
#0803a1:00240000
#080360:00140000
#080320:0024
#080361:0014
#0803a1:00000024
#081371:00130033
#0813b1:0033
#0823b1:3323
#082371:00330000
#082360:1323
#082320:00330000
#0833b0:13
#083370:00230000
#083360:0013
#083320:00000023
#084370:13
#0843b0:00230000
#084361:00130000
#084321:0033
#084351:00000053
#085321:23
#0843b0:0013
#084380:00000053
#0853b0:23
#087360:13230000
#087340:00001323
#088320:13230000
#089380:13230000
#089350:00001323
#090380:13230000
#090350:00001323
#093370:13000023
#0933b0:0000005300000000
#0943b0:13
#094380:00230000
#094321:13
#094351:00230000
#094321:0013
#094351:00000023
#0943b0:0013
#094380:00000023
#095320:13
#095360:00230000
#095360:000000000000000000000013
#096320:0023
#0953b1:000000000000000000000013
#096371:0023
#097321:12
#097361:0032
#098321:32
#098361:0032
#099321:22
#0973c0:1222
#0983a0:1222
#099380:120000000022000000000000
#099320:000000000000000000000012
#100320:002200
#100381:001200
#100391:0000003200000000
#1003a1:000000000032000000000000
#1003b1:000000000000000000000032000000000000000000000000
#1003c1:0022
