This file was generated by Ched 2.7.0.0.
#TITLE ""
#ARTIST ""
#DESIGNER ""
#DIFFICULTY 0
#PLAYLEVEL
#SONGID ""
#WAVE ""
#WAVEOFFSET 0
#JACKET ""
#REQUEST "ticks_per_beat 480"
#00002: 4
#BPM01: 200
#00008: 01
#TIL00: ""
#VOLUME: ""
#HISPEED 00
#MEASUREHS 00
#04815:00130013
#04818:13
#04812:0023
#0481b:0023
#04918:1313
#0491b:00230000
#04912:00230000
#0301b:13000013
#03015:00130013
#02912:00130000
#02918:00000013
#02915:0013
#04718:0013
#04715:00130000
#0471b:23000023
#04712:23000023
#04710:41
#0211b:13
#02115:13
#01315:00130000
#01318:000000000000000000000013
#01319:000013
#01313:00000013
#0131a:000000000013000000000000
#01314:0013
#0131b:002300000000
#01015:000013000013000000000000
#0101b:000000130000130000000013
#01012:00000013
#01018:000013
#05415:13
#05418:0013000000001300
#05412:0024
#05315:00131300
#0531a:24000024
#0381b:13
#03812:23
#03819:0033
#0381a:00330000
#03814:0033
#03813:00330000
#0261b:13000013
#02615:13000013
#02417:0014
#0241a:14
#02018:13000013
#0201b:0013
#02012:00000013
#02015:0013
#01715:00000013
#01718:0013
#0171b:00130000
#01712:24
#01512:000000000000000000000014
#0151b:0013
#01616:14
#0161a:000024
#01612:000024
#00718:0013
#00812:13
#00815:0013
#01218:000013000013000000000000
#01212:000000130000130000000013
#0121b:00000013
#01215:000013
#01415:00230013
#01412:13
#0141b:001300000000
#01418:0023
#01812:13000013
#0181b:13
#01818:00130000
#01815:0013
#02212:13
#02218:13
#02317:0014
#0231a:24
#02319:003400000034
#02318:003434
#03312:13
#03318:1313
#03315:00130000
#0331b:00000013
#03418:1313
#03412:13
#03415:00130000
#0341b:00000013
#03712:13
#03718:00130013
#03715:0013
#0371b:13
#03710:41
#0391b:13
#03912:130000000000000000000024
#0391a:000024
#03916:000000000024000000000000
#04116:0014
#0411a:14
#04118:00340034
#0441a:14
#04418:00140014
#04416:0014
#0451a:14
#04512:0014
#04514:00000014
#05015:0000000000000013
#05018:00000013
#0511b:13
#05218:0013
#05215:00130000
#05212:0013
#05615:0013
#05612:00130000
#0561a:24000024
#05715:13
#0571b:00000013
#05712:0024
#05818:1313
#05812:00240000
#06515:0013
#06518:00130013
#06512:00130000
#0661b:13
#06618:00000014
#06615:00130000
#06614:00000024
#06718:14
#0671a:0014
#06714:24
#06716:0024
#06816:1424
#06818:00140000
#0681a:0014
#06812:24
#06814:00240000
#07018:13000016
#07015:13
#0731b:13
#07315:1313
#07318:00130000
#07312:00000013
#0731f:21
#07415:1313
#0741b:13
#07418:00130000
#07412:00000013
#07410:41
#04316:14
#04314:00340000
#04212:0014
#04214:00000034
#04616:14
#04614:00140000
#04612:0014
#05518:1313
#05512:00240000
#05914:00140000
#05916:0014
#05912:24
#05918:00000024
#0601a:1424
#06018:00000014
#06010:0041
#06116:14
#06112:0014
#06114:00240000
#06214:00150000
#06217:0015
#0621f:11
#06212:25
#06219:00000025
#06317:15
#06314:00150015
#06312:0025
#06417:15
#06412:0025
#06419:00250000
#03212:13
#03215:00130000
#03218:13
#0321b:00130000
#03115:0013
#0311b:0013
#03112:13
#03118:13
#08612:13000013
#08618:00130013
#0851b:00130000
#08515:00000013
#08518:0013
#08510:41
#08212:13000013
#08218:13000013
#08118:00130000
#08112:00130000
#0881b:1323
#08818:00130000
#08815:1323
#08812:00130000
#08718:0013
#08712:0013
#0871b:13
#08715:13
#08412:00130013
#08415:1313
#08418:00130013
#0841b:1313
#08312:0013
#08318:0013
#0831b:13
#08315:23
#0281b:00130000
#02818:13
#02812:1313
#02815:00130000
#0271b:0013
#02718:13
#02715:0013
#02712:13
#02515:00130000
#0251b:00130000
#02510:41
#09412:13
#0941b:23
#09414:0033
#09413:00330000
#09419:0033
#0941a:00330000
#0931b:13
#09315:00130013
#09318:0013
#09312:13
#09512:130024
#0951b:13
#0951a:000000000000000000000024
#09516:000000000024000000000000
#09612:00000013
#06912:00130013
#06915:0013
#0691b:00130013
#06918:0013
#07712:13
#07718:00000013
#0781b:1313
#07815:1313
#07812:00130000
#07818:00130000
#08918:0023
#08912:23
#08915:00230000
#0891b:00000023
#07118:0026
#07112:26
#0361b:0023
#03616:0023
#03614:00230000
#03612:23
#03619:00230000
#03617:23
#0921a:0024
#09216:00240000
#09212:24
#0911a:0024
#09112:24
#09117:24
#09115:0024
#0721a:0024
#07216:00240000
#07212:2424
#09012:23
#09018:0023
#09015:00230000
#0901b:00000023
#07612:0023
#07617:0023
#07619:00230000
#0761b:23
#07614:00230000
#07616:23
#08017:23
#08012:23
#07912:23
#07917:23
#0791b:0023
#07916:0023
#1001b:000000000000000000000033000000000000000000000000
#1001a:000000000033000000000000
#10019:0000003300000000
#03055:00130000
#0215b:53
#02155:53
#02158:0000001300000000
#02152:0000001300000000
#0105b:000000000000000000000013
#0385b:23
#03852:23
#02457:0054
#0245a:54
#02058:13
#01656:54
#0155b:0013
#01552:13
#00852:53
#00855:0053
#01252:000000000000000000000013
#01455:00000053
#02252:63
#02258:63
#02255:0000001300000000
#0225b:0000001300000000
#02357:0024
#0235a:54
#0395b:13
#03952:13
#04156:0024
#0415a:64
#0455a:14
#04356:24
#04252:0054
#04652:0014
#0605a:14
#06152:0014
#03252:6313
#03255:00630000
#03258:6313
#0325b:00630000
#03155:0063
#0315b:0063
#08658:00130000
#0885b:5313
#08858:00530000
#08855:5313
#08852:00530000
#08758:0053
#08752:0053
#08452:00530023
#08455:5353
#08458:00530023
#0845b:5353
#08352:0053
#08358:0053
#0835b:53
#08355:53
#0285b:00630000
#02858:63
#02852:6363
#02855:00630000
#0275b:0063
#02758:63
#02755:0063
#02752:63
#09452:23
#0945b:23
#09552:13
#0955b:13
#06952:00530053
#06955:0053
#0695b:00630063
#06958:0063
#07055:53
#07058:63
#07752:63
#0535a:14000014
#07158:0016
#07152:16
#0365b:0013
#03656:0013
#0925a:0014
#09256:00140000
#09252:14
#0725a:0014
#07252:0014
#01752:14
#0565a:14000014
#05852:00140000
#05752:0014
#06452:0015
#07652:0013
#07657:0013
#05552:00140000
#05452:0014
#07952:53
#07957:53
#0795b:0063
#07956:0063
#00252:000000000000000000000013
#0045b:000000000000000000000013
#0255a:14
#04056:0014
#0805a:00000014
#08055:00000014
#001320:130033330000000033330000
#001350:000000000033330000000033
#002350:330000000033330000000000
#002320:000033330000000033000023
#0033b0:000013330000000033330000
#003380:000000000033330000000033
#004380:330000000033330000000000
#0043b0:000033330000000033330023
#005350:000013330000000033330000
#005320:000000000033330000000033
#006320:330000000033330000000033
#006350:000033330000000033330000
#007320:23
#008320:13
#008350:0033
#009320:23
#0093b0:000013000000000033330000
#009380:000000000033330000000033
#010380:23
#011320:000013000000000033330000
#011350:000000000033330000000033
#012350:23
#014350:00000013
#015320:23
#016360:14
#0163a0:000000000024000000000000
#019380:13
#0193b0:00230000
#019350:0013
#019320:00000023
#0213b0:13
#021380:0000332300000000
#021351:13
#021321:0000332300000000
#022321:13
#022351:0000332300000000
#022380:13
#0223b0:0000332300000000
#0233a0:14
#023390:003400000034
#023380:003434
#023370:0034
#0243a0:34
#024370:0034
#0253a0:24
#025380:00001323
#025321:00001323
#026381:00132300
#026320:00132300
#027380:13000053
#0273b0:00533300
#028380:3333
#0283b0:00330000
#029380:23
#027321:13000053
#027351:00533300
#028321:3333
#028351:00330053
#029351:23
#031351:0013
#032321:3323
#032351:00330000
#0313b0:0013
#032380:3323
#0323b0:00330000
#035360:13230000
#0353b1:13230000
#035391:00001323
#035340:00001323
#0383b0:13
#0383a0:00330000
#038390:0033
#038380:00000023
#038321:13
#038331:00330000
#038341:0033
#038351:00000023
#039321:000000000000000000000014
#040361:0024
#0413a1:14
#041381:00340034
#041361:0034
#0423a1:24
#042321:0014
#042341:00000034
#043361:34
#043341:00340000
#043321:0024
#050321:1323
#050361:00330000
#0513b1:0013
#051371:00000033
#0523b1:23
#069321:00130033
#069351:0033
#070351:33
#070321:00230000
#0693b0:00130033
#069380:0033
#070380:33
#0703b0:00230000
#075370:13230000
#075321:13230000
#075341:00001323
#075390:00001323
#077320:13
#077350:0023
#079320:13
#079360:00230000
#079371:13
#0793b1:00230000
#0793b1:0013
#079371:00000023
#079360:0013
#079320:00000023
#080370:1334
#0803b0:00330000
#0803a0:00000024
#080321:1334
#080361:00330000
#080351:00000024
#081351:00001323
#0813b0:00001323
#082350:00132300
#0823b1:00132300
#083351:13000053
#083321:00533300
#084351:3333
#084321:00330053
#085351:23
#0833b0:13000053
#083380:00533300
#0843b0:3333
#084380:00330053
#0853b0:23
#087380:0013
#0883b0:3323
#088380:00330000
#087321:0013
#088351:3323
#088321:00330000
#094321:13
#094331:00330000
#094341:0033
#094351:00000023
#0943b0:13
#0943a0:00330000
#094390:0033
#094380:00000023
#0953a0:000000000000000000000014
#096360:0024
#097320:1323
#098350:1323
#099380:130000000033000033000033
#100380:003300
#100390:0000003300000000
#1003a0:000000000033000000000000
#1003b0:000000000000000000000033230000000000000000000000
