This file was generated by Ched 2.7.0.0.
#TITLE ""
#ARTIST ""
#DESIGNER ""
#DIFFICULTY 0
#PLAYLEVEL
#SONGID ""
#WAVE ""
#WAVEOFFSET 0
#JACKET ""
#REQUEST "ticks_per_beat 480"
#00002: 4
#BPM01: 200
#00008: 01
#TIL00: ""
#VOLUME: ""
#HISPEED 00
#MEASUREHS 00
#06412:12262613
#06415:0000000000000013
#06418:00000000000000000000000000130000
#0641b:120000001200000012000000120000001200000012000000120000001200000012000000000000000000000000130000
#0641a:001400140014001400140014001400140014000000000000
#04812:13000013
#04816:00131300
#04817:13000013
#04819:0000000000000013
#04814:0013000000000000
#0481b:0023
#0491b:1300001300001300
#04917:00130000
#04915:0013
#04912:00230013
#04716:00130023
#04712:13
#0471b:00130013
#04719:0000001300000000
#04717:2313
#04710:41
#02918:0013
#02912:1c00001300001300
#0291b:0000130000130000
#02916:00130000
#06818:000000000026000000160000
#06812:130000130000160016000016
#06712:000000000026000000160000
#06718:000000000000160016000016
#0671b:13130000
#06512:000000000026000000160000
#06518:000000000000160016000016
#0651c:00120000
#07216:280000000000281400141400
#0721a:000000140000000014000000
#07212:140000280000140000000014
#0411b:1313
#04116:0013
#04112:00130013
#04114:0000001300000000
#04117:00130013
#04115:23
#04416:13
#0441b:23131300
#04412:00001323
#04418:0000001300000000
#04415:0000000000130000
#04417:00000013
#03616:001400000000
#03614:00140000
#03618:00242600
#03612:0026
#03617:22
#02112:190000000000000000160000000000000022000000000000
#02115:00130000
#0211b:13
#02116:0000000000220000
#01318:000023130000000000000000
#01312:000000000000000013130000
#0131b:000000000013130000000000
#01315:000000000000000000000013
#00916:000000131300
#00919:000000000015000000150000
#00915:000025000000000000000015
#00912:13
#01012:130013000000000000000013
#01016:000000131300
#01017:000000000000000000000013
#01015:00150000
#01019:000000000015000000150000
#0101b:13
#05416:14000014
#05414:00140000
#0541b:0000000000130000
#05417:0013
#05415:0014000000000000
#05412:0024
#05314:0014
#05316:00140000
#0531b:0013000000000013
#05317:13000013
#05312:24000024
#03817:00130000
#03812:1313
#0381b:00132300
#03716:00001313
#0371b:00130013
#03717:13130000
#03712:13
#03710:41
#03517:00131300
#03516:13000013
#03512:23
#0351b:0023
#03216:140014000000130000130000
#0321b:13130000
#03212:0013
#03114:000000141400
#03112:141400000000
#03117:13130000
#03119:00001313
#02416:000000000000000000000000000000000000000000000000000000000000000000000000000000000000000000000000000000000000000000000000000000000000000000000000000000000000000000000000000000000000000000000000000000000000000000000000000000000000000000000000000000000000000000000000000000000000000000000000000000000000000000000000000000000000000000000000000000000000000000000000000000000000000000000000000000000000000000000000000000000000000000000000000000000000000000000000000000000000000000000000000000000000000000000000000000000000000000000000000000000000000000000000000000000000000000000000000000000000000000000000000000000000000000000000000000000000000000000000000000000000000000000000000000000000000000000000000000000000000000000000000000000000000000000000000000000000000000000000000000000000000000000000000000000000000000000000000000000000000000000000000000000000000000000000000000000000000000000000000000000000000000000000000000000000000000000000000000000000000000000000000000000000000000000000000000000000000000000000000000000000000000000000000000000000000000000000000000000000000000000000000000000000000000000000000000000000000000000000000000000000000000000000000000000000000000000000000000000000000000000000000000000000000000000000000000000000000000000000000000000000000000000000000000000000000000000000000000000000000000000000000000000000000000000000000000000000000000000000000000000000000000000000000000000000000000000000000000000000000000000000000000000000000000000000000000000000000000000000000000000000000000000000000000000000000000000000000000000000000000000000000000000000000000000000000000000000000000000000000000000000000000000000000000000000000000000000000000000000000000000000000000000000000000000000000000000000000000000000000000000000000000000000000000000000000000000000000000000000000000000000000000000000000000000000000000000000000000000000000000000000000000000000000000000000000000000000000000000000000000000000141400000000000000000000000000000000000000000000000000000000000000000000000000000000000000000000000000000000000000000000000000000000000000000000000000000000000000000000000000000000000000000000000000000000000000000000000000000000000000000000000000000000000000000000000000000000000000000000000000000000000000000000000000000000000000000000000000000000000000000000000000000000000000000000000000000000000000000000000000000000000000000000000000000000000000000000000000000000000000000000000000000000000000000000000000000000000000000000000000000000000000000000000000000000000000000000000000000000000000000000000000000000000000000000000000000000000000000000000000000000000000000000000000000000000000000000000000000000000000000000000000000000000000000000000000000000000000000000000000000000000000000000000000000000000000000000000000000000000000000000000000000000000000000000000000000000000000000000000000000000000000000000000000000000000000000000000000000000000000000000000000000000000000000000000000000000000000000000000000000000000000000000000000000000000000000000000000000000000000000000000000000000000000000000000000000000000000000000000000000000000000000000000000000000000000000000000000000000000000000000000000000000000000000000000000000000000000000000000000000000000000000000000000000000000000000000000000000000000000000000000000000000000000000000000000000000000000000000000000000000000000000000000000000000000000000000000000000000000000000000000000000000000000000000000000000000000000000000000000000000000000000000000000000000000000000000000000000000000000000000000000000000000000000000000000000000000000000000000000000000000000000000000000000000000000000000000000000000000000000000000000000000000000000000000000000000000000000000000000000000000000000000000000000000000000000000000000000000000000000000000000000000000000000000000000000000000000000000000000000000000000000000000000000000000000000000000000000000000000000000
#02412:160000000000000000000000003333333333000000000000
#02418:26
#0151b:00000013
#01512:000000130018130000000000
#01517:001300130000
#01516:130000000000000013000018
#00715:000000131300
#0071b:00000013
#00718:130013000013000000000013
#00712:00130000
#00515:000000000000000000000013
#00512:000013
#0051b:000000000013000000000000
#00518:001300000000
#0011b:000000000013000000000013
#00118:001300001300
#0021b:000000000013000000000000
#00218:001300001300
#00215:00000013
#00212:000000000000000000000013
#0141b:00230013
#01415:130000230013000000230000
#01416:0000000000000014
#01418:001300231300
#01412:0023
#00312:000000000013000000000013
#00315:001300001300
#00412:000000000013000000000000
#00415:001300001300
#00418:00000013
#0041b:000000000000000000000013
#00615:000000000000000000000013
#00612:000013
#0061b:000000000013000000000000
#00618:001300000000
#0081b:000000131300
#00815:000000000013000000130000
#00812:131300000000
#00818:000000130000000000000013
#01817:1313
#0181b:00130013
#01816:00130013
#01812:0013
#02312:162616261626
#02318:261626162616
#0421b:00130013
#04212:00131300
#04219:0000000000000013
#04216:00000013
#04218:0023
#04512:00132313
#0451b:00130000
#04517:0013
#04515:0000000000000013
#0391b:130023
#03918:000013130000000000000000
#03915:000000000013000000000000000000000000000000000000
#03912:130000000023000000000023
#03917:000000000023000023000023
#01616:130000140024000000000000
#0161b:13
#0161a:000024
#01612:000024
#02215:19
#02218:0000131600220000
#02212:13
#0221c:000000000000000000000000000000000022000000000000
#02716:130000130000130013000000
#02712:131300000000
#0271b:00000013
#02812:131300000000
#0281a:0014
#02816:00132400
#03416:0013
#0341b:00000013
#03417:22130000
#03412:0013
#04017:000000000000000000140000000000000000000000000000000000000000000000000000000000001300000000000000
#0401b:0013
#04016:000000000000001300000000
#04019:000013
#04014:00000013
#04012:000000000000000000000013
#04612:13000013
#0461b:13230013
#04618:0013000000000000
#04616:00130000
#05112:00130013
#0511b:1313
#05117:00000013
#05116:0013
#05016:00130013
#05017:1300000013000013
#05012:1313
#0501b:00130000
#05517:00130000
#05514:14
#05516:0014
#05512:00240014
#05518:0000000000140000
#0551a:00000014
#05716:14001314
#05718:00140000
#05712:0000000000130000
#05717:0014000000000000
#0571a:0024
#05618:0014
#05616:13140013
#05612:0013000000000013
#0561a:24000024
#05816:00131400
#05818:14
#0581a:00240014
#05814:0000000000140000
#05812:00000014
#06618:000000000026000000160000
#06612:120000120000160016000016
#07312:1c001c160000000000000000
#0731c:0012
#07317:00002212
#07318:00260000
#0731f:21
#09912:120012
#0991c:000000000012000012000000
#09917:000000000000000000000012
#07712:131300000000
#07717:00130000
#0771b:000000131300
#07716:00000013
#08015:0015000000000000
#08017:0000001500000000
#08012:0000250000162600
#08019:25
#08018:0026
#08112:1c13
#0811b:00130000
#08117:00130013
#08918:000013000000000000000013
#0891b:000000000013000013000000
#08912:2326292c
#09015:000013000000290000000013
#09012:0000000000130000132c0000
#0901b:23
#09018:00260000
#0171b:00130013
#01717:0013
#01712:26
#01718:26
#01912:1313
#01916:0013000000130000
#01917:0000130000000013
#0191b:0000001300001300
#02012:130000130000000000000013
#0201b:00131300
#02016:000000000000001300000000
#02019:000013
#02014:00000013
#02017:000000000013
#02615:000000161600
#0261b:130000000013000000130000
#02612:00000013
#02616:00130000
#04317:13
#04312:13000013
#04316:00130000
#0431b:00130013
#05918:0000001300130000
#05912:2c16162c
#0591b:00131300
#06017:13
#06012:13132c13
#0601b:00130000
#06015:0000000000000013
#06018:00000016
#06010:0041
#06216:00120000
#06212:26001226
#06214:0000001200000000
#0621b:121212121212121212121212
#0621a:001400140014001400140014001400140014001400140014
#0621f:11
#06312:1226
#06316:00120012
#06314:0012000000000012
#0631b:121212121212121212121212
#0631a:001400140014001400140014001400140014001400140014
#06116:0013
#06112:132c0013
#0611b:0013
#06118:16000022
#06115:0013000000000000
#07018:160016160000000000000000
#07012:260000000016000000002c00000000002c001c0000000000
#06918:16
#06912:00262626
#07616:001400000000
#07618:000000140000260000001300
#07615:000000000000000000130013
#07612:0026
#07614:00240000
#07617:22
#07812:141400000000
#07816:00140014
#0781a:000000141400
#07916:00140014
#0791a:24000024
#07912:24242400
#08816:141400000000
#08812:13130000
#0881b:00000013
#08818:000000000013
#08815:000000000000000000000013
#0881a:0024
#08817:0023
#08718:000000141400
#0871a:141400000000
#08716:13130000
#08714:00001313
#0831b:231300000000
#08317:130000130000230013000000
#08312:00000023
#0841b:231300000000
#08417:00130000
#08412:0014
#08416:000000000000000000000000000000000000000000000000000000000000000000000000000000000000000000000000000000000000000000000000000000000000000000000000000000000000000000000000000000000000000000000000000000000000000000000000000000000000000000000000000000000000000000000000000000000000000000000000000000000000000000000000000000000000000000000000000000000000000000000000000000000000000000000000000000000000000000000000000000000000000000000000000000000000000000000000000000000000000000000000000000000000000000000000000000000000000000000000000000000000000000000000000000000000000000000000000000000000000000000000000000000000000000000000000000000000000000000000000000000000000000000000000000000000000000000000000000000000000000000000000000000000000000000000000000000000000000000000000000000000000000000000000000000000000000000000000000000000000000000000000000000000000000000000000000000000000000000000000000000000000000000000000000000000000000000000000000000000000000000000000000000000000000000000000000000000000000000000000000000000000000000000000000000000000000000000000000000000000000000000000000000000000000000000000000000000000000000000000000000000000000000000000000000000000000000000000000000000000000000000000000000000000000000000000000000000000000000000000000000000000000000000000000000000000000000000000000000000000000000000000000000000000000000000000000000000000000000000000000000000000000000000000000000000000000000000000000000000000000000000000000000000000000000000000000000000000000000000000000000000000000000000000000000000000000000000000000000000000000000000000000000000000000000000000000000000000000000000000000000000000000000000000000000000000000000000000000000000000000000000000000000000000000000000000000000000000000000000000000000000000000000000000000000000000000000000000000000000000000000000000000000000000000000000000000000000000000000000000000000000000000000000000000000000000000000000000000000000000000000000000000000000000000000000000000000000000000000000000000000000000000000000000000000000000000000000000000000000000000000000000000000000000000000000000000000000000000000000000000000000000000000000000000000000000000000000000000000000000000000000000000000000000000000000000000000000000000000000000000000000000000000000000000000000000000000000000000000000000000000000000000000000000000000000000000000000000000000000000000000000000000000000000000000000000000000000000000000000000000000000141400000000000000000000000000000000000000000000000000000000000000000000000000000000000000000000000000000000000000000000000000000000000000000000000000000000000000000000000000000000000000000000000000000000000000000000000000000000000000000000000000000000000000000000000000000000000000000000000000000000000000000000000000000000000000000000000000000000000000000000000000000000000000000000000000000000000000000000000000000000000000000000000000000000000000000000000000000000000000000000000000000000000000000000000000000000000000000000000000000000000000000000000000000000000000000000000000000000000000000000000000000000000000000000000000000000000000000000000000000000000000000000000000000000000000000000000000000000000000000000000000000000000000000000000000000000000000000000000000000000000000000000000000000000000000000000000000000000000000000000000000000000000000000000000000000000000000000000000000000000000000000000000000000000000000000000000000000000000000000000000000000000000000000000000000000000000000000000000000000000000000000000000000000000000000000000000000000000000000000000000000000000000000000000000000000000000000000000000000000000000000000000000000000000000000000000000000000000000000000000000000000000000000000000000000000000000000000000000000000000000000000000000000000000000000000000000000000000000000000000000000000000000000000000000000000000000000000000000000000000000000000000000000000000000000000000000000000000000000000000
#0841a:0024
#09112:23002319
#09115:00190000
#0911b:23
#09118:0023
#09416:00130000
#0941b:1313
#09412:00132300
#09317:00001313
#09312:00130013
#09316:13130000
#0931b:13
#09512:130023
#09515:000013130000000000000000
#09518:000000000013000000000000000000000000000000000000
#0951b:130000000023000000000023
#09516:000000000023000023000023
#09615:00000014000000001300000000000000
#09618:000000000000001300000000
#0961b:000013
#09616:00000012
#09619:000000000012
#09614:000000000000000000000012
#09212:13
#09215:23130000
#09218:00231300
#0921b:0023
#01117:000000131300
#01112:000000000015000000150000
#01116:000025000000000000000015
#0121b:130013000000000000000013
#01217:000000131300
#01216:000000150000000000000013
#01212:130000000015000000150000
#0521b:13000013
#05217:00130000
#05216:1300001300000000
#05212:0013
#07516:00131300
#07517:13000013
#0751b:23
#07512:0023
#07417:2213
#07412:00000013
#07416:00130000
#0741b:0013
#07410:41
#03312:1212
#03317:22122212
#08212:130000000013000000130000
#08217:00130000
#08215:000000161600
#0821b:00000013
#09712:12
#09717:12121200
#0971c:00120000
#0981c:1212
#09817:12120000
#09812:00120000
#02512:00130000
#0251b:0013
#02516:00130013
#02510:41
#0301b:13000013
#03012:00130000
#03017:00000013
#03016:00130000
#08515:0013
#08512:2c00130000130000
#08517:00130000
#0851b:0000001300001300
#08510:41
#08612:13000013
#0861b:00130000
#08616:00000013
#08617:00130000
#07112:0026
#07118:26
#10013:0000003200000000
#10014:000000000032000000000000
#10015:000000000000000000000032000000000000000000000000
#10018:0000003200000000
#10019:000000000032000000000000
#1001a:000000000000000000000032000000000000000000000000
#04852:00000023
#04856:0063
#04857:23
#0495b:0000002300000000
#04957:00530000
#04955:0013
#04958:0013
#04756:00230000
#04752:53
#0475b:00000063
#02958:0063
#02952:1c00002300006300
#02956:00630000
#0295b:0000000000230000
#0415b:6363
#04157:00630063
#04152:00000063
#04456:53
#04457:00000053
#04452:00000053
#02152:5900001600000000
#01057:000000000000000000000043
#01052:000000000000000000000033
#0535b:0023000000000023
#05357:53000053
#05352:34000034
#03857:00230000
#03852:6363
#0385b:0053
#03557:00135300
#03556:53000013
#03552:00000013
#0355b:00130000
#02456:000000000000000000000000000000000000000000000000000000000000000000000000000000000000000000000000000000000000000000000000000000000000000000000000000000000000000000000000000000000000000000000000000000000000000000000000000000000000000000000000000000000000000000000000000000000000000000000000000000000000000000000000000000000000000000000000000000000000000000000000000000000000000000000000000000000000000000000000000000000000000000000000000000000000000000000000000000000000000000000000000000000000000000000000000000000000000000000000000000000000000000000000000000000000000000000000000000000000000000000000000000000000000000000000000000000000000000000000000000000000000000000000000000000000000000000000000000000000000000000000000000000000000000000000000000000000000000000000000000000000000000000000000000000000000000000000000000000000000000000000000000000000000000000000000000000000000000000000000000000000000000000000000000000000000000000000000000000000000000000000000000000000000000000000000000000000000000000000000000000000000000000000000000000000000000000000000000000000000000000000000000000000000000000000000000000000000000000000000000000000000000000000000000000000000000000000000000000000000000000000000000000000000000000000000000000000000000000000000000000000000000000000000000000000000000000000000000000000000000000000000000000000000000000000000000000000000000000000000000000000000000000000000000000000000000000000000000000000000000000000000000000000000000000000000000000000000000000000000000000000000000000000000000000000000000000000000000000000000000000000000000000000000000000000000000000000000000000000000000000000000000000000000000000000000000000000000000000000000000000000000000000000000000000000000000000000000000000000000000000000000000000000000000000000000000000000000000000000000000000000000000000000000000000000000000000000000000000000000000000000000000000000000000000000000000000000000000000000000000000000546400000000000000000000000000000000000000000000000000000000000000000000000000000000000000000000000000000000000000000000000000000000000000000000000000000000000000000000000000000000000000000000000000000000000000000000000000000000000000000000000000000000000000000000000000000000000000000000000000000000000000000000000000000000000000000000000000000000000000000000000000000000000000000000000000000000000000000000000000000000000000000000000000000000000000000000000000000000000000000000000000000000000000000000000000000000000000000000000000000000000000000000000000000000000000000000000000000000000000000000000000000000000000000000000000000000000000000000000000000000000000000000000000000000000000000000000000000000000000000000000000000000000000000000000000000000000000000000000000000000000000000000000000000000000000000000000000000000000000000000000000000000000000000000000000000000000000000000000000000000000000000000000000000000000000000000000000000000000000000000000000000000000000000000000000000000000000000000000000000000000000000000000000000000000000000000000000000000000000000000000000000000000000000000000000000000000000000000000000000000000000000000000000000000000000000000000000000000000000000000000000000000000000000000000000000000000000000000000000000000000000000000000000000000000000000000000000000000000000000000000000000000000000000000000000000000000000000000000000000000000000000000000000000000000000000000000000000000000000000000000000000000000000000000000000000000000000000000000000000000000000000000000000000000000000000000000000000000000000000000000000000000000000000000000000000000000000000000000000000000000000000000000000000000000000000000000000000000000000000000000000000000000000000000000000000000000000000000000000000000000000000000000000000000000000000000000000000000000000000000000000000000000000000000000000000000000000000000000000000000000000000000000000000000000000000000000000000000000000000000
#02452:56
#02458:56
#0075b:00000013
#00752:00130000
#0145b:00000063
#01456:0000000000000024
#0045b:000000000000000000000013
#00252:000000000000000000000013
#00855:00000013
#00858:00130000
#01857:6363
#0185b:00230023
#0395b:13
#03952:130000000000000000000053
#01552:0033
#01557:0043
#01556:33
#0155b:43
#01656:53
#01652:000000000013000000000000
#02255:69
#02258:0000001600000000
#0285a:0054
#02856:00535400
#0275b:00000053
#02756:00530000
#03157:00430000
#03159:00000043
#0325b:00430000
#03252:0033
#03256:0053
#03456:0053
#0345b:00000053
#03457:52530000
#03452:0053
#03757:00230000
#03752:63
#0375b:00000023
#03756:0063
#04057:00000024000000000000000000000000
#04557:0063
#0455b:13
#04556:13
#05056:00000053
#05057:5353
#0505b:00530000
#05557:00530000
#05552:00340000
#0545b:0000000000230000
#05457:0053
#05452:0034
#05652:0023000000000023
#05656:63000063
#0565a:44000044
#05856:00630000
#0585a:00440000
#05752:0000000000230000
#05756:0063
#0575a:0044
#07352:00360000
#0735c:0062
#07357:00006222
#07358:00460000
#07757:00130000
#07756:00000013
#08055:0025000000000000
#08057:0000002500000000
#08052:3400550035263600
#08059:65450000
#08058:00006646
#08152:1c
#01952:5353
#01956:0023000000230000
#01957:0000530000000023
#0195b:0000002300006300
#02052:33330000
#0205b:43430000
#0265b:00000013
#02652:00000013
#04252:0053
#04256:13000053
#0425b:13
#04352:5313
#04356:00530000
#0435b:00530000
#04357:0013
#04656:00630000
#0465b:00630000
#04652:0013
#04657:0013
#06057:13
#06052:13
#06156:0013
#0615b:0013
#06158:00000052
#07058:46
#07052:3600001c
#06958:56
#07856:00140014
#07956:00240024
#07952:3454
#0795a:5444
#08457:00630000
#08452:0064
#08456:000000000000000000000000000000000000000000000000000000000000000000000000000000000000000000000000000000000000000000000000000000000000000000000000000000000000000000000000000000000000000000000000000000000000000000000000000000000000000000000000000000000000000000000000000000000000000000000000000000000000000000000000000000000000000000000000000000000000000000000000000000000000000000000000000000000000000000000000000000000000000000000000000000000000000000000000000000000000000000000000000000000000000000000000000000000000000000000000000000000000000000000000000000000000000000000000000000000000000000000000000000000000000000000000000000000000000000000000000000000000000000000000000000000000000000000000000000000000000000000000000000000000000000000000000000000000000000000000000000000000000000000000000000000000000000000000000000000000000000000000000000000000000000000000000000000000000000000000000000000000000000000000000000000000000000000000000000000000000000000000000000000000000000000000000000000000000000000000000000000000000000000000000000000000000000000000000000000000000000000000000000000000000000000000000000000000000000000000000000000000000000000000000000000000000000000000000000000000000000000000000000000000000000000000000000000000000000000000000000000000000000000000000000000000000000000000000000000000000000000000000000000000000000000000000000000000000000000000000000000000000000000000000000000000000000000000000000000000000000000000000000000000000000000000000000000000000000000000000000000000000000000000000000000000000000000000000000000000000000000000000000000000000000000000000000000000000000000000000000000000000000000000000000000000000000000000000000000000000000000000000000000000000000000000000000000000000000000000000000000000000000000000000000000000000000000000000000000000000000000000000000000000000000000000000000000000000000000000000000000000000000000000000000000000000000000000000000000000000000000000000000000000000000000000000000000000000000000000000000000000000000000000000000000000000000000000000000000000000000000000000000000000000000000000000000000000000000000000000000000000000000000000000000000000000000000000000000000000000000000000000000000000000000000000000000000000000000000000000000000000000000000000000000000000000000000000000000000000000000000000000000000000000000000000000000000000000000000000000000000000000000000000000000000000000000000000000000000000000000000000242400000000000000000000000000000000000000000000000000000000000000000000000000000000000000000000000000000000000000000000000000000000000000000000000000000000000000000000000000000000000000000000000000000000000000000000000000000000000000000000000000000000000000000000000000000000000000000000000000000000000000000000000000000000000000000000000000000000000000000000000000000000000000000000000000000000000000000000000000000000000000000000000000000000000000000000000000000000000000000000000000000000000000000000000000000000000000000000000000000000000000000000000000000000000000000000000000000000000000000000000000000000000000000000000000000000000000000000000000000000000000000000000000000000000000000000000000000000000000000000000000000000000000000000000000000000000000000000000000000000000000000000000000000000000000000000000000000000000000000000000000000000000000000000000000000000000000000000000000000000000000000000000000000000000000000000000000000000000000000000000000000000000000000000000000000000000000000000000000000000000000000000000000000000000000000000000000000000000000000000000000000000000000000000000000000000000000000000000000000000000000000000000000000000000000000000000000000000000000000000000000000000000000000000000000000000000000000000000000000000000000000000000000000000000000000000000000000000000000000000000000000000000000000000000000000000000000000000000000000000000000000000000000000000000000000000000000000000000000000000
#0845a:0054
#08357:00630000
#08352:00000053
#08756:00330000
#08754:00000033
#08852:00330000
#0885a:0044
#08857:0063
#09152:00000049
#09155:00490000
#09456:00230000
#0945b:5353
#09452:0063
#09552:13
#0955b:130000000000000000000063
#09356:00230000
#0935b:53
#09352:00000023
#09357:0053
#09655:00000024000000000000000000000000
#01256:000000000000000000000033
#0125b:000000000000000000000043
#0515b:53
#05152:13000063
#05156:0063
#05257:00630000
#05256:63
#05252:0063
#0525b:0013
#0625b:525252525252525252525252
#0625a:002400240024002400240024002400240024002400240024
#0635b:525252525252525252525252
#0635a:002400240024002400240024002400240024002400240024
#0645b:525252525252525252000000
#0645a:002400240024002400240024002400240024000000000000
#06452:0016
#07556:00136300
#07557:63000013
#0755b:00000013
#07552:00130000
#07457:6263
#07452:00000063
#07456:00630000
#0745b:0063
#03352:5252
#03357:52225222
#09752:52
#09757:52225200
#0975c:00220000
#0985c:6262
#09857:62220000
#09852:00220000
#0825b:00000013
#08252:00000013
#0305b:53
#03052:00330000
#03056:00530000
#03057:33
#08555:0053
#08557:00530000
#0855b:0000002300005300
#08552:1c00000000230000
#08652:63
#0865b:00430000
#08657:00630000
#08656:43
#09952:52
#07152:0036
#07158:46
#03658:0046
#03652:0036
#07256:4848
#07252:00380000
#01752:36
#01758:46
#09255:43
#09258:00430000
#0925b:0043
#07652:0036
#07658:0046
#0255b:13
#02552:13
#001320:132300000000
#001350:000000130023000000000000
#001320:000000132300
#001350:000000000000000000130023
#002320:132300000000
#002350:000000130023000000000000
#002320:000000132300
#0033b0:132300000000
#003380:000000130023000000000000
#0033b0:000000132300
#003380:000000000000000000130023
#0043b0:132300000000
#004380:000000130023000000000000
#0043b0:000000132300
#005320:132300000000
#005350:000000130023000000000000
#005380:000000132300
#0053b0:000000000000000000130023
#006320:132300000000
#006350:000000130023000000000000
#006380:000000132300
#0063b0:000000000000000000130023
#009320:001300000000
#009360:000000000023000000000000
#0113b0:001300000000
#011370:000000000023000000000000
#013320:000013230000000000000000
#013350:000000000013230000000000
#013380:000000000000000013230000
#0133b0:000000000000000000000013
#0143b0:23
#0143b0:00000013
#014360:0000000000000054
#0153b0:23
#016360:13
#016320:000000530023000000000000
#017360:00130033
#017320:0033
#018320:23
#018371:1333
#0183b1:00330033
#019371:23
#019320:13230000
#019360:0053000000000000
#019371:00132300
#0193b1:0000005300000000
#019320:00001323
#019360:0000000000530000
#0193b1:00000013
#019371:0000000000000053
#0203b1:23
#021321:19230000
#022351:19
#0223b1:00230000
#024381:16
#024361:0034
#0243b1:00000053
#0253b1:23
#024320:160000000000000000000000003333333333333333333333
#024360:000000000000000000000000000000000000000000000000000000000000000000000000000000000000000000000000000000000000000000000000000000000000000000000000000000000000000000000000000000000000000000000000000000000000000000000000000000000000000000000000000000000000000000000000000000000000000000000000000000000000000000000000000000000000000000000000000000000000000000000000000000000000000000000000000000000000000000000000000000000000000000000000000000000000000000000000000000000000000000000000000000000000000000000000000000000000000000000000000000000000000000000000000000000000000000000000000000000000000000000000000000000000000000000000000000000000000000000000000000000000000000000000000000000000000000000000000000000000000000000000000000000000000000000000000000000000000000000000000000000000000000000000000000000000000000000000000000000000000000000000000000000000000000000000000000000000000000000000000000000000000000000000000000000000000000000000000000000000000000000000000000000000000000000000000000000000000000000000000000000000000000000000000000000000000000000000000000000000000000000000000000000000000000000000000000000000000000000000000000000000000000000000000000000000000000000000000000000000000000000000000000000000000000000000000000000000000000000000000000000000000000000000000000000000000000000000000000000000000000000000000000000000000000000000000000000000000000000000000000000000000000000000000000000000000000000000000000000000000000000000000000000000000000000000000000000000000000000000000000000000000000000000000000000000000000000000000000000000000000000000000000000000000000000000000000000000000000000000000000000000000000000000000000000000000000000000000000000000000000000000000000000000000000000000000000000000000000000000000000000000000000000000000000000000000000000000000000000000000000000000000000000000000000000000000000000000000000000000000000000000000000000000000000000000000000000000000000000000000000000000003400000000000000000000000000000000000000000000000000000000000000000000000000000000000000000000000000000000000000000000000000000000000000000000000000000000000000000000000000000000000000000000000000000000000000000000000000000000000000000000000000000000000000000000000000000000000000000000000000000000000000000000000000000000000000000000000000000000000000000000000000000000000000000000000000000000000000000000000000000000000000000000000000000000000000000000000000000000000000000000000000000000000000000000000000000000000000000000000000000000000000000000000000000000000000000000000000000000000000000000000000000000000000000000000000000000000000000000000000000000000000000000000000000000000000000000000000000000000000000000000000000000000000000000000000000000000000000000000000000000000000000000000000000000000000000000000000000000000000000000000000000000000000000000000000000000000000000000000000000000000000000000000000000000000000000000000000000000000000000000000000000000000000000000000000000000000000000000000000000000000000000000000000000000000000000000000000000000000000000000000000000000000000000000000000000000000000000000000000000000000000000000000000000000000000000000000000000000000000000000000000000000000000000000000000000000000000000000000000000000000000000000000000000000000000000000000000000000000000000000000000000000000000000000000000000000000000000000000000000000000000000000000000000000000000000000000000000000000000000000000000000000000000000000000000000000000000000000000000000000000000000000000000000000000000000000000000000000000000000000000000000000000000000000000000000000000000000000000000000000000000000000000000000000000000000000000000000000000000000000000000000000000000000000000000000000000000000000000000000000000000000000000000000000000000000000000000000000000000000000000000000000000000000000000000000000000000000000000000000000000000000000000000000000000000000000000000000000000000000000
#025320:23
#025360:000000000013230000000000
#025320:000000000000000013230000
#025360:000000000000000000000013
#026360:23
#026320:000013230000000000000000
#027360:00130000
#0273b0:0023
#0273b0:00000013
#028360:23
#028360:0000130000542400
#0283a0:0034
#028361:0014
#028321:0000000000542400
#029361:00130000
#029321:0000005300000000
#029351:0023
#029380:0013
#0293b0:0000000000530000
#029370:00000023
#029321:00000013
#030371:23
#0303b0:1323
#030360:00330000
#032360:0013
#0323b0:00000023
#033370:12
#0333c0:00220000
#033321:1232
#033371:00320032
#034321:22
#033370:0012
#0333c0:00000022
#034370:12
#0343c0:00220000
#034371:00130023
#034321:0033
#034360:0013
#0343b0:00000033
#035360:33
#0353b0:00230000
#035370:0013
#035320:00000023
#037320:1323
#037370:00530000
#037361:0013
#0373b1:00000053
#038361:23
#038320:1333
#038370:00330000
#038350:0000000000532300
#0383b1:0013
#038381:0000000000532300
#039321:000000000000000000000013
#040371:00000054000000000000000000000000
#040321:0023
#0413b1:1333
#041371:00330033
#0423b1:23
#041320:00000013
#042360:23
#042320:0013
#042360:00000033
#043320:3323
#043360:00330000
#0433b1:00130000
#043371:0023
#044361:13
#044321:00230000
#044371:00000013
#0443b1:000000000053
#0453b1:23
#044320:00000013
#044360:000000000053
#045360:23
#045370:0013
#0453b0:00000023
#046360:00130000
#046320:000053230000
#0463b1:00130000
#046371:000053230000
#047321:1323
#047361:00330000
#0473b1:00000013
#048371:33
#0483b1:00230000
#048361:0013
#048321:00000033
#049361:23
#049371:00130000
#0493b1:0000005300000000
#049381:0023
#050371:1300005333000000
#0503b1:0053330000532300
#050360:00000013
#050320:0000000000000053
#051320:23
#0513b1:13
#051371:0053230000000000
#051361:0000000013000053
#051321:0000000000533300
#052361:33
#052321:0053230000000000
#052370:00130000
#0523b0:0000005323000000
#052321:0013
#052361:0000000000532300
#053371:13000033
#0533b1:0053000000000053
#054371:0033
#0543b1:0000000000530000
#055371:00330000
#0553b1:0000005323000000
#056361:13000033
#056321:0053000000000053
#057361:0033
#057321:0000000000530000
#058361:00330000
#058321:0000005323000000
#061381:00000012
#0623b1:325252525252525252525252
#0623a1:005400540054005400540054005400540054005400540054
#0633b1:525252525252525252525252
#0633a1:005400540054005400540054005400540054005400540054
#0643b1:525252525252525252220000
#0643a1:005400540054005400540054005400540054000000000000
#065381:12220000
#066361:12220000
#067381:13230000
#068351:13230000
#069381:16
#0693c1:00000022
#071321:16
#071381:00260000
#071381:0016
#071321:00000026
#0733c1:0012
#073371:00000032
#0743c1:22
#073370:0012
#073320:00000022
#074370:12
#074320:00220000
#074361:00130023
#0743b1:0033
#074370:0013
#074320:00000033
#075370:33
#075320:00230000
#075360:0013
#0753b0:00000023
#0773b0:13
#077370:002300000000
#077320:0013
#077360:000023
#0783a0:14
#078360:002400000000
#078320:0014
#078360:000024
#0793a0:1424
#079360:00540000
#079321:0014
#079361:00000054
#080321:24
#080390:15250000
#080350:0055000000000000
#080321:00152500
#080371:0000005500000000
#080380:00001626
#080320:0000000000560000
#081370:000000000013230000000000
#0813b0:000000000000000013230000
#081370:000000000000000000000013
#082370:23
#0823b0:000013230000000000000000
#083370:00130000
#083320:0023
#083320:00000013
#084370:23
#084370:00130000
#084320:00003424
#084360:0000000000540000
#0843a1:00001424
#084361:000000000000000000000000000000000000000000000000000000000000000000000000000000000000000000000000000000000000000000000000000000000000000000000000000000000000000000000000000000000000000000000000000000000000000000000000000000000000000000000000000000000000000000000000000000000000000000000000000000000000000000000000000000000000000000000000000000000000000000000000000000000000000000000000000000000000000000000000000000000000000000000000000000000000000000000000000000000000000000000000000000000000000000000000000000000000000000000000000000000000000000000000000000000000000000000000000000000000000000000000000000000000000000000000000000000000000000000000000000000000000000000000000000000000000000000000000000000000000000000000000000000000000000000000000000000000000000000000000000000000000000000000000000000000000000000000000000000000000000000000000000000000000000000000000000000000000000000000000000000000000000000000000000000000000000000000000000000000000000000000000000000000000000000000000000000000000000000000000000000000000000000000000000000000000000000000000000000000000000000000000000000000000000000000000000000000000000000000000000000000000000000000000000000000000000000000000000000000000000000000000000000000000000000000000000000000000000000000000000000000000000000000000000000000000000000000000000000000000000000000000000000000000000000000000000000000000000000000000000000000000000000000000000000000000000000000000000000000000000000000000000000000000000000000000000000000000000000000000000000000000000000000000000000000000000000000000000000000000000000000000000000000000000000000000000000000000000000000000000000000000000000000000000000000000000000000000000000000000000000000000000000000000000000000000000000000000000000000000000000000000000000000000000000000000000000000000000000000000000000000000000000000000000000000000000000000000000000000000000000000000000000000000000000000000000000000000000000000000000000000000000000000000000000000000000000000000000000000000000000000000000000000000000000000000000000000000000000000000000000000000000000000000000000000000000000000000000000000000000000000000000000000000000000000000000000000000000000000000000000000000000000000000000000000000000000000000000000000000000000000000000000000000000000000000000000000000000000000000000000000000000000000000000000000000000000000000000000000000000000000000000000000000000000000000000000000000000000000000000000000005400000000000000000000000000000000000000000000000000000000000000000000000000000000000000000000000000000000000000000000000000000000000000000000000000000000000000000000000000000000000000000000000000000000000000000000000000000000000000000000000000000000000000000000000000000000000000000000000000000000000000000000000000000000000000000000000000000000000000000000000000000000000000000000000000000000000000000000000000000000000000000000000000000000000000000000000000000000000000000000000000000000000000000000000000000000000000000000000000000000000000000000000000000000000000000000000000000000000000000000000000000000000000000000000000000000000000000000000000000000000000000000000000000000000000000000000000000000000000000000000000000000000000000000000000000000000000000000000000000000000000000000000000000000000000000000000000000000000000000000000000000000000000000000000000000000000000000000000000000000000000000000000000000000000000000000000000000000000000000000000000000000000000000000000000000000000000000000000000000000000000000000000000000000000000000000000000000000000000000000000000000000000000000000000000000000000000000000000000000000000000000000000000000000000000000000000000000000000000000000000000000000000000000000000000000000000000000000000000000000000000000000000000000000000000000000000000000000000000000000000000000000000000000000000000000000000000000000000000000000000000000000000000000000000000000000000000000000000000000000
#085371:00130000
#0853b1:0000005300000000
#085381:0023
#085350:0013
#085320:0000000000530000
#085360:00000023
#0853b1:00000013
#086361:23
#086320:1323
#086370:00330000
#088370:0013
#088320:00000023
#0933b0:1323
#093360:00530000
#093371:0013
#093321:00000053
#094371:23
#0943b0:1333
#094360:00330000
#094380:0000000000532300
#094321:0013
#094351:0000000000532300
#0953b1:000000000000000000000013
#096351:00000054000000000000000000000000
#0963b1:0023
#097321:1222
#097371:00520000
#097370:1232
#0973c0:00520052
#0983c0:3232
#098370:00520052
#099370:22
#098371:1222
#098321:00520000
#099321:12
#099371:000000000022000000000000
#099321:000000000000000000000012
#100321:003200
#100331:0000003200000000
#100341:000000000032000000000000
#100351:000000000000000000000032000000000000000000000000
#100371:0022
#100370:001200
#100380:0000003200000000
#100390:000000000032000000000000
#1003a0:000000000000000000000032000000000000000000000000
#1003c0:0022
