This file was generated by Ched 2.7.0.0.
#TITLE ""
#ARTIST ""
#DESIGNER ""
#DIFFICULTY 0
#PLAYLEVEL
#SONGID ""
#WAVE ""
#WAVEOFFSET 0
#JACKET ""
#REQUEST "ticks_per_beat 480"
#00002: 4
#BPM01: 200
#00008: 01
#TIL00: ""
#VOLUME: ""
#HISPEED 00
#MEASUREHS 00
#0011a:14
#00114:0014
#00312:14
#00318:0014
#0051a:14
#00514:0014
#00712:14
#00718:0014
#0091a:14
#00914:0014
#0101a:14
#01014:0014
#01118:14
#01112:0014
#01218:14
#01212:0014
#0131a:14
#01314:0014
#01418:14
#01412:0014
#0151a:14
#01514:0014
#01712:2414
#01718:00140000
#0181a:1414
#01814:00140000
#01912:1414
#01918:00140014
#02012:14
#0201a:0014
#02014:00000014
#0211a:14
#02212:14
#02518:0014
#02514:00140000
#0251a:24
#02510:41
#02612:14
#02614:0014
#02618:00140000
#0271a:14
#02714:00140000
#02718:0014
#02712:00000014
#02818:14
#02814:00140000
#0281a:0014
#02914:0014
#02918:00140000
#02912:24
#0301a:14
#03018:0014
#03014:00140000
#03112:14
#03118:00140000
#03114:0014
#0311a:00000014
#03214:14
#03218:00140000
#03212:0014
#03414:00140000
#03418:0014
#03412:00000014
#0341a:14
#06618:14
#07112:16
#07118:0016
#07212:16
#07218:0016
#07412:14
#07418:00140000
#07414:0014
#0741a:00000014
#07410:41
#07312:14
#07318:00140000
#07314:0014
#0731a:00000014
#0731f:21
#0331a:14
#03314:00140000
#03318:0014
#03312:00000014
#0851a:14
#08512:00140000
#08518:0014
#08514:00000014
#08514:00000014
#08510:41
#0861a:14
#08612:00140000
#08618:0014
#08614:00000014
#08718:16
#08712:0016
#08912:14
#08918:00140000
#08914:0014
#0891a:00000014
#09012:14
#09018:00140000
#09014:0014
#0901a:00000014
#0931a:14
#09318:0014
#09314:00140000
#09312:00000014
#0941a:14
#09414:00000014
#09418:0014
#09412:00140000
#02413:0014
#08112:0014
#08118:26
#0821a:14
#08218:0014
#08214:00140000
#08212:00000014
#0651a:14
#04418:14
#0441a:0014
#04419:00340034
#04512:0014
#04513:00000034
#04614:14
#04613:00340000
#05312:14
#05318:00140000
#05313:0014
#05319:00000014
#05414:14000014
#0541a:0014
#05519:14
#05513:00140000
#05518:0014
#05612:14
#0561a:00140000
#05614:0014
#05618:00000014
#0571a:0014
#05712:24000014
#05818:14
#05814:00140000
#0581a:0024
#05918:00140000
#05914:1414
#0591a:00000024
#06014:00000014
#06018:0014
#06012:24
#06010:0041
#06118:14
#06112:00240000
#0611a:0024
#06218:00140000
#06214:1414
#0621f:11
#0621a:00000024
#06314:0014
#06318:00000014
#06312:24
#0631a:00240000
#06414:14
#0641a:00240000
#06412:0024
#06814:14
#06712:14
#07018:14
#0691a:14
#07918:16
#07916:0016
#07712:14
#07714:0014
#07718:00140000
#0771a:00000014
#07814:14
#07812:0014
#07818:00140000
#0351a:24
#03512:0024
#03618:2424
#03614:00240000
#07512:24
#0751a:0024
#07612:24
#07616:00240000
#0761a:0024
#08012:00260026
#08018:0026
#08818:2626
#08812:00260000
#09112:24
#0911a:0024
#09214:2424
#09218:00240000
#0231a:003434003434
#04710:41
#03710:41
#0215a:14
#02252:14
#06658:24
#07152:16
#07158:0016
#07252:16
#07258:0016
#08758:16
#08752:0016
#0655a:54
#04458:54
#0445a:0024
#04552:0054
#04654:24
#05454:14
#05558:0014
#06854:24
#06752:64
#07058:24
#0695a:54
#03658:0014
#0765a:0014
#08158:16
#08858:0016
#09254:0014
#05752:14
#0585a:0014
#01658:000000000014000000000000
#04052:0014
#0965a:0014
#07958:56
#07956:0056
#0023a0:1424
#004320:1424
#0063a0:14
#006380:0024
#008320:14
#008340:0024
#016380:140000000024000000000000
#0233a0:143434003434
#023380:0034
#0243a0:24
#037320:14240000
#037380:00001424
#038340:14240000
#0383a0:00001424
#039320:140000000034000034000034
#040320:0024
#0413a0:14
#041390:00340034
#041380:0034
#0423a0:24
#042340:0014
#042330:00000034
#043320:34
#043330:00340000
#043340:0024
#044380:14
#044390:00340034
#0443a0:0034
#045380:24
#045320:0014
#045330:00000034
#046340:34
#046330:00340000
#046320:0024
#0473a0:14
#047390:00340000
#047380:0034
#047370:00000034
#048380:34
#048390:00340034
#0483a0:0034
#049380:34
#049370:00342400
#050320:14
#050330:00340000
#050340:0034
#050350:00000034
#051350:24
#0513a0:0014
#051390:00000034
#052380:34
#052370:00342400
#0653a0:14
#065380:0034
#066380:34
#0663a0:0024
#067320:14
#067340:0034
#068340:34
#068320:0024
#0693a0:14
#069380:0034
#070380:34
#0703a0:0024
#079380:16
#079360:0036
#080380:26
#0833a0:14240000
#083340:00001424
#084380:14240000
#084320:00001424
#0953a0:140000000034000034000034
#0963a0:0024
#097320:14
#097340:0024
#098380:14
#0983a0:0024
#099340:14
#099320:000000000034000034000034
#100320:0024
