This file was generated by Ched 2.7.0.0.
#TITLE ""
#ARTIST ""
#DESIGNER ""
#DIFFICULTY 0
#PLAYLEVEL
#SONGID ""
#WAVE ""
#WAVEOFFSET 0
#JACKET ""
#REQUEST "ticks_per_beat 480"
#00002: 4
#BPM01: 192
#00008: 01
#TIL00: ""
#VOLUME: ""
#HISPEED 00
#MEASUREHS 00
#0641a:14
#06512:14
#06612:14
#06914:14
#07014:14
#06818:14
#06718:14
#08318:14
#08414:14
#1051a:14
#10412:14
#10612:14
#10718:14
#10814:14
#10918:14
#11014:14
#0091a:14
#0101a:14
#01718:14
#01710:41
#01112:14
#01212:14
#01814:14
#01318:14
#01418:14
#01514:14
#01614:14
#02114:14
#02218:14
#0251a:14
#02812:14
#02918:14
#03214:14
#02612:14
#0271a:14
#03014:14
#03118:14
#04518:2616
#04510:41
#04612:1616
#04718:1616
#04812:1616
#04918:16
#04912:0016
#05012:0016
#05018:16
#05118:16
#05112:0016
#05218:16
#05312:2616
#05418:1616
#05512:1616
#05618:1616
#05712:16
#05718:0016
#05818:0016
#05812:16
#08512:0016
#08518:26
#0851f:21
#08718:0016
#08712:16
#08710:41
#08918:1616
#09012:1616
#09118:16
#09112:0016
#09318:0016
#09312:26
#09512:0016
#09518:16
#09712:1616
#09818:1616
#1111a:14
#0711f:11
#03818:3434
#04314:34
#04213:34
#03918:3434
#03719:0034
#03310:41
#06110:41
#10110:41
#0013a0:14
#0023a0:24
#003320:14
#004320:24
#005380:14
#006380:24
#007340:14
#008340:24
#0193a0:14
#0203a0:24
#023320:14
#024320:24
#0333a0:14
#0343a0:24
#035320:14
#036320:24
#0373a0:14
#037390:0034
#038380:3434
#039380:3434
#040380:24
#041320:14
#042330:34
#043340:34
#044340:24
#059320:16
#060320:26
#060380:0016
#061380:36
#063380:26
#071380:14
#0743a0:24
#075340:14
#078320:24
#079380:14
#080380:24
#081340:14
#082340:24
#086380:1626
#088320:1626
#092380:1626
#094320:1626
#096380:1626
#099320:16
#100320:26
#100380:0016
#101380:36
#103380:26
#112320:1600000036000056
#118320:00000024
