This file was generated by Ched 2.7.0.0.
#TITLE ""
#ARTIST ""
#DESIGNER "expert"
#DIFFICULTY 0
#PLAYLEVEL
#SONGID ""
#WAVE ""
#WAVEOFFSET 0
#JACKET ""
#REQUEST "ticks_per_beat 480"
#00002: 4
#BPM01: 192
#00008: 01
#TIL00: ""
#VOLUME: ""
#HISPEED 00
#MEASUREHS 00
#0001a:00000012
#00014:00000012
#0011c:12
#00116:12120000
#00114:0000000000120000
#0011a:0000000000120000
#00118:0000001200000012
#00112:0000000000000012
#00318:0000120000120000
#00316:1200001200000000
#00312:0000000000120000
#0031c:12
#00518:00001212
#00516:0000000000120012
#00617:00121212
#00915:0013000000130000
#0091b:0000130000000013
#00912:0000001300000013
#00918:0013
#01018:0013000000131300
#01015:00000000000000000000001300000000
#01012:0000001300000013
#0101b:0000000000000013
#01115:0013000000000000
#01118:0000130000000013
#0111b:0000000000130000
#01112:0000001300000000
#01518:0000000013130023
#01515:00000000000000000013000013000000
#01512:0013001300000023
#0151b:00130000
#11214:0000000014001414
#11218:0000000000140014
#11216:14
#1121a:0014140000000000
#11212:00140000
#01818:0000130000000013
#01815:0013001300000000
#0181b:0000000013130000
#01812:0000000013130000
#0191b:00130000
#01912:1300000000000013
#01918:0000000000130000
#01915:0000001300000000
#0201b:0013000000130000
#02012:00130000
#02015:0000000000000013
#02018:00130013
#02118:00130000
#0211b:0000000013130000
#02112:1300000013130013
#02115:0000001300000000
#02117:0000000000000013
#0221b:0013000000130000
#02216:0013000000130000
#02212:0000001300000000
#02217:0000000000000013
#02314:00130000
#0231b:0000000000001313
#02317:13
#02316:0013
#02418:00000013
#02415:0000000000000013
#02412:0013000000130000
#02618:0013000000000000
#0261b:0000000000130000
#02615:0000001300000000
#02612:0000000000000013
#02512:2300000013130013
#02515:00130000
#0251b:2300000013130013
#02518:0000001300000000
#0281b:0000000000130000
#02815:00000013
#02818:0000000000000013
#02816:0014000000000000
#02812:0000001400000000
#02918:0000130000130000
#0291b:0000000000000013
#02915:0000001300001300
#02912:2300000000000023
#03012:00130000
#0301b:0000000013130000
#03016:0000000013130000
#03019:0000002300000000
#0311b:0000132300000000
#03112:0000132300000024
#03114:0000000000130000
#03119:0000000000130000
#03117:23
#0311a:0000000000000024
#03218:0000001300000013
#03212:0013
#0321b:0000000000130000
#03215:00000013
#03312:2300130000000013
#0331b:0000001300130000
#03318:0000000000000013
#03310:41
#03415:0013000000001300
#03418:0000130000000013
#03412:0000000000130000
#0351b:1300130000000013
#03512:0000001300130000
#03516:0000000000000013
#03612:00000013000000000000000000000000
#03617:00000013000000000000000000000000
#0361b:0000000000130000
#03615:00000013
#03618:0000000000000013
#03712:2300130000000013
#03717:0000131300000013
#0371b:0000000000130000
#03816:00130000000000001300000000000000
#0381b:00131300
#03812:00000013
#03916:1300000000000013
#0391b:1300000000000013
#03912:0000131300130000
#03917:0000131300000000
#04012:00000013000000000000000014000000
#04017:00000013000000000000000000000000
#04112:14000013
#04118:14
#0411a:00141400
#04114:0014
#0421b:0000131300000013
#04215:0000001300000000
#04212:0000000000130000
#04216:0000000000000023
#04312:0013130000002300
#04315:0013
#04318:0000000000130000
#04317:00000013000000000000000000000000
#0431b:00000023
#04516:0000131300000014
#0451b:0000131300000000
#04518:00000000000000000000000000000014
#04514:00000000000000000000000000000014
#04512:2400000000000014
#0451a:24
#04510:41
#05012:1300001300130013
#0501b:0013000013000000
#05018:0000001300000013
#0491b:2300000000000013
#04915:0013000000001313
#04918:00131300
#04912:0000001300000000
#0581b:0000130000001323
#05816:0000130000001313
#05812:0013
#05817:0013
#05918:0013000000130000
#05919:00130000
#0591a:0000001300000000
#0591b:0000000013000013
#05915:00000013
#05912:0000000000000023
#06012:0013001300000000
#0601b:0000001300130000
#06015:00000013
#06018:0000000000000013
#06212:0013130000001326
#06216:00000000000000000000000000000016
#0621b:0013130000001300
#06218:0000000000000026
#06314:16161616
#06316:00160016001600160016001600160016
#06318:0016001600160016
#06414:16161616
#06416:00160016001600160016001600160000
#06418:0016001600160000
#06412:0000000000000013
#0701a:00000012
#07118:1200001200000000
#07116:0000120000120000
#0711f:11
#0721a:0012
#07214:00000012
#07416:0000000000120000
#0741c:00000012
#07516:12000012
#0751a:0012000000000000
#07514:00120000
#07512:0012
#07518:0000001200000000
#07616:0012000000000000
#07618:0000000000120000
#0771a:1200000000120000
#07716:00120000
#07718:0000001200000000
#07714:1200000000120000
#0781a:00000012
#07814:00000012
#0791c:12
#07916:1200001200000000
#07918:0000120000120000
#07912:0000000000120000
#08012:0012
#08018:0012
#08016:00000012
#0801c:00000012
#08112:1200000000120000
#08118:1200000000120000
#08116:00120000
#0811a:0000001200000012
#08114:0000000000000012
#0821c:0012000000000000
#08216:0012000000000000
#08212:0000000000120000
#08218:0000000000120000
#08214:0000001200000000
#0821a:0000001200000000
#08215:0000000000000013
#08312:2300000000000013
#0831b:2300000000000013
#08315:00131313
#08318:0000001300130000
#0841b:0013130000000000
#08412:0013130000001400
#0841a:00000014
#0511b:1300130000130000
#05112:0000001300000013
#05115:13130000
#05118:0000001300000000
#05117:0000000000000023
#09812:0000130000001323
#09817:0000130000001313
#0981b:0013
#09816:0013
#10615:13130013
#10612:0013000000000013
#10618:0000001300130000
#1061b:0013
#10717:13
#10716:0000131300000000
#1071b:00000000001300001300000000000000
#10718:0000000000130013
#10715:00000013
#10712:2300000000000013
#11016:00001300000000000000001300000000
#11019:00130000
#1101b:0023000000000000
#11014:00230000
#11017:0000002300000000
#11012:0000002300000000
#00717:0000000000000012
#04612:0014000013000000
#04617:0013
#0461b:00000013
#04616:1414000000001300
#0461a:14
#04618:00140014000000000000000000000000
#04614:00140014000000000000000000000000
#05215:00000000000000000013000000000000
#05218:0000000013130000
#05212:00000013
#0521b:0013000000001300
#0521a:00130000
#05216:00000013000000000000000000000000
#05219:0000001300000000
#0121b:0013000000130023
#01219:00131300
#01217:0000001300000000
#01212:0000001300000023
#01216:0013000000000000
#0861b:0000002300001300
#08615:0013130000000000
#08618:00000013000000000000130000000000
#08612:0000002300001300
#08616:0000000000000013
#08818:0013001400001313
#08815:00000000000000000000130000130013
#08812:0013001400000000
#0881b:0000000000130000
#08918:1300001300000000
#0891b:0000000000000013
#08915:0000000013000013
#08912:00260013
#0921b:0000000000001313
#09212:0013000000001313
#09213:00130000
#09214:0000001300000000
#09215:0000000013130000
#09218:00000000000000000013000000000000
#09312:2400130000000013
#0931b:0000001300000000
#09316:0000001300000000
#09317:0000130000000013
#0931a:24
#09416:00130000000000000000000013000000
#0941b:00130000000000000000000013000000
#09412:0013
#09417:0013
#0971b:23131300
#09718:0000000000130000
#09715:0013000000001300
#09712:1300000000000013
#09517:0000131300000000
#09512:1400131300000013
#0951b:0000000000130000
#09518:00000013
#0951a:14
#0961b:0013000000130000
#09618:00130013
#09615:1313
#09612:0000001300000013
#10213:00000014
#10219:00000014
#1021b:0013130000000000
#10212:0013130000000026
#10218:0000000000000026
#1051b:13000013
#10518:00000000130000000013000000001300
#10515:1300000013130000
#10512:00130000
#11112:0014000014140014
#1111a:2400000014140000
#11118:0000141400000000
#11114:00000000001400000000000000000000
#11116:00000014
#10816:0000000000000013
#1081b:0013000013000013
#10815:0013000013000000
#10812:0000001300000000
#10818:0000001300000000
#00218:0012
#00212:0012
#0021a:00000012
#00214:00000012
#01318:0013000000130000
#01312:0000130000000013
#0131b:0000001300000013
#01315:0013
#01418:0013000000000000
#01415:0000130000000023
#01412:0000000000130000
#0141b:0000001300000023
#01615:0013001300000013
#01618:00130013
#01612:0000000023230000
#0161b:0000000023230000
#0171b:2300130000130000
#01718:0000000013000013
#01712:2300000000000013
#01715:0000130000130000
#01710:41
#04417:00000013
#04412:0000242400001300
#04413:24
#04419:24
#0441a:0000242400000000
#0471b:0000131300000013
#04716:0000131300000013
#0471a:14
#04712:14
#04818:0000000000130000
#04815:00000013
#04817:00000013000000000000000000000000
#04812:00000013000000000000000000000000
#05317:0000131300000000
#05312:2400131300000000
#0531b:0000000000000013
#05316:0000000000000013
#0531a:24
#0541b:0013
#05416:0013
#05412:00000013
#05417:00000013
#06518:0013000000000000
#06515:0000130000000013
#06512:0000000000130000
#0651b:0000001300000000
#06612:0013000000130023
#06614:00131300
#06616:0000001300000000
#0661b:0000001300000023
#06617:0013000000000000
#06715:0013000000130000
#0671b:0000130000000013
#06712:0000001300000013
#06718:0013
#06815:0013000000000000
#06818:0000130000000023
#0681b:0000000000130000
#06812:0000001300000023
#06915:0000000013130000
#06918:00000000000000000013000013000000
#0691b:0013001300000000
#06912:0000130000000016
#07316:1200001200000000
#07318:0000120000120000
#08518:2600000000131300
#08515:00000000000000000000001300000000
#0851b:0000001300000023
#08512:2600001300000023
#0851f:21
#09018:1300001300000013
#09012:0013001300000013
#09015:0013
#0901b:0000000000130000
#05712:00131300
#05715:0000000000130000
#05718:00000013
#0571b:1300000000000013
#05716:23
#0561b:0000001300000013
#05612:0013000000130000
#05512:1400131300000013
#05517:0000131300000000
#05516:0000000000130000
#0551b:0000000000000013
#0551a:14
#09915:0013000000130000
#09914:00130000
#09913:0000001300000000
#09912:0000000013000013
#09918:00000013
#0991b:0000000000000023
#1001b:0013001300000000
#10012:0000001300130000
#10018:00000013
#10015:0000000000000013
#10318:0013000013000000
#1031b:0000130000130000
#10312:00130000
#10315:0000001300000000
#10316:0000000000130000
#10317:0000000000000013
#10415:0000000000131300
#10418:00000000000000000000001300001300
#10416:0013000000000000
#1041b:0000001300000000
#10917:0000001300000000
#10912:0000001300000023
#1091b:0000000000000023
#0041c:0000000000120000
#00412:0000000000120000
#08712:0000131300000000
#0871b:1300001300130000
#08717:0013000000000000
#08716:0013
#08714:0000000000000024
#0871a:0000000000000024
#08710:41
#11818:00000000001300000000000000000000
#11815:00000000001300000000000000000000
#11619:14
#11613:14
#1141a:00000014
#11412:00000014
#0911b:1300130000130000
#09115:13130000
#09118:0000001300000000
#09112:0000001300000023
#09116:0000000000130000
#09117:0000000000000013
#00814:0000000000000028
#0271a:2400000000000024
#02712:0000002400000000
#02716:2400242400240000
#06112:2400000000000026
#0611a:0000002400000000
#06116:2400242400240000
#06118:0000000000000026
#06110:41
#1011a:24
#10112:0000002400000026
#10116:2400242400240000
#10118:0000000000000026
#10110:41
#00952:0000000000000053
#02157:0000000000000053
#02152:53
#0225b:0053000000000000
#02252:0000005300000000
#02256:0000000000530000
#02658:0053000000000000
#0265b:0000000000630000
#02655:0000006300000000
#02552:0000000000000053
#0275a:1400000000140064
#02752:0000001400000014
#02756:6400005400640000
#0295b:0000000000000053
#02955:0000005300000000
#03056:0000000000530000
#03458:00630000
#03556:0000000000000053
#0355b:0000000000000053
#03652:00000023000000000000000000000000
#03657:00000023000000000000000000000000
#03856:00230000000000000000000000000000
#03852:00130000
#03857:00000013
#0385b:0063
#03752:0000000000000053
#0375b:0000000000130000
#03952:0000000000530000
#03957:0000005300000000
#03956:0000000000000053
#0395b:0000000000000053
#04052:00000023000000000000000034000000
#04057:00000023000000000000000000000000
#0415a:00440000
#04452:0000001400000000
#0445a:0000001400000000
#0455b:0000005300000000
#0455a:44
#04558:00000000000000000000000000000054
#04554:00000000000000000000000000000054
#04552:0000000000000024
#04556:0000000000000024
#05052:23
#0505b:0023
#05058:0000005300000000
#0595b:0000000000000053
#06052:0000006300000000
#06152:1400000000140016
#0615a:0000001400000000
#06158:0000000000000016
#06156:5400006400000000
#06252:0000630000000016
#06258:0000000013000026
#06256:00000000000000000000000000000056
#0625b:00530000
#06255:0013
#06356:00560056005600560056005600560056
#06358:0026002600260026
#06354:26262626
#06454:26262626
#06456:00560056005600560056005600560000
#06458:0026002600260000
#06452:0000000000000053
#0845b:00530000
#08452:00630000
#10252:0000630000000036
#10258:0000000013000046
#1025b:00530000
#10255:0013
#10757:53
#10758:0000000000000013
#08552:1600000000000013
#08558:16
#0855b:0000000000000013
#00757:0000000000000062
#00854:0000000000000018
#02452:0053000000000000
#08754:0000000000000014
#0875a:0000000000000014
#0875b:63
#08757:0023000000000000
#08752:0000005300000000
#08756:0023
#0935b:0000005300000000
#09352:3400000000000053
#09357:0000000000000053
#0935a:44
#09456:00230000000000000000000000000000
#0945b:00230000000000000000000000000000
#09452:00330000
#09457:00330000
#09755:0023000000000000
#09752:63
#0975b:13
#09552:3400006300000063
#0955b:0000000000530043
#09558:00000023
#0955a:44
#0965b:0053004300530000
#09658:00230023
#09655:2323
#09652:0033006300330000
#11152:0000000000340064
#1115a:1400000000540044
#11156:00000024
#11256:24
#11258:0000000000000054
#11254:0000000000000064
#1125a:00140000
#11252:00140000
#11056:00000000000000000000002300000000
#11052:0000005300000000
#11057:0000001300000000
#10856:0000000000000063
#1085b:0000000023000063
#10855:0013000023000000
#10852:0000005300000000
#10858:0000005300000000
#10952:0013005300000013
#10957:0013005300000000
#1095b:0000000000130013
#10956:0000000000130000
#00158:0000000000000052
#00152:0000000000000052
#00556:12
#00558:12
#01058:0053000000000000
#01052:0000005300000000
#0105b:0000000000000063
#01252:0000002300000000
#01256:0063000000000000
#01152:0000005300000000
#01352:0000000000000053
#0145b:0000006300000000
#01952:5300000000000053
#01958:0000000000530000
#01955:0000006300000000
#01758:0000000000000053
#01755:00630000
#0235b:0000000000000063
#02357:53
#02356:0063
#02856:0024000000000000
#0425b:0000005300000053
#04252:0000000000630000
#04256:0000000000000013
#04357:00000023000000000000000000000000
#04656:2424140000000000
#0465a:24140000
#04652:0024000000000000
#04658:00540054000000000000000000000000
#04654:00540054000000000000000000000000
#0475b:0000000000000063
#04756:0000005300000063
#04752:34
#04857:00000023000000000000000000000000
#04852:00000023000000000000000000000000
#04958:0053
#04955:0000000000000063
#05256:00000023000000000000000000000000
#05152:0000005300000053
#0515b:0000000000630000
#05157:0000000000000013
#05352:3400006300000000
#0535b:0000000000000063
#05356:0000000000000063
#05457:00130000
#05452:00130000
#05856:0000000000000063
#0665b:0000002300000000
#06657:0053000000000000
#0655b:0000006300000000
#0675b:0000000000000063
#06852:0000005300000000
#06952:0000000000000066
#0835b:13
#08352:13
#08652:0000001300005300
#0865b:0000001300000000
#08656:0000000000000023
#0895b:0000000000000053
#08952:00360000
#09058:23
#09052:0000006300000000
#09055:0023
#05557:0000005300000000
#0555b:0000000000000063
#0555a:44
#05552:0000000000000013
#05652:0053000000530000
#0565b:0000006300000000
#05656:0000001300000000
#05657:0013000000130000
#0575b:63
#05756:13
#09952:0000000000000063
#1005b:0000005300000000
#09857:0000000000000053
#1015a:1400000000140000
#10152:0000001400000016
#10158:0000000000000016
#10156:6400005400000000
#10356:0000000000630000
#10357:0000000000000053
#10352:0000000000000013
#10555:13
#10558:00130000
#10456:0063000000000000
#1045b:0013006300000000
#10452:0000001300000000
#0045c:0000000000620000
#00452:0000000000520000
#11858:00000000006300000000000000000000
#11855:00000000005300000000000000000000
#11659:64
#11653:54
#1145a:00000024
#11452:00000024
#08852:0000001400000000
#08858:0000001400000000
#09152:0000006300000013
#09156:0000000000630000
#0915b:0000000000630000
#09157:0000000000000053
#0315a:0000000000000044
#03152:0000000000000034
#001380:0000000000000012
#0023c0:00220000
#001321:0000000000000012
#002361:00220000
#0033a1:0000000000000012
#0043a1:0022000000000000
#004340:0012002200000000
#0043c1:0000001200320000
#004381:0000000000000032
#005381:22
#004320:0000000000120000
#004360:0000000000000032
#005360:22
#006370:0000000000000012
#007370:0000000000000032
#008340:0000000000000028
#009320:0000000000000013
#010350:0023000000000000
#010381:0013000000000000
#0103b1:0000002300000000
#010320:0000001300000000
#010350:0000000000230000
#0103b0:0000000000000013
#011380:0023000000000000
#011320:0000001300000000
#011350:0000000000230000
#011320:0000000000000013
#012360:0033000000230000
#012320:0000005300000000
#013320:0000000000000013
#014350:0023000000000000
#0143b0:0000001300000000
#014380:0000000000230000
#017350:00130000
#017320:0023
#017380:0000000000000013
#0183b0:0023000000000000
#019320:13
#019350:00230000
#019350:0000001300000000
#019320:0000000000230000
#019381:0000000000130000
#0193b1:0000000000000023
#019320:0000000000000013
#020350:0023000000000000
#021320:13
#021350:00230000
#021370:0000000000000013
#0223b0:0033000000000000
#022370:0000002300000000
#022321:0000001300000033
#022361:0000000000330000
#023321:23
#023370:13
#0233b0:0023
#023361:0013
#023321:0000000000000023
#0233b0:0000000000000013
#024380:0023
#024321:0013000000000000
#024351:0023
#025321:0000000000000013
#026351:0023000000000000
#026380:0013000000000000
#0263b0:0000002300000000
#026351:0000001300000000
#026321:0000000000230000
#0263b0:0000000000130000
#026380:0000000000000023
#027360:14
#027320:00240000
#027360:0000001400000000
#0273a0:0000000000240000
#027361:0000000000140000
#027321:0000000000000024
#0273a0:0000000000000014
#028360:0054000000000000
#0283a0:0000002400000000
#029350:0000001300000000
#029320:0000000000230000
#0293b0:0000000000000013
#030370:00230000
#030360:0000000000130000
#031320:23
#033380:13230000
#033350:0000001300230000
#034380:00130000
#0343b0:0000000000230000
#035350:13230000
#035380:0000001300230000
#035360:0000000000000013
#036320:00000053000000000000000000000000
#036360:0023
#0353b1:0000000000000013
#036371:00000053000000000000000000000000
#0363b1:0023
#037321:0000001300000000
#037361:0000000000230000
#037321:0000000000000013
#038361:00530000000000000000000000000000
#038321:00230000
#0383b1:0013
#038371:00000023
#039371:0000001300000000
#0393b1:0000000000230000
#039320:0000000000130000
#039360:0000000000000033
#040320:00000053000000000000000000000000
#040360:0023
#0393b1:0000000000000013
#040371:00000053000000000000000000000000
#0403b1:0023
#041381:00000013
#042381:23
#042350:13230000
#0423b0:0000001300000000
#042370:0000000000230000
#042321:0000000000130000
#042361:0000000000000023
#0423b0:0000000000000013
#043370:00000053000000000000000000000000
#0433b0:0023
#0453b0:0000001300000000
#045370:0000000000230000
#045321:0000000000140034
#045341:00000000000000000000000000000054
#046361:54240000
#046341:00540054000000000000000000000000
#046321:0054000000000000
#045360:0000000000000014
#045380:00000000000000000000000000000054
#0463a0:54240000
#046380:00540054000000000000000000000000
#046360:0054000000000000
#047360:0000001300000000
#047320:0000000000230000
#0473b1:0000000000130033
#048371:00000053000000000000000000000000
#0483b1:0023
#047360:0000000000000013
#048320:00000053000000000000000000000000
#048360:0023
#049380:0013
#0493b0:00000023
#049350:0000000000000013
#050320:53
#050350:0023000000000000
#050380:0000001300230000
#0503b0:0053
#051320:0000001300000000
#051360:0000000000230000
#0513b1:0000000000130000
#051371:0000000000000023
#051320:0000000000000013
#052360:00000053000000000000000000000000
#052320:0023
#053320:0000001300000000
#053360:0000000000230000
#0533b1:0000000000130033
#054371:00230000
#053360:0000000000000013
#054320:00230000
#055370:0000001300000000
#0553b0:0000000000230000
#0553b0:0000000000000013
#056370:0023000000000000
#056321:0013000000000000
#056361:0000002300000000
#0563b0:0000001300000000
#056370:0000000000230000
#056321:0000000000130000
#056361:0000000000000033
#057361:23
#0573b0:13
#057370:00230000
#058360:0000000000000013
#059320:0023
#0593b0:0000000000000013
#060370:0023000000000000
#060320:0000001300000000
#060360:0000000000230000
#061360:14
#0613a0:00240000
#061360:0000001400000000
#061320:0000000000240000
#0623b0:00130000
#062380:0023
#062321:00130000
#062351:0023
#062381:0000000000000016
#062361:00000000000000000000000000000056
#063341:56565656
#063361:00560056005600560056005600560056
#063381:0056005600560056
#064341:56565656
#064361:00560056005600560056005600560000
#064381:0056005600560026
#064320:0000000000000013
#065350:0023000000000000
#0653b0:0000001300000000
#065380:0000000000230000
#0653b0:0000000000000013
#066370:0033000000230000
#0663b0:0000005300000000
#0673b0:0000000000000013
#068380:0023000000000000
#068320:0000001300000000
#068350:0000000000230000
#069320:0000000000000016
#070320:00000022
#071340:0000000000000012
#072340:00220000
#0733a0:0000000000000012
#0743a0:0022
#0753c0:0000000000000012
#0763c0:0022000000000000
#076330:0000001200220000
#077320:0000000000000012
#078360:0022
#0773c1:0000000000000012
#078381:0022
#079361:0000000000000012
#080321:00220000
#0793c0:0000000000000012
#080380:00220000
#0843b0:00130000
#084380:0023
#084321:00130000
#084351:0023
#086321:00000013
#086361:0000000000000053
#087321:23
#0873b0:13230000
#087370:0053000000000000
#087320:0000001300230000
#087360:0053
#0893b0:0013
#089380:00000023
#0893b0:0000000000000013
#090380:53
#0903b0:0023000000000000
#090320:0000001300230000
#090350:0053
#091320:0000001300000023
#091360:0000000000330000
#0913b1:0000000000130000
#091371:0000000000000033
#0923b1:0023
#0933b1:0000001300000000
#093371:0000000000230000
#093320:0000000000130033
#094360:00530000000000000000000000000000
#094320:00230000
#093371:0000000000000013
#0943b1:00530000000000000000000000000000
#094371:00230000
#095321:0000001300000000
#095361:0000000000230000
#0953b0:0000000000130023
#095380:00000053
#095321:0000000000000013
#096351:53
#096321:0023000000000000
#0963b0:0013002300000000
#096380:00530000
#096321:0000001300230000
#096351:0053
#0963b0:0000000000130033
#096380:00000053
#0973b0:23
#097321:13230000
#097351:0053000000000000
#098371:0000000000000013
#0993b1:0023
#099321:0000000000000013
#100361:0023000000000000
#1003b1:0000001300000000
#100371:0000000000230000
#101361:14
#101321:00240000
#101361:0000001400000000
#1013a1:0000000000240000
#102321:00130000
#102351:0023
#1023b0:00130000
#102380:0023
#103360:0000000000130000
#103320:0000000000000023
#103371:0000000000000013
#1043b1:0023000000000000
#104360:0013000000000000
#104320:0000002300000000
#1043b1:0000001300000000
#104381:0000000000230000
#107371:13
#1073b1:00230000
#108321:0000001300230000
#108351:0053
#108380:0000001300230000
#1083b0:0053
#108360:0000000000000013
#109320:0023000000000000
#1083b1:0000000000000013
#109371:0023000000000000
#109371:0000001300000000
#1093b1:0000000000230000
#109320:0000001300000000
#109360:0000000000230000
#110320:0000001300000000
#110360:00000000000000000000005300000000
#111320:23
#1113a0:0000000000140024
#111360:00000054
#111321:0000000000000014
#112361:54
#112321:0024000000000000
#112381:0000000000000014
#1143a1:00000054
#116391:54
#118381:00000000005300000000000022000000
#112340:0000000000000014
#114320:00000054
#116330:54
#118350:00000000005300000000000000000000
#118360:00000022
