This file was generated by Ched 2.7.0.0.
#TITLE ""
#ARTIST ""
#DESIGNER ""
#DIFFICULTY 0
#PLAYLEVEL
#SONGID ""
#WAVE ""
#WAVEOFFSET 0
#JACKET ""
#REQUEST "ticks_per_beat 480"
#00002: 4
#BPM01: 192
#00008: 01
#TIL00: ""
#VOLUME: ""
#HISPEED 00
#MEASUREHS 00
#00418:0000000000000012
#0061a:00120000
#00618:0012
#00616:00000012
#00915:0013001300130000
#00918:00131300
#0091b:0000000000000013
#0101b:0000000000000013
#01012:0000001300000000
#01115:0013001300000000
#01118:00130000
#01112:0000000000000013
#0111b:0000000000000013
#01215:0013001300130000
#01218:00131300
#01212:0000000000000023
#0121b:0000000000000023
#01512:0013000000000013
#01518:00130013
#01515:0000001300130000
#0151b:0013
#01712:0000130000000013
#01715:2313
#01718:0000130000130000
#0171b:23
#01710:41
#01818:0000130000000013
#01815:0000001300000000
#0181b:0013
#01812:0000000000130000
#02112:13
#02115:0000001300130000
#02118:00131300
#0211b:0000000000000013
#0201b:0000000000130000
#02015:00000013
#02018:0000000000000013
#02014:0013130000000000
#02019:0013130000000000
#02218:0000000000000013
#02212:0000001300000000
#02418:00000013
#02415:0000000000000013
#02412:0000000000130000
#03015:0013
#03018:0000000000130000
#03115:00130000
#03118:0000001300000000
#03114:0000000000130000
#03119:0000000000130000
#03112:0000000000000024
#0311a:0000000000000024
#03612:00000013
#03618:0000000000130013
#03718:00130000
#03715:0000001300000000
#0371b:0000000000000013
#03712:23
#03812:0013
#04413:24000014
#04419:24000014
#04418:00240000
#04414:0000002400000000
#04615:0013
#04618:00000013
#04918:0013000000000000
#04915:00130000
#0491b:0000001300000013
#04912:2313
#05219:00000013
#05214:00000013
#05212:00000013000000000000000000000000
#06018:0000000000130000
#06015:00000013
#06012:0000001300000000
#0601b:0000001300000000
#07816:00000012
#0791b:13
#07912:13
#07915:0000130000000013
#07918:0000001300000000
#08412:0013000000000000
#08414:00000013
#08419:00000013
#0841b:0013000000000000
#0891b:1313
#08912:1300000000000013
#08915:00230000
#0501b:0000000000000013
#05012:0000001300000000
#05115:1300000000000013
#05118:00130000
#05112:0000001300000000
#0511b:0000000000130000
#04818:00000013
#04815:0000000000130000
#00218:0012
#00216:00000012
#0131b:0013001300130000
#01315:0000130013000013
#01418:00131300
#01412:0000001300130023
#0141b:0000000000000023
#03915:0000001300000000
#03918:0000000000130000
#0391b:13
#03912:0000000000000013
#01912:0000000000000013
#01915:13
#01918:0000001300000000
#0191b:0000000000000013
#0161b:0013000000000000
#01615:00130000
#01618:0000001300000000
#0161a:0000000000240000
#01612:0024
#05815:00000013
#05818:0000000000000013
#0581b:00130000
#06314:0000000000000014
#06318:0000000000000014
#08112:13
#0811b:13
#08118:00130000
#08218:0000000000000013
#08318:00001313
#08315:2300000000130013
#09219:00000013
#09219:00000013
#09214:00000013
#0921b:00000013000000000000000000000000
#10015:0000000000130000
#10018:00000013
#1001b:0000001300000000
#10012:0000001300000000
#0621a:0000000000001424
#06212:0000000000001424
#10212:0000000000001424
#1021a:0000000000001424
#00116:0000120000120000
#0011a:12
#00118:0000001200000000
#00114:12
#0031a:12
#00316:00120000
#08615:00000013
#08618:0013
#02518:1313
#02515:0000001300000000
#02512:0000000000130000
#02814:0014000000000000
#0281b:0000000000130013
#02815:00000013
#0291b:0000000000000013
#02915:13000013
#02918:0000001300000000
#03412:0000000000130000
#03415:0013000000001300
#03418:0000130000000013
#03515:0000000000000013
#03518:0000001300000000
#04015:00000013000000000000000000000000
#0401a:00000014
#04515:0000001300000013
#0451b:0000001300000013
#04518:0000000000130000
#04512:2400000000130000
#0451a:24
#04510:41
#0531b:0000001300000013
#05318:0000000000130000
#05312:2400001300000013
#05315:0000000000130000
#0531a:24
#0541b:0013
#05415:0013
#05412:00000013
#05418:00000013
#05612:0013000000130000
#05618:0013000000130000
#0561b:0000001300000000
#05615:0000001300000000
#0551b:0000000000000013
#05515:0000000000000013
#0551a:14
#05514:14
#0571b:2313
#05718:00000013
#05715:2300000000130000
#05712:0000000000000013
#0591b:0000001300000000
#06518:0013001300000000
#06515:00130000
#0651b:0000000000000013
#06512:0000000000000013
#06618:0013001300130000
#06615:00131300
#0661b:0000000000000023
#06612:0000000000000023
#0691b:0013000000000013
#06915:00130013
#06918:0000001300130000
#06912:0013
#06712:0013001300130000
#06718:0000130013000013
#06815:00131300
#0681b:0000001300130023
#06812:0000000000000023
#07014:00000012
#07118:12
#07116:00120000
#0711f:11
#0721a:0012
#07218:00000012
#07518:00000012
#07514:12121200
#0751a:0012001200000000
#07714:12
#07718:00120000
#07316:12
#07318:00120000
#07416:0000000000120000
#07418:00000012
#08815:00000013
#08818:0000000000130000
#08518:0000001300000013
#08512:2400001300000013
#08515:0000000000130000
#0851b:0000000000130000
#0851a:24
#0851f:21
#0931b:0000001300000013
#09318:0000000000130000
#09312:2400001300000013
#09315:0000000000130000
#0931a:24
#0961b:0013000000130000
#09615:0013000000130000
#09612:0000001300000000
#09618:0000001300000000
#09512:1400000000000013
#09518:1400000000000013
#09418:0013
#09412:0013
#09415:00000013
#0941b:00000013
#09818:00000013
#09812:00130000
#09815:0000000000000013
#10314:00000000000000000000000000140000
#10318:00000000000000000000000000140000
#1051b:1313
#10514:0000000000000013
#10519:00000013
#10516:0000000000130000
#10512:00130000
#10619:0013
#10617:13130000
#10614:0000001300000000
#10612:0013000000000000
#10616:0000000000130000
#1061b:00000013
#10718:00131313
#10715:0000001300130000
#10712:2300000000000013
#1071b:23
#1081b:0013000000000013
#10818:0000001300000000
#10812:0000001300000000
#10815:0000000000000013
#10912:0000001300000023
#10918:0000001300000000
#1091b:0000000000000023
#11115:0013000000130000
#11118:00131300
#1111b:0000001300000000
#11112:23
#11218:0013000014001400
#11215:00130000
#11214:0000000000140014
#04712:1400001300000000
#0471a:14
#0471b:0000001300000000
#04715:0000000000000013
#04718:0000000000000013
#08712:1400001300000000
#0871a:14
#0871b:0000001300000000
#08715:0000000000000013
#08718:0000000000000013
#08710:41
#00018:00000012
#0051a:0012
#00516:0000000000120000
#00518:00000012
#00514:0000000000000012
#04112:14140000
#0411a:0014
#04218:00130000
#0421b:0000000000000013
#04318:00000013000000000000000000000000
#0431b:00000023
#04312:00000023
#08018:0013
#08015:00000013
#09012:0000000000000013
#0901b:0000001300000000
#09118:1300000000000013
#09115:00130000
#0911b:0000001300000000
#09112:0000000000130000
#09712:2313
#09715:00000013
#09718:2300000000130000
#0971b:0000000000000013
#09912:0000001300000000
#03218:0000000000000013
#03212:00000013
#03318:0000000000130000
#03310:41
#02712:2400000000000024
#02714:0000002400000000
#0271a:0000000000240000
#02718:00240000
#06112:2400000000000024
#0611a:2400000000000024
#06119:0000000000240000
#06113:0000000000240000
#06114:0000002400000000
#06118:00240000
#06110:41
#1011a:2400000000000024
#10112:2400000000000024
#10113:0000000000240000
#10119:0000000000240000
#10118:0000002400000000
#10114:00240000
#10110:41
#11012:0000002300000000
#1101b:0000002300000000
#11015:0023000000000000
#11018:00230000
#00818:0000000000000026
#03852:0053
#04454:0000001400000000
#06152:1400000000000014
#0615a:1400000000000014
#1015a:1400000000000014
#10152:1400000000000014
#0095b:0000000000000063
#01052:0000005300000000
#01155:0000005300000000
#0495b:0000000000000053
#04952:0063
#05052:0000006300000000
#05858:0000000000000053
#0585b:00630000
#06252:0000000000000054
#0625a:0000000000000064
#06354:0000000000000024
#06358:0000000000000024
#04552:1400000000530000
#0455a:14
#04555:0000006300000063
#0455b:0000006300000063
#04558:0000000000530000
#05352:1400005300000053
#0535a:14
#0535b:0000006300000063
#05358:0000000000530000
#05355:0000000000630000
#09352:1400005300000053
#0935a:14
#0935b:0000006300000063
#09358:0000000000530000
#09355:0000000000630000
#01355:0000000000000053
#02252:0000005300000000
#01752:0000000000000053
#01955:63
#01958:0000005300000000
#0215b:0000000000000063
#02455:0013000000000000
#02458:0013000000000000
#02558:53
#02854:0024000000000000
#02752:0000000000000054
#0295b:0000000000000063
#02955:63
#02958:0000005300000000
#03058:0000000000630000
#03555:0000000000000053
#03755:0000005300000000
#0375b:0000000000000063
#0395b:63
#03952:0000000000000063
#04055:00000023000000000000000000000000
#0405a:00000014
#05652:0053000000530000
#05658:0053000000530000
#0565b:0000006300000000
#05655:0000006300000000
#0555b:0000000000000063
#05555:0000000000000063
#0575b:13
#05755:13
#0595b:0000002300000000
#06558:0000006300000000
#06758:0000000000000063
#0695b:0000000000000063
#07955:0000000000000063
#07958:0000005300000000
#08552:1400005300000053
#0855a:14
#08558:0000005300000053
#08555:0000000000630000
#0855b:0000000000630000
#0965b:0063000000630000
#09655:0063000000630000
#09652:0000005300000000
#09658:0000005300000000
#09552:0000000000000053
#09558:0000000000000053
#09758:13
#09752:13
#09852:00530000
#09855:0000000000000063
#10354:00000000000000000000000000240000
#10358:00000000000000000000000000240000
#10252:0000000000000054
#1025a:0000000000000064
#10752:0000000000000013
#1085b:0013000000000023
#10858:0000005300000000
#10852:0000005300000000
#10855:0000000000000023
#10552:00130000
#1055b:13
#10952:0000005300000000
#10958:0000005300000000
#11155:0000000000630000
#11254:0000000000000064
#03152:0000000000000014
#0315a:0000000000000014
#08355:13
#00858:0000000000000016
#04152:00140000
#0425b:0000000000000053
#04358:00000023000000000000000000000000
#05155:0000000000000063
#05252:00000023000000000000000000000000
#0895b:0053
#08952:0000000000000063
#08955:00130000
#09158:0000000000000053
#0925b:00000023000000000000000000000000
#0905b:0000005300000000
#09952:0000002300000000
#03358:0000000000630000
#0875b:0000006300000000
#08752:0000005300000000
#08755:0000000000000063
#08758:0000000000000053
#0475b:0000006300000000
#04752:0000005300000000
#04755:0000000000000063
#04758:0000000000000053
#001340:0000000000000012
#002340:00220000
#0033a0:0000001200220000
#003380:0000000000000012
#004380:0022000000000000
#004360:0000001200220000
#005340:12220000
#0063a0:0000000000000012
#0073a0:0000000000000032
#008380:0000000000000026
#0093b0:0000000000000013
#010380:0023000000000000
#010320:0000001300000000
#010350:0000000000230000
#011350:0000001300000000
#011320:0000000000230000
#013350:0000000000000013
#014320:0023000000000000
#017320:0000000000000013
#018350:0023000000000000
#019350:13
#019320:00230000
#019380:0000001300000000
#0193b0:0000000000230000
#0213b0:0000000000000013
#022380:0023000000000000
#022320:0000001300000000
#022350:0000000000230000
#023350:1300000000000033
#023320:0033
#024350:0023000000000000
#0233b1:0013
#023381:0000000000000033
#024381:0023000000000000
#025381:13
#0253b1:00230000
#0253b1:0000000000000013
#026381:0033003300000000
#0263b1:0000000000330023
#027321:0000000000000014
#028341:0054000000000000
#028321:0000002400000000
#029351:13
#029321:00230000
#029381:0000001300000000
#0293b1:0000000000230000
#0293b1:0000000000000013
#030381:00230000
#030381:0000000000130000
#0313b1:23
#0323b1:0000001300230000
#033351:13230000
#033381:0000001300330000
#0333b1:0000000000000023
#035351:13230000
#035351:0000000000130033
#036321:0023
#037351:0000001300000000
#037321:0000000000230000
#0373b1:0000000000000013
#038381:00230000
#038321:0013
#038351:00000023
#0393b1:13
#039381:00230000
#039321:0000000000000013
#040351:00000053000000000000000000000000
#040321:0023
#041351:00000013
#042321:23
#042321:0000001300000000
#042351:0000000000230000
#0423b1:0000000000000013
#043381:00000053000000000000000000000000
#0433b1:0023
#0453b1:0000133300000033
#045381:0000000000330000
#046381:00230000
#045350:0000133300000033
#045320:0000000000330000
#046320:00230000
#0473b0:0000133300000000
#047380:0000000000330033
#0483b0:00230000
#047321:0000133300000000
#047351:0000000000330033
#048321:00230000
#049321:0013
#049351:00000023
#0493b1:0000000000000013
#050381:0023000000000000
#050321:0000001300000000
#050351:0000000000230000
#051351:0000000000000013
#052321:00000053000000000000000000000000
#052351:0023
#0533b1:0000133300000033
#053381:0000000000330000
#054381:00230000
#053320:0000133300000033
#053350:0000000000330000
#054350:00230000
#055320:0000133300000000
#055350:0000000000330033
#056320:0033000000330000
#056350:0000003300000033
#057350:23
#055381:0000133300000000
#0553b1:0000000000330033
#056381:0033000000330000
#0563b1:0000003300000033
#0573b1:23
#0583b1:00130000
#058381:0023
#058381:0000000000000013
#0593b1:0000005300000000
#059381:0000000000000023
#062321:00140000
#062341:0024
#0623a0:00140000
#062380:0024
#062320:0000000000000014
#063340:0000000000000054
#064320:0000000000000024
#0623a1:0000000000000014
#063381:0000000000000054
#0643a1:0000000000000024
#065381:0000001300000000
#0653b1:0000000000230000
#067381:0000000000000013
#0683b1:0023000000000000
#0693b1:0000000000000013
#070371:0023
#071381:0000001200220000
#071361:0000000000000012
#072361:00220000
#073361:0000001200220000
#073381:0000000000000012
#074381:00220000
#075361:0000000000000012
#076361:0022000000000000
#076381:0000001200220000
#077361:0000001200220000
#0773a1:0000000000000012
#0783a1:0022
#079381:0000001300000000
#0793b1:0000000000230000
#079351:0000000000000013
#080321:00230000
#081351:0000001300000000
#081321:0000000000230000
#081381:0000000000000013
#0823b1:0023000000000000
#082351:0000001300000000
#082321:0000000000230000
#084321:00130000
#084351:0023
#0843b0:00130000
#084380:0023
#085320:0000133300000033
#085350:0000000000330000
#086350:00230000
#085381:0000133300000033
#0853b1:0000000000330000
#0863b1:00230000
#0873b1:0000133300000000
#087381:0000000000330033
#0883b1:00230000
#087320:0000133300000000
#087350:0000000000330033
#088320:00230000
#0893b0:0013
#089380:00000023
#089320:0000000000000013
#090350:0023000000000000
#0903b0:0000001300000000
#090380:0000000000230000
#091380:0000000000000013
#0923b0:00000053000000000000000000000000
#092380:0023
#0933b0:0000133300000033
#093380:0000000000330000
#094380:00230000
#093321:0000133300000033
#093351:0000000000330000
#094351:00230000
#0953b1:0000133300000000
#095381:0000000000330033
#0963b1:0033000000330000
#096381:0000003300000033
#097381:23
#095350:0000133300000000
#095320:0000000000330033
#096350:0033000000330000
#096320:0000003300000033
#097320:23
#098320:00130000
#098350:0023
#098350:0000000000000013
#099320:0000005300000000
#099350:0000000000000023
#1023a0:00140000
#102380:0024
#102321:00140000
#102341:0024
#102321:0000000000000014
#103341:00000000000000000000000000540000
#104321:00000024
#1023a0:0000000000000014
#103380:00000000000000000000000000540000
#1043a0:00000024
#108380:0000001300000000
#1083b0:0000000000230000
#108321:0000001300000000
#108351:0000000000230000
#108351:0000000000000013
#109321:0023000000000000
#1083b0:0000000000000013
#109380:0023000000000000
#109320:0000001300000000
#109350:0000000000230000
#109381:0000001300000000
#1093b1:0000000000230000
#110321:0000001300000000
#110351:00000023
#1103b0:0000001300000000
#110380:00000023
#111350:0000000000130000
#111320:0000000000000023
#112340:0000000000000014
#118320:00000000005400000000000022000000
