This file was generated by Ched 2.7.0.0.
#TITLE ""
#ARTIST ""
#DESIGNER ""
#DIFFICULTY 0
#PLAYLEVEL
#SONGID ""
#WAVE ""
#WAVEOFFSET 0
#JACKET ""
#REQUEST "ticks_per_beat 480"
#00002: 4
#BPM01: 192
#00008: 01
#TIL00: ""
#VOLUME: ""
#HISPEED 00
#MEASUREHS 00
#0001c:00000012
#00012:00000012
#0011a:1200000000120000
#00114:1200000000120000
#00118:0000121200000000
#00116:0000121200000000
#00112:0000000000000012
#0011c:0000000000000012
#00212:0012
#00218:0012
#00216:00000012
#0021c:00000012
#00312:12
#00318:1200001200000000
#00316:0000120000120000
#0031c:0000000000120000
#0031a:00120000
#00314:0000001200000000
#0051a:0012
#00518:0000000000120000
#00516:00000012
#00514:0000000000000012
#0051c:12
#00512:12
#0061c:00120000
#0061b:0012
#0061a:0000000000001212
#00612:00120000
#00613:0012
#00614:0000000000001212
#00916:0013000000130013
#0091b:0013000000131313
#00912:0000001300001300
#00919:00131300
#00914:00131300
#00917:0000001300000000
#01017:1313000000000013
#01016:00000000130013000000001300000000
#0101b:0000001300131300
#01012:0013000013001313
#01112:0013000013000000
#01118:00130000
#0111b:1300001300130013
#01115:00130000
#01116:0000001300000013
#01414:00130000
#01417:1300001300000000
#01416:0013000013000000
#01419:00130000
#01412:0000001300000023
#0141b:0000000013000023
#01512:0013001313000023
#0151b:0000130013000023
#01515:0000000000131300
#01517:0013001300000000
#01516:00130000
#01518:00000000000000000013000013000000
#01615:0013131300001300
#01618:00000013001300130000000000001300
#01612:0000000023230000
#0161b:0000000023230000
#11216:1414000014001400
#11212:0000140000140018
#1121a:0000140000000024
#01712:23131313
#0171b:23130000
#01717:0000000000130013
#01710:41
#01812:13131313
#01819:00131300
#01817:0000001300000013
#0181b:0000000000130000
#02012:13131313
#0201b:0000130000000013
#02015:0000000000130000
#02018:00000013
#0211b:13131313
#02116:1300000000130013
#02112:0000001300000000
#02114:0013
#0221b:13131313
#02212:0000001300000000
#02216:0000000000000013
#0231b:1300130013001313
#02316:1300000000000013
#02312:0013
#02412:00001313
#02416:0000000000000013
#02415:0000000000130000
#02418:00000000000000000000001300000000
#0241b:00000013
#02512:2300130013001313
#02519:0013
#0251b:1300000000130013
#02517:0000001300001300
#03012:0000002413000013
#03018:0000000000131300
#03014:00130000
#03015:00000000000000000000001300000000
#0301b:0013001313000013
#03118:00131313
#03115:00001300000000000000130000130000
#03112:1300002400000024
#0311b:0000001300000000
#0311a:2400000000000024
#03213:0000001300000000
#03212:00001313
#0321b:0000000013000013
#03218:00001300000000000013000000000000
#03219:00130000
#03215:0013000000130000
#03214:00130000
#0321a:0000001300000000
#03217:00000013
#03216:0000000000000013
#03319:0000000000130000
#0331b:00130013
#03312:2300000013000013
#03317:1300000000000013
#03314:0000001300000000
#03316:00130013
#03310:41
#03412:0000000013130000
#03415:00000013
#03418:0000000000000013
#03417:0013001300000000
#03416:13130000
#0341b:0000130000130000
#03912:13130013
#03914:0000001300000000
#03916:0000000013000013
#03918:0000000000130000
#0391b:23232323
#04012:13001314
#04018:0013000000130013
#04015:00000000000000000000001300000000
#04016:00130000
#04014:0000001300000000
#0401b:23232323
#04118:00140000
#04112:23132613
#04115:0000001300000000
#0411b:2313
#04119:0000000000000013
#04117:00000013
#0431b:0013131300131313
#04312:0013001313130013
#04315:00262626
#04516:00000000130013000000000000000013
#0451b:0000131300000013
#04518:0000000000000013
#04519:00000000000000001300000000000013
#04517:0000000000130000
#04515:26000013
#04512:23
#04510:41
#04916:0013001300000000
#04912:2300130013000013
#0491b:00000013
#04917:0000000000000013
#05219:00130000
#05212:0000131300000013
#05218:00000000000000001300000000130000
#05215:00000000000000000013000013000000
#0521b:0000001300130000
#05217:0013000000000000
#05712:0000130000000013
#0571b:1313
#05718:0000000000130000
#05715:00000013
#05716:23
#0581b:0013130000000023
#05816:0000130000001313
#05817:0013
#05917:0013130000000013
#05919:0000001300001300
#0591b:0000000013130000
#05916:00000000000000000013000000000000
#05914:00000013
#05912:00000013000000000000000000002300
#0601b:0000130013130000
#06015:00000000001300000000000013001300
#06018:00000000000013000000000000130013
#06016:0013000000000000
#06012:0000130013130000
#08912:0000260013000013
#08916:14000013
#08917:0000000000130013
#08915:0000001300000000
#0891b:0013
#08914:0000000000130000
#08918:00260000
#0501b:1300000013000013
#05012:0013131300130000
#05017:0000001300000000
#05019:00000013
#05116:1300001300000013
#05112:0000130000130000
#05114:00000013
#05119:00000013
#0511b:1300001300000023
#09012:0000130000000013
#09019:00131300
#09014:0013001300000000
#09016:13001313
#09017:0013000000130000
#0901b:1300001300001300
#09117:1300130013000023
#0911b:0013001300000000
#09112:1300000013000013
#09116:0013001300130000
#09114:00000013
#09119:00000013
#0921b:0013131300000000
#09214:00000000130000000000000000130000
#09216:0013
#09219:00000000000000000013000000000000
#09213:0000000000130000
#09217:00000013
#0921a:0000000000000013
#09212:0000001300000000
#10317:0013001300130000
#1031b:00131300
#1041b:0000000000131300
#10416:00000000130000000000001300000000
#10419:0000000000000013
#10417:13
#10412:0000001300000000
#10512:1300000013130013
#10517:13000000000000000013000000001300
#1051b:00130013
#10516:00130013
#10519:0013000000000000
#10514:0000001300000000
#1061b:13
#1061a:0013000000000000
#10619:00130000
#10618:0000001300000000
#10613:0000000000130000
#10614:00000013
#10615:0000000000000013
#10616:13
#10617:0013
#10718:00000000001300000000000000000000
#10716:1300000000130000
#1071b:2300130000130013
#10715:0000001300000000
#10717:00001313
#10712:00001313
#09312:2300130013130000
#09316:0000001300001300
#09317:00131300
#0931b:0000001300001300
#09315:29
#09517:00131300
#09512:1900130013130000
#0951b:1300001300001313
#09519:0013000000000000
#09516:0000001300001300
#1111a:0014140014000014
#11112:2800140014140018
#11116:00000000001414000000180000000000
#1091b:0013001300000000
#10917:0000000000130000
#10912:0000000000130000
#10916:0013000000000024
#00718:0000000000000012
#00716:0000000000000012
#01912:13131313
#01917:1300000013000013
#0191b:0013001300000000
#0131b:0000000000130013
#01312:0013000000001313
#01317:00000013
#02716:00000014000000001400000014000000
#02712:2400242400000024
#0271a:2400000000240000
#0281b:0013130013000013
#02817:00140000000000000000000000000000
#02816:0000001300000000
#02812:0013
#02815:0000000000130000
#02818:00000013
#03512:00130013
#03516:1300000000000013
#03519:0000001300000000
#03517:00130013
#0351b:1300000013000013
#03514:0000000000130000
#0361b:0000000013130000
#03615:0000000000001313
#03618:00000000000000000000000000130013
#03612:0000130000130000
#03616:0013001300000000
#03617:13130000
#0261b:1313000013130000
#02616:1313
#02617:00130013
#02612:0000131300001313
#06912:0000130000000016
#06918:0000000000001316
#06915:00000000000000000000000000130000
#0691b:0013001300000000
#06916:0013001300000000
#06917:00130000
#08318:00130000
#08319:0000001300000000
#0831a:0013
#0831b:2300000000131313
#08312:2300000000131313
#08315:00130000
#08314:0000001300000000
#08313:0013
#08412:0000002300130000
#0841b:0013000000130000
#08418:0000000000001313
#08415:00000000000000000000000000130013
#08416:13
#08417:00130000
#08812:00001400000016000000140000140000
#0881a:0014000000141400
#08818:0000001600000014
#08814:00000000000000000000000000000014
#08816:00140000
#0851b:0000000000130000
#08518:26000000000000001300001300002600
#08515:0000001300001300
#08512:2600000000130013
#0851f:21
#0861b:0013001300000000
#08615:00000013000000000000000013000000
#08618:0000130000130000
#08612:0013002600000000
#04216:13130000
#04212:0000000013260023
#0421b:1313130000130023
#04214:0000001300000000
#04218:0026
#04415:26161616260000000000000000000000
#04417:00000012
#04412:0000002600000000
#04418:0000002600000000
#0381b:13001313
#03815:0013000000130000
#03818:00000000000000000000001300000000
#03817:00130000
#03819:0000001300000000
#03812:23232323
#0371b:13130013
#03719:0000001300000000
#03717:0000000013000013
#03715:0000000000130000
#03712:23232323
#00412:0000000000000012
#04614:13000013000000000000130000000000
#04617:13000013000000000000000013000000
#04618:00130000000000000000000000000000
#04615:00130000000000000000000000000000
#04619:0013000000000013
#04616:0013000013000000
#04612:00000013
#0461b:0013
#04715:16
#0471b:1300000013130000
#04719:0013000000000000
#04712:0000131300001313
#04717:0000131300001300
#04716:0013
#04818:0000130000130000
#04815:00000000000013000000001300000000
#0481b:0013000013001300
#04812:0013
#04817:00130000000000000000000000000000
#04819:0000000000000013
#0711a:1212
#07112:0012001200120000
#07118:00120012
#0711f:11
#07212:0012001200120000
#07218:00120012
#0721a:0012
#07316:1200120000120000
#07314:0012000000000012
#0731c:0000001200000000
#07416:0012000000001200
#07414:00120000
#0741a:0012
#07418:0000000000120000
#07516:1200120000000012
#07514:0012000000000000
#07614:0012000000000000
#07616:00120000
#07814:0012000000120000
#07817:00120012
#0781a:0000001200000000
#07714:0000000000120000
#07717:00000012
#0771a:0000000000000012
#08112:00131313
#0811b:13
#08119:0013000000000000
#08116:13
#08117:00130000
#0821b:00131313
#08217:0000000000000013
#08212:13
#07917:0013
#0791b:13130013
#07919:0000001300130000
#07914:0000000000000013
#07912:13131313
#0801b:13130013
#08016:13
#08019:0000000000130000
#08012:00131313
#08014:0013000000000013
#08017:0013
#05515:16
#05512:1300001300000000
#05514:0013000013000000
#0551b:00130000
#05516:0000130000130000
#05517:0000001300000013
#05519:00000013
#05312:0000131300000013
#05317:0000131300000000
#05314:0013
#05318:00000013
#0531b:2300000000000013
#05316:0000000000130000
#05315:26
#05414:0000000000000013
#0541b:00000013
#05417:000000000000000000000000000000000000000000000000000000000000000000000000000000000000000000000000000000000000000000000000000000000000000000000000000000000000000000000000000000000000000000000000000000000000000000000000000000000000000000000000001300000000000000000000000000000000000000000000000000000000000000000000000000000000000000000000000000000000000000000000000000000000000000000000000000000000000000000000000000000000000000000000000000000000000000000000000000000000000000000000000000000000000000000000000000000000000000000000000000000000000000000000000000000000000000000000000000000000000000000000000000000000000000000000000000000000000000000000000000000000000000000000000000000000000000000000000000000000000000000000000000000000000000000000000000000000000000000000000000000000000000000000000000000000000000000000000000000000000000000000000000000000000000000000000000000000000000000000000000000000000000000000000000000000000000000000000000000000000000000000000000000000000000000000000000000000000000000000000000000000000000000000000000000000000000000000000000000000000000000000000000000000000000000000000000000000000000000000000000000000000000000000000000000000000000000000000000000000000000000000000000000000000000000000000000000000000000000000000000000000000000000000000000000000000000000000000000000000000000000000000000000000000000000000000000000000000000000000000000000000000000000000000000000000000000000000000000000000000000000000000000000000000000000000000000000000000000000000000000000000000000000000000000000000000000000000000000000000000000000000000000000000000000000000000000000000000000000000000000000000000000000000000000000000000000000000000000000000000000000000000000000000000000000000000000000000000000000000000000000000000000000000000000000000000000000000000000000000000000000000000000000000000000000000000000000000000000000000000000000000000000000000000000000000000000000000000000000000000000000000130000000000000000000000000000000000000000000000000000000000000000000000000000000000000000000000000000000000000000000000000000000000000000000000000000000000000000000000000000000000000000000000000000000000000000000000000000000000000000000000000000000000000000000000000000000000000000000000000000000000000000000000000000000000000000000000000000000000000000000000000000000000000000000000000000000000000000000000000000000000000000000000000000000000000000000000000000000000000000000000000000000000000000000000000000000000000000000000000000000000000000000000000000000000000000000000000000000000000000000000000000000000000000000000000000000000000000000000000000000000000000000000000000000000000000000000000000000000000000000000000000000000000000000000000000000000000000000000000000000000000000000000000000000000000000000000000000000000000000000000000000000000000000000000000000000000000000000000000000000000000000000000000000000000000000000000000000000000000000000000000000000000000000000000000000000000000000000000000000000000000000000000000000000000000000000000000000000000000000000000000000000000000000000000000000000000000000000000000000000000000000000000000000000000000000000000000000000000000000000000000000000000000000000000000000000000000000000000000000000000000000000000000000000000000000000000000000000000000000000000000000000000000000000000000000000000000000000000000000000000000000000000000000000000000000000000000000000000000000000000000000000000000000000000000000000000000000000000000000000000000000000000000000000000000000000000000000000000000000000000000000000000000000000000000000000000000000000000000000000000000000000000000000000000000000000000000000000000000000000000000000000000000000000000000000000000000000000000000000000000000000000000000000000000000000000000000000000000000000000000000000000000000000000000000000000000000000000000000000000000000000000000000000000000000000000000000000000000000000000000
#05416:00130000000000000000000013000000
#05419:0000000000130000
#05412:0013
#0621a:0014140000000000
#06212:0014140000000026
#06218:0000001300000026
#06215:0000001300000000
#06317:0013000000130013
#06312:0013000000131313
#0631b:0000001300001300
#06314:00131300
#06319:00131300
#06316:0000001300000000
#06416:1313000000000013
#06417:00000000130013000000001300000000
#06412:0000001300131300
#0641b:0013000013001313
#0651b:0013000013000000
#06515:00130000
#06512:1300001300130013
#06518:00130000
#06517:0000001300000013
#06819:00130000
#06816:1300001300000000
#06817:0013000013000000
#06814:00130000
#0681b:0000001300000023
#06812:0000000013000023
#06712:0000000000130013
#0671b:0013000000001313
#06716:00000013
#08712:0000140000001800000014000000000000001c0000260000
#08716:180014000000181400000000
#0871a:001414
#08718:0000000000000016
#08710:41
#0971b:1300000000000013
#09715:0000000000130000
#09718:00000013
#09712:2313
#09717:0013000000000000
#09716:00130000
#09812:0013130000000023
#09817:0000130000001313
#09816:0013
#09916:0013130000000013
#09914:0000001300001300
#09912:0000000013130000
#09917:00000000000000000013000000000000
#09919:00000013
#0991b:00000013000000000000000000002300
#10012:0000130013130000
#10018:00000000001300000000000013001300
#10015:00000000000013000000000000130013
#1001b:0000130013130000
#10017:0013000000000000
#1021a:0014140000000000
#10212:0014140000000026
#10218:0000001300000026
#10215:0000001300000000
#0941b:0013
#09416:0013
#09419:0000000000130013
#09412:00000013
#09417:00000013
#10115:0016
#10114:00000018
#10116:00140000
#10112:2400002400260026
#10118:0000002600000026
#1011a:2400000000240000
#10110:41
#06115:0016
#06114:00000018
#06116:00140000
#0611a:2400002400000000
#06112:2400002600240026
#06118:0000000000260026
#06110:41
#11012:0000002413000013
#11014:0000000000130000
#11016:00240013
#1101b:00000000000013000000000000130000
#11017:00000000000000000013000000000013
#1101a:0024000000000000
#11812:00000000001400000000000000000000
#10812:0013001300000013
#10817:1300001300000000
#10816:0000130013000024
#1081b:0013
#02912:2400001300130013
#02919:00000013
#02916:00130000
#02917:13
#0291b:0000001300000000
#0291a:0000000000000024
#05614:0000000000000013
#05619:0000000000000013
#05617:00000013
#0561b:1313000013130000
#05612:0000131300001300
#09616:00130013
#0961b:0013000000131300
#09612:0000001300000013
#09617:1300000013000013
#00818:0000000000000026
#00812:0000000000000026
#01212:0000000000000023
#0121b:0000000000000023
#0661b:0000000000000023
#06612:0000000000000023
#01057:0053000000000053
#01056:0000006300000000
#01052:0023
#02552:0000000000000053
#0255b:63
#0335b:00230000
#03352:0000000013000053
#03357:53
#04052:00000034
#04158:00440000
#04452:0000001600000000
#04458:0000001600000000
#08952:0000360000000063
#08958:00460000
#0895b:0063
#08957:0000000000230000
#10357:0000000000530000
#1035b:0000000000000013
#10552:13
#1055b:00130000
#0235b:0000000000000053
#02356:6300000000000063
#02352:0053
#04555:46
#04556:00000000000063000000000000000063
#04559:00000000000000000000000000000063
#04558:0000000000000023
#0455b:0000000000000023
#04557:0000000000530000
#05355:36
#0535b:0000000000000063
#05356:0000000000630000
#05357:0000005300000000
#05352:0000000000000053
#09357:0023
#09355:49
#0935b:0000006300000000
#09356:00000023
#09352:0000000000530000
#1095b:0013006300000000
#10957:0000000000530000
#10956:0063000000000014
#10952:0000001300130000
#0065a:0000000000000062
#00654:0000000000000052
#00758:0000000000000052
#00756:0000000000000062
#00858:0000000000000016
#00852:0000000000000016
#0055c:12
#00552:12
#00956:0000000000000063
#0115b:2300000000000063
#01156:0000006300000063
#01152:0023
#0135b:0000000000000063
#01457:2300005300330000
#01452:0000005300330013
#01456:0023
#0145b:0000000023000013
#01652:0033
#0165b:0000000000430000
#0125b:0000000000000013
#01252:0000000000130013
#01257:0000000000130000
#0155b:0000000000000013
#01552:0000000000000013
#0175b:00630000
#01757:0000000000000053
#01957:5300000023000053
#0195b:0023006300000000
#02156:6300000000000023
#0205b:00630000
#02252:0000002300000000
#02756:00000024000000002400000024000000
#02752:1400005400340054
#0275a:6400004400640044
#02857:00240000000000000000000000000000
#03052:0000001400000000
#0315a:1400000000000014
#03152:0000001400000014
#03452:0013
#03456:23
#0345b:00630000
#03457:0000002300000000
#03552:00230000
#03556:63
#0355b:0000000013000063
#02656:2323
#0265b:0063000000630000
#02657:00230023
#02652:0000005300000000
#0365b:0013
#03657:23
#03652:00530000
#03656:0000002300000000
#06952:0000000000000066
#06958:0000000000000056
#08552:36
#08558:4600000000000046
#08652:0000003600000000
#0835b:1300000000000043
#08352:1300000000000053
#08456:23
#0845b:0063004300000000
#08457:00230000
#08452:0033003300000000
#0425b:0000000000000013
#04252:0000000000000013
#0435b:00430043
#04352:0033
#02452:0013000000000000
#04654:23000063000000000000000000000000
#04657:23000063000000000000000000000000
#04658:00630000000000000000000000000000
#04655:00630000130000000000000000000000
#04659:0023000000000000
#04656:0023000000000000
#04652:00130000
#04755:36
#04757:00000023
#0475b:0000000000630000
#04756:0023
#04752:0000005300000053
#04952:0053
#04957:0000000000000053
#05052:0000000000530000
#05057:0000005300000000
#0505b:2323
#0515b:6300006300000013
#05156:0000000000000063
#05555:46
#05557:0000005300000000
#05556:0000000000630000
#05552:0000000000000013
#05456:00230000000000000000000000000000
#05457:000000000000000000000000000000000000000000000000000000000000000000000000000000000000000000000000000000000000000000000000000000000000000000000000000000000000000000000000000000000000000000000000000000000000000000000000000000000000000000000000002300000000000000000000000000000000000000000000000000000000000000000000000000000000000000000000000000000000000000000000000000000000000000000000000000000000000000000000000000000000000000000000000000000000000000000000000000000000000000000000000000000000000000000000000000000000000000000000000000000000000000000000000000000000000000000000000000000000000000000000000000000000000000000000000000000000000000000000000000000000000000000000000000000000000000000000000000000000000000000000000000000000000000000000000000000000000000000000000000000000000000000000000000000000000000000000000000000000000000000000000000000000000000000000000000000000000000000000000000000000000000000000000000000000000000000000000000000000000000000000000000000000000000000000000000000000000000000000000000000000000000000000000000000000000000000000000000000000000000000000000000000000000000000000000000000000000000000000000000000000000000000000000000000000000000000000000000000000000000000000000000000000000000000000000000000000000000000000000000000000000000000000000000000000000000000000000000000000000000000000000000000000000000000000000000000000000000000000000000000000000000000000000000000000000000000000000000000000000000000000000000000000000000000000000000000000000000000000000000000000000000000000000000000000000000000000000000000000000000000000000000000000000000000000000000000000000000000000000000000000000000000000000000000000000000000000000000000000000000000000000000000000000000000000000000000000000000000000000000000000000000000000000000000000000000000000000000000000000000000000000000000000000000000000000000000000000000000000000000000000000000000000000000000000000000000000000000000000000000000000000000000000000000000000000000000000000000000000000000000000000000000000000000000000000000000000000000000000000000000000000000000000000000000000000000000000000000000000000000000000000000000000000000000000000000000000000000000000000000000000000000000000000000000000000000000000000000000000000000000000000000000000000000000000000000000000000000000000000000000000000000000000000000000000000000000000000000000000000000000000000000000000000000000000000000000000000000000000000000000000000000000000000000000000000000000000000000000000000000000000000000000000000000000000000000000000000000000000000000000000000000000000000000000000000000000000000000000000000000000000000000000000000000000000000000000000000000000000000000000000000000000000000000000000000000000000000000000000000000000000000000000000000000000000000000000000000000000000000000000000000000000000000000000000000000000000000000000000000000000000000000000000000000000000000000000000000000000000000000000000000000000000000000000000000000000000000000000000000000000000000000000000000000000000000000000000000000000000000000000000000000000000000000000000000000000000000000000000000000000000000000000000000000000000000000000000000000000000000000000000000000000000000000000000000000000000000000000000000000000000000000000000000000000000000000000000000000000000000000000000000000000000000000000000000000000000000000000000000000000000000000000000000000000000000000000000000000000000000000000000000000000000000000000000000000000000000000000000000000000000000000000000000000000000000000000000000000000000000000000000000000000000000000000000000000000000000000000000000000000000000000000000000000000000000000000000000000000000000000000000000000000000000000000000000000000000000000000000000000000000000000000000000000000000000000000000000000000000000000000000000000000000000000000000000000000000000000000000000000000000000000000000000000000000000000000000000000000000000000000000
#05452:00330000
#0545b:00430000
#04857:00230000000000000000000000000000
#05856:0000630000000063
#05857:0053
#0585b:0000000000000013
#05957:0000000000000063
#05952:00000023000000000000000000001300
#06252:0000540000000036
#0625a:00640000
#06258:0000002300000046
#06255:0000002300000000
#06456:0063000000000063
#06457:0000005300000000
#0645b:0023
#06552:2300000000000053
#06557:0000005300000053
#0655b:0023
#06357:0000000000000053
#0665b:0000000000130013
#06652:0000000000000013
#06656:0000000000130000
#0685b:0000006300430013
#06852:0000000023000013
#06856:2300006300430000
#06857:0023
#06752:0000000000000053
#08858:0000004600000000
#08752:0000000000000036
#09857:0000530000000053
#09856:0063
#09852:0000000000000013
#0995b:00000023000000000000000000001300
#09956:0000000000000053
#10252:0000540000000036
#1025a:00640000
#10258:0000002300000046
#10255:0000002300000000
#09054:0063006300000000
#09056:2323
#09052:00230000
#09057:0000000000530000
#0905b:00000023
#09152:5300000000000053
#09156:0023000000000000
#0915b:0000006300000000
#09157:0000000023000013
#09552:3900000000530033
#09557:0023
#0955b:0000006300000000
#09556:00000023
#10152:1400001400000016
#1015a:1400000000140000
#10158:0000000000000016
#0615a:1400001400000000
#06152:1400000000140016
#06158:0000000000000016
#10452:0013005300000000
#1045b:0000001300000000
#10756:63
#1075b:1300000000000013
#10656:63
#10657:0053
#11052:0000003400000000
#1105a:0044000000000000
#11056:00140000
#1105b:0000006300000000
#11057:00000000000000000023000000000000
#11152:3800000000000038
#11156:0000000000480000
#1115a:0000000000000054
#11256:24
#1125a:0000440000000014
#11252:0000340000000068
#11852:00000000006400000000000000000000
#10856:0000000023000014
#10852:0013005300330053
#10857:0000005300330000
#1085b:0023
#00152:0000000000000052
#0015c:0000000000000062
#0295a:0000000000000014
#02952:1400000000000063
#02957:63
#0295b:0000005300000000
#09452:00330000
#0945b:00430000
#0575b:63
#05756:13
#0565b:0013000000130000
#05652:0000001300000000
#0965b:0043000000430000
#09652:0000003300000000
#09757:0023000000000000
#0975b:63
#09752:33
#001320:0000000000000012
#002360:00220000
#0013c1:0000000000000012
#002381:00220000
#003371:0000000000000012
#004321:0022000000000000
#004370:0012000000000000
#0043c0:0000002200000000
#004371:0000001200000000
#004321:0000000000220000
#004370:0000000000120000
#0043c0:0000000000000022
#0063a0:0000000000000012
#007380:0000000000000032
#008380:0000000000000026
#006341:0000000000000012
#007361:0000000000000032
#008321:0000000000000026
#009361:0000000000000013
#010321:23
#010371:0013000000000000
#0103b1:00230000
#010361:0000001300230000
#010321:0053
#010371:0000000000000013
#0113b1:53
#011371:0023000000000000
#011361:0000001300230000
#011321:0053
#0113b1:0000000000000013
#012371:0033003300230000
#0123b1:00333300
#011360:0000000000000013
#012320:0033003300230000
#012360:00333300
#013370:0013000000000000
#0133b0:00230000
#013361:00130000
#013321:0000002300000000
#0133b0:0000001300000000
#013370:0023
#013321:0013
#013361:0000000000230000
#0133b1:0000000000000013
#014371:53
#0143b1:0023000000000000
#014371:0000001300230000
#0143b1:0053
#014320:0000001300230000
#014360:0053
#0173b0:00130000
#017370:0023
#017370:0000000000000013
#0183b0:0023000000000000
#019370:13230000
#0193b0:0053000000000000
#0193b0:0000001300230000
#019370:0053
#019370:0000000000000013
#0203b0:0023000000000000
#0203b0:00130000
#020370:0023
#021360:13
#021320:00230000
#021360:0000000000000013
#022320:0023000000000000
#022320:0000001300000000
#022360:0000000000230000
#023360:13000023
#023320:0033
#0233b0:0000000000000013
#024350:0029
#023361:0000000000000013
#024321:0023000000000000
#0253b0:13
#025370:00230000
#025320:0000000000000013
#026360:53
#026320:0023000000000000
#0263b1:0013002300000000
#026371:00530000
#026320:0000001300230000
#026360:0053
#0263b1:0000000000130023
#026371:00000053
#0273a1:1400002400000000
#027361:00000054000000000000000000000000
#027320:0000001400240000
#027360:0054
#0273a1:0000000000140024
#027361:00000054
#027320:0000000000000014
#028370:00540000000000000000000000000000
#028320:00240000
#029370:13
#0293b0:00230000
#0293b0:0000001300000000
#029370:0000000000230000
#029320:0000000000000013
#030360:0023000000000000
#033370:1323
#0333b0:00530000
#033320:0000000000000013
#034360:53
#034320:0023000000000000
#0343b0:00132300
#034370:0000005300000000
#035360:1323
#035320:00530000
#0353b0:0000000000000013
#036370:53
#0363b0:0023000000000000
#036320:00132300
#036360:0000005300000000
#045360:0000001300000000
#045320:0000000053230000
#045371:0000000000130000
#0453b1:0000000000005333
#045391:00000000000000000000000000000053
#046371:53000053000000000000000000000000
#046381:00530000000000000000000000000000
#046391:0053000000000000
#046351:00230000
#045380:0000000000000013
#045360:00000000000000000000000000000053
#046340:53000053000000000000000000000000
#046350:00530000000000000000000000000000
#046360:0053000000000000
#046320:00230000
#047320:0000001300230000
#047360:0053
#0473b1:0000000000130023
#047371:00000053
#047320:0000000000000013
#048370:00530000000000000000000000000000
#048320:00230000
#049370:13332300
#0493b0:0033003300000000
#049321:0013
#049361:00000023
#049371:0000000000000013
#0503b1:5353
#050371:0033003300230000
#050320:0000000000130000
#050360:0000000000000023
#0513b0:13
#051370:00230000
#0513b0:0000001300000000
#051370:0000000000230000
#051360:0000000000000013
#052320:0023000000000000
#053370:0000001300000000
#0533b0:0000000053230000
#053361:0000000000130000
#053321:0000000000005333
#054361:00530000000000000000000000000000
#054321:00230000
#0533b0:0000000000000013
#054370:000000000000000000000000000000000000000000000000000000000000000000000000000000000000000000000000000000000000000000000000000000000000000000000000000000000000000000000000000000000000000000000000000000000000000000000000000000000000000000000000005300000000000000000000000000000000000000000000000000000000000000000000000000000000000000000000000000000000000000000000000000000000000000000000000000000000000000000000000000000000000000000000000000000000000000000000000000000000000000000000000000000000000000000000000000000000000000000000000000000000000000000000000000000000000000000000000000000000000000000000000000000000000000000000000000000000000000000000000000000000000000000000000000000000000000000000000000000000000000000000000000000000000000000000000000000000000000000000000000000000000000000000000000000000000000000000000000000000000000000000000000000000000000000000000000000000000000000000000000000000000000000000000000000000000000000000000000000000000000000000000000000000000000000000000000000000000000000000000000000000000000000000000000000000000000000000000000000000000000000000000000000000000000000000000000000000000000000000000000000000000000000000000000000000000000000000000000000000000000000000000000000000000000000000000000000000000000000000000000000000000000000000000000000000000000000000000000000000000000000000000000000000000000000000000000000000000000000000000000000000000000000000000000000000000000000000000000000000000000000000000000000000000000000000000000000000000000000000000000000000000000000000000000000000000000000000000000000000000000000000000000000000000000000000000000000000000000000000000000000000000000000000000000000000000000000000000000000000000000000000000000000000000000000000000000000000000000000000000000000000000000000000000000000000000000000000000000000000000000000000000000000000000000000000000000000000000000000000000000000000000000000000000000000000000000000000000000000000000000000000000000000000000000000000000000000000000000000000000000000000000000000000000000000000000000000000000000000000000000000000000000000000000000000000000000000000000000000000000000000000000000000000000000000000000000000000000000000000000000000000000000000000000000000000000000000000000000000000000000000000000000000000000000000000000000000000000000000000000000000000000000000000000000000000000000000000000000000000000000000000000000000000000000000000000000000000000000000000000000000000000000000000000000000000000000000000000000000000000000000000000000000000000000000000000000000000000000000000000000000000000000000000000000000000000000000000000000000000000000000000000000000000000000000000000000000000000000000000000000000000000000000000000000000000000000000000000000000000000000000000000000000000000000000000000000000000000000000000000000000000000000000000000000000000000000000000000000000000000000000000000000000000000000000000000000000000000000000000000000000000000000000000000000000000000000000000000000000000000000000000000000000000000000000000000000000000000000000000000000000000000000000000000000000000000000000000000000000000000000000000000000000000000000000000000000000000000000000000000000000000000000000000000000000000000000000000000000000000000000000000000000000000000000000000000000000000000000000000000000000000000000000000000000000000000000000000000000000000000000000000000000000000000000000000000000000000000000000000000000000000000000000000000000000000000000000000000000000000000000000000000000000000000000000000000000000000000000000000000000000000000000000000000000000000000000000000000000000000000000000000000000000000000000000000000000000000000000000000000000000000000000000000000000000000000000000000000000000000000000000000000000000000000000000000000000000000000000000000000000000000000000000000000000000000000000000000000000000000000000000000000000000000000000000000000000000000000000000000000000000000
#0543b0:00230000
#055370:0000001300000000
#0553b0:0000000000230000
#055361:0000000000130000
#055321:0000000000000023
#056361:1323000000000000
#056371:0000132300000000
#056361:0000000013230000
#0573b1:13
#057371:00230000
#058361:00130000
#058321:0023
#058370:0013
#0583b0:00000023
#058360:0000000000000013
#059320:00000053000000000000000000000000
#059360:0023
#059370:0000000000000013
#0603b0:0023000000000000
#062320:0000140000000026
#062350:0000005300000000
#0623a1:00140000
#062381:0000005300000026
#063371:0000000000000013
#0643b1:23
#064361:0013000000000000
#064321:00230000
#064371:0000001300230000
#0643b1:0053
#064361:0000000000000013
#065321:53
#065361:0023000000000000
#065371:0000001300230000
#0653b1:0053
#065321:0000000000000013
#066361:0033003300230000
#066321:00333300
#065370:0000000000000013
#0663b0:0033003300230000
#066370:00333300
#067360:0013000000000000
#067320:00230000
#067371:00130000
#0673b1:0000002300000000
#067320:0000001300000000
#067360:0023
#0673b1:0013
#067371:0000000000230000
#067321:0000000000000013
#068361:53
#068321:0023000000000000
#068361:0000001300230000
#068321:0053
#0683b0:0000001300230000
#068370:0053
#069380:00000000000000001323000000000000
#069351:00000000000000000013230000000000
#0693b0:00000000000000000000132300000000
#069321:00000000000000000000001323000000
#069321:0000000000000016
#070321:00000022
#069380:0000000000000016
#0703c0:00000022
#0713a0:0000000000000012
#0723a0:0022000000000000
#074320:0000001200000000
#075320:22
#0753a0:0000001200000022
#0763c0:0000001200000022
#0773c0:1200000000220000
#081370:0000001323000000
#081390:0000000000132300
#0813b0:0000000000000013
#0823b0:23
#082360:0013230000000000
#082340:0000001323000000
#082320:0000000000132300
#083320:0000000000000013
#084360:53
#084320:0023000000000000
#0843b1:0013002300000000
#084371:00530000
#0893b1:00001323
#089371:0000000000530000
#089321:0000000000000013
#090361:5353
#090341:0033003300000000
#090321:0000530000230000
#090370:0000000000130023
#0903b0:00000053
#091320:13230000
#091360:0053000000000000
#0913b0:0000001300230000
#091370:0053
#091320:0000000000000013
#092360:0023000000000000
#0933b0:0000001300230000
#093370:0053
#093321:000000000000000000000000000000130000000000335300
#093361:00000053
#093331:000000000000000000000000000000000000000000000000000000000000000000000000000000000000005300005300
#093341:00000000000000000000000000000053
#093351:000000000000000000000000000000000000000000000000000000000000000000000000000000000000000000000053
#094341:53005353000000000000000000000000
#094361:000000000000000000000000000000000000000000000000000000000000000000000000000000005300000000000000000000000000000000000000000000000000000000000000000000000000000000000000000000000000000000000000000000000000000000000000000000000000000000000000000000000000000000000000000000000000000000000000000000000000000000000000000000000000000000000000000000000000000000000000000000000000000000000000000000000000000000530000000000000000000000000000000000000000000000000000000000000000000000000000000000000000000000000000000000000000000000000000000000000000000000000000000000000000000000000000000000000000000000000000000000000000000000000000000000000000000000000000000000000000000000000000000000000000000000000000000000000000000000000000000000000000000000000000000000000000000000000000000000000000000000000000000000000000000000000000000000000000000000000000000000000000000000000000000000000000000000000000000000000000000000000000000000000000000000000000000000000000000000000000000000000000000000000000000000000000000000000000000000000000000000000000000000000000000000000000000000000000000000000000000000000000000000000000000000000000000000000000000000000000000000000000000000000000000000000000000000000000000000000000000000000000000000000000000000000000000000000000000000000000000000000000000000000000000000000000000000000000000000000000000000000000000000000000000000000000000000000000000000000000000000000000000000000000000000000000000000000000000000000000000000000000000000000000000000000000000000000000000000000000000000000000000000000000000000000000000000000000000000000000000000000000000000000000000000000000000000000000000000000000000000000000000000000000000000000000000000000000000000000000000000000000000000000000000000000000000000000000000000000000000000000000000000000000000000000000000000000000000000000000000000000000000000000000000000000000000000000000000000000000000000000000000000000000000000000000000000000000000000000000000000000000000000000000000000000000000000000000000000000000000000000000000000000000000000000000000000000000000000000000000000000000000000000000000000000000000000000000000000000000000000000000000000000000000000000000000000000000000000000000000000000000000000000000000000000000000000000000000000000000000000000000000000000000000000000000000000000000000000000000000000000000000000000000000000000000000000000000000000000000000000000000000000000000000000000000000000000000000000000000000000000000000000000000000000000000000000000000000000000000000000000000000000000000000000000000000000000000000000000000000000000000000000000000000000000000000000000000000000000000000000000000000000000000000000000000000000000000000000000000000000000000000000000000000000000000000000000000000000000000000000000000000000000000000000000000000000000000000000000000000000000000000000000000000000000000000000000000000000000000000000000000000000000000000000000000000000000000000000000000000000000000000000000000000000000000000000000000000000000000000000000000000000000000000000000000000000000000000000000000000000000000000000000000000000000000000000000000000000000000000000000000000000000000000000000000000000000000000000000000000000000000000000000000000000000000000000000000000000000000000000000000000000000000000000000000000000000000000000000000000000000000000000000000000000000000000000000000000000000000000000000000000000000000000000000000000000000000000000000000000000000000000000000000000000000000000000000000000000000000000000000000000000000000000000000000000000000000000000000000000000000000000000000000000000000000000000000000000000000000000000000000000000000000000000000000000000000000000000000000000000000000000000000000000000000000000000000000000000000000000000000000000000000000000000000000000000000000000000000000000000000000000000000000000000000000000000000000000000000000000000000000000000000000000000000000000000000000000000000000
#094351:000053005300005300000000000000000000000000000000000000000000000000000000000000000000000000000000
#094371:00530000000000000000000000000000
#094331:000000000000000053000053000000000000000000000000000000000000000000000000000000000000000000000000
#094321:000000000053230000000000000000000000000000000000
#0933b0:000000000000000000000000000000000000000000135300
#0933a0:000000000000000000000000000000000000000000000000000000000000000000000000000000000000005300005300
#093390:00000000000000000000000000000053
#093380:000000000000000000000000000000000000000000000000000000000000000000000000000000000000000000000053
#094390:53005353000000000000000000000000
#094370:000000000000000000000000000000000000000000000000000000000000000000000000000000000053000000000000000000000000000000000000000000000000000000000000000000000000000000000000000000000000000000000000000000000000000000000000000000000000000000000000000000000000000000000000000000000000000000000000000000000000000000000000000000000000000000000000000000000000000000000000000000000000000000000000000000000000000053000000000000000000000000000000000000000000000000000000000000000000000000000000000000000000000000000000000000000000000000000000000000000000000000000000000000000000000000000000000000000000000000000000000000000000000000000000000000000000000000000000000000000000000000000000000000000000000000000000000000000000000000000000000000000000000000000000000000000000000000000000000000000000000000000000000000000000000000000000000000000000000000000000000000000000000000000000000000000000000000000000000000000000000000000000000000000000000000000000000000000000000000000000000000000000000000000000000000000000000000000000000000000000000000000000000000000000000000000000000000000000000000000000000000000000000000000000000000000000000000000000000000000000000000000000000000000000000000000000000000000000000000000000000000000000000000000000000000000000000000000000000000000000000000000000000000000000000000000000000000000000000000000000000000000000000000000000000000000000000000000000000000000000000000000000000000000000000000000000000000000000000000000000000000000000000000000000000000000000000000000000000000000000000000000000000000000000000000000000000000000000000000000000000000000000000000000000000000000000000000000000000000000000000000000000000000000000000000000000000000000000000000000000000000000000000000000000000000000000000000000000000000000000000000000000000000000000000000000000000000000000000000000000000000000000000000000000000000000000000000000000000000000000000000000000000000000000000000000000000000000000000000000000000000000000000000000000000000000000000000000000000000000000000000000000000000000000000000000000000000000000000000000000000000000000000000000000000000000000000000000000000000000000000000000000000000000000000000000000000000000000000000000000000000000000000000000000000000000000000000000000000000000000000000000000000000000000000000000000000000000000000000000000000000000000000000000000000000000000000000000000000000000000000000000000000000000000000000000000000000000000000000000000000000000000000000000000000000000000000000000000000000000000000000000000000000000000000000000000000000000000000000000000000000000000000000000000000000000000000000000000000000000000000000000000000000000000000000000000000000000000000000000000000000000000000000000000000000000000000000000000000000000000000000000000000000000000000000000000000000000000000000000000000000000000000000000000000000000000000000000000000000000000000000000000000000000000000000000000000000000000000000000000000000000000000000000000000000000000000000000000000000000000000000000000000000000000000000000000000000000000000000000000000000000000000000000000000000000000000000000000000000000000000000000000000000000000000000000000000000000000000000000000000000000000000000000000000000000000000000000000000000000000000000000000000000000000000000000000000000000000000000000000000000000000000000000000000000000000000000000000000000000000000000000000000000000000000000000000000000000000000000000000000000000000000000000000000000000000000000000000000000000000000000000000000000000000000000000000000000000000000000000000000000000000000000000000000000000000000000000000000000000000000000000000000000000000000000000000000000000000000000000000000000000000000000000000000000000000000000000000000000000000000000000000000000000000000000000000000000000000000000000000000000000000000000000000000000000000000000000000000000000000000000000000000000000000000000000000000000000000000000000000
#094380:000053005300005300000000000000000000000000000000000000000000000000000000000000000000000000000000
#094360:000000000000000000000000000000000000000000000000000000000000000000000000000000000000000000000000000000000000000000000000000000000000000000000000000000000000000000000000000000000000000000000000000000000000000000000000000000000000000000000000005300000000000000000000000000000000000000000000000000000000000000000000000000000000000000000000000000000000000000000000000000000000000000000000000000000000000000000000000000000000000000000000000000000000000000000000000000000000000000000000000000000000000000000000000000000000000000000000000000000000000000000000000000000000000000000000000000000000000000000000000000000000000000000000000000000000000000000000000000000000000000000000000000000000000000000000000000000000000000000000000000000000000000000000000000000000000000000000000000000000000000000000000000000000000000000000000000000000000000000000000000000000000000000000000000000000000000000000000000000000000000000000000000000000000000000000000000000000000000000000000000000000000000000000000000000000000000000000000000000000000000000000000000000000000000000000000000000000000000000000000000000000000000000000000000000000000000000000000000000000000000000000000000000000000000000000000000000000000000000000000000000000000000000000000000000000000000000000000000000000000000000000000000000000000000000000000000000000000000000000000000000000000000000000000000000000000000000000000000000000000000000000000000000000000000000000000000000000000000000000000000000000000000000000000000000000000000000000000000000000000000000000000000000000000000000000000000000000000000000000000000000000000000000000000000000000000000000000000000000000000000000000000000000000000000000000000000000000000000000000000000000000000000000000000000000000000000000000000000000000000000000000000000000000000000000000000000000000000000000000000000000000000000000000000000000000000000000000000000000000000000000000000000000000000000000000000000000000000000000000000000000000000000000000000000000000000000000000000000000000000000000000000000000000000000000000000000000000000000000000000000000000000000000000000000000000000000000000000000000000000000000000000000000000000000000000000000000000000000000000000000000000000000000000000000000000000000000000000000000000000000000000000000000000000000000000000000000000000000000000000000000000000000000000000000000000000000000000000000000000000000000000000000000000000000000000000000000000000000000000000000000000000000000000000000000000000000000000000000000000000000000000000000000000000000000000000000000000000000000000000000000000000000000000000000000000000000000000000000000000000000000000000000000000000000000000000000000000000000000000000000000000000000000000000000000000000000000000000000000000000000000000000000000000000000000000000000000000000000000000000000000000000000000000000000000000000000000000000000000000000000000000000000000000000000000000000000000000000000000000000000000000000000000000000000000000000000000000000000000000000000000000000000000000000000000000000000000000000000000000000000000000000000000000000000000000000000000000000000000000000000000000000000000000000000000000000000000000000000000000000000000000000000000000000000000000000000000000000000000000000000000000000000000000000000000000000000000000000000000000000000000000000000000000000000000000000000000000000000000000000000000000000000000000000000000000000000000000000000000000000000000000000000000000000000000000000000000000000000000000000000000000000000000000000000000000000000000000000000000000000000000000000000000000000000000000000000000000000000000000000000000000000000000000000000000000000000000000000000000000000000000000000000000000000000000000000000000000000000000000000000000000000000000000000000000000000000000000000000000000000000000000000000000000000000000000000000000000000000000000000000000000000000000000000000000000000000000000000000000000
#0943a0:000000000000000053000053000000000000000000000000000000000000000000000000000000000000000000000000
#0943b0:000000000053230000000000000000000000000000000000
#0953b0:0000001300230000
#095370:0053
#095321:0000000000130023
#095361:00000053
#096321:13
#096361:0023000000000000
#0963b1:00130000
#096371:0000002300000000
#096321:0013
#096361:0000000000230000
#0973b1:13230000
#097371:0053000000000000
#098371:00130000
#0983b1:0023
#098360:0013
#098320:00000023
#098370:0000000000000013
#0993b0:00000053000000000000000000000000
#099370:0023
#099360:0000000000000013
#100320:0023000000000000
#102320:0000140000000026
#102350:0000005300000000
#1023a1:00140000
#102381:0000005300000026
#103321:0013003300230000
#103361:00333300
#103370:0000000000130000
#1033b0:0000000000000023
#103321:0000000000000013
#104321:0023000000000000
#1043b0:0013002300000000
#104321:0000001300000000
#104361:0000000000230000
#106361:13
#106321:0023
#106370:0013
#1073b0:23
#107361:13
#107321:00230000
#107361:0000000000000013
#108321:23
#108371:0013000000000000
#1083b1:00230000
#108321:0000001300230000
#108361:0053
#108370:0000001300230000
#1083b0:0053
#108320:0000000000000013
#109360:0033000000000000
#109320:0000002300000000
#1093b1:0000001300000023
#109371:0000000000330000
#1103b1:0000001300002300
#110371:00000000000000000053000000000000
#1113a1:0000000000000014
#112361:54
#1123a1:0024000000000000
#112321:0000000000000018
#118321:00000000005400000000000022000000
#113390:0000000000000000000000000000000000000000000000000000000000120000
#1143b0:0000000000000000000000320000000000000000000000000000000000000000000000000000000000000000000000003200000000000000000000000000000000000000000000000000000000000000000000000000000032000000000000000000000000000000000000000000000000000000000000000000000000000000
#114390:00000000000000000000000000000000003200000000000000000000000000000000000000000000000000000000000000000000000000000000000000000000
#1143a0:000000000000000000000000000000000000000000000000000000000000000000000000000000000000000000000000000000000000000000000000000000000000000000000000000000000000000000000000000000000000000000000000000000000000000000000000000000000000000000000000000000000000000000000000000000000000000000000000000000000000000000000000000000000000000000000000000000000000000000000000000000003200000000000000000000000000000000000000000000000000000000000000000000000000000000000000000000000000000000000000000000000000000000000000000000000000000000000000000000000000000000000000000000000000000000000000000000000000000000000000000000000000000000000000000000000000000000000000000000000000000000000000000000000000000000000000000000320000000000000000000000000000000000000000000000000000000000000000
#1143c0:000000000000000000000000000000000000000000000000000000000000000000000000000000000000000000000000000000000000000000000000000000000000000000000000000000000000000000000000000000000000000000000000000000000000000000000000000000000000000000000000000000000000000000000000000000000000000000000000000000000000000000000000000000000000000000000000000000000000000000000000000000000000000000000000000000000000000000000000000000000000000000000000000000000000003200000000000000000000000000000000000000000000000000000000000000000000000000000000000000000000000000000000000000000000000000000000000000000000000000000000000000003200000000000000000000000000000000000000000000000000000000000000000000000000000000000000000000000000000000000000000000000000000000000000000000000000000000000000
#1153c0:0000003200000000000000000000000000000000000000000000000000000000
#1153a0:000000000000000000000000000000000022000000000000000000000000000000000000000000000000000000000000
