This file was generated by Ched 2.7.0.0.
#TITLE ""
#ARTIST ""
#DESIGNER ""
#DIFFICULTY 0
#PLAYLEVEL
#SONGID ""
#WAVE ""
#WAVEOFFSET 0
#JACKET ""
#REQUEST "ticks_per_beat 480"
#00002: 4
#BPM01: 192
#00008: 01
#TIL00: ""
#VOLUME: ""
#HISPEED 00
#MEASUREHS 00
#00912:1414
#00918:00140014
#0371a:1414
#03712:00140014
#03818:1414
#03814:00140014
#0391a:1414
#03912:00140014
#04018:1414
#04014:00140000
#04314:00000014
#04414:00140000
#04418:14
#04512:00140000
#04518:0014
#04514:00000014
#0451a:24
#04510:41
#0461a:14
#04612:00140000
#04618:0014
#04614:00000014
#0471a:14
#04712:00140000
#04718:0014
#04714:00000014
#0481a:14
#04812:00140000
#04818:0014
#04912:14
#04919:00140000
#04913:0014
#0491a:00000014
#05014:14
#0501a:00140000
#05013:0014
#05019:00000014
#05718:0014
#05714:00000014
#05712:14
#0581a:1414
#05812:00140014
#06014:0014
#06018:00000014
#0521a:00000014
#0531a:00140000
#05314:0014
#05318:00000014
#05312:24
#05412:14
#0541a:00140000
#05414:0014
#05418:00000014
#05512:14
#0551a:00140000
#05514:0014
#05518:00000014
#05612:14
#0561a:00140000
#05614:0014
#05618:00000014
#0631a:14
#06314:00140000
#06318:0014
#06312:00000014
#0651a:14
#06514:00140000
#06518:0014
#06512:00000014
#06618:14
#06614:00140000
#0661a:0014
#07512:14
#07516:0014
#0761a:14
#07616:0014
#07712:14
#07716:0014
#0781a:14
#08516:00140014
#08512:0014
#0851a:24
#0851f:21
#0861a:14000014
#08612:0014
#0881a:00140000
#08812:1414
#08712:14
#08716:00140014
#0871a:0014
#08710:41
#0891a:14
#08914:00140000
#08918:0014
#08912:00000014
#09018:14
#09012:00140000
#0901a:0014
#09014:00000014
#09714:0014
#09718:00000014
#0971a:14
#09812:14
#0981a:00140000
#09814:0014
#09818:00000014
#10018:0014
#10014:00000014
#09212:00000014
#09314:00140000
#0931a:0014
#09312:00000014
#09318:24
#09418:14
#09414:00140000
#0941a:0014
#09412:00000014
#09518:14
#09514:00140000
#09512:00000014
#0951a:0014
#0961a:14
#09616:00140014
#09612:0014
#08314:1414
#08318:00140014
#08414:1414
#08418:00140000
#10312:14
#10318:00140000
#10314:0014
#1031a:00000014
#10412:14
#10418:00140000
#10414:0014
#1041a:00000014
#10512:14
#10518:00140000
#10514:0014
#1051a:00000014
#10612:14
#10618:00140000
#10614:0014
#1071a:14
#10714:00140000
#10718:0014
#10712:00000014
#1081a:14
#10814:00140000
#10818:0014
#10812:00000014
#1091a:14
#10914:00140000
#10918:0014
#10912:00000014
#1101a:14
#11014:00140000
#11114:0014
#11218:14
#11214:00140000
#01714:14
#01718:00140000
#01712:0014
#01710:41
#01014:1414
#0101a:00140014
#01112:1414
#01118:00140014
#01214:1414
#0121a:00140000
#01818:14
#01814:00140000
#0181a:0014
#01914:14
#0191a:00140000
#01912:0014
#01918:00000014
#02012:14
#0201a:00140000
#02014:0014
#0211a:14
#02114:00140000
#02118:0014
#02212:14
#02218:00140000
#02214:0014
#02512:14
#02518:00140000
#02513:0014
#02519:00000014
#02614:1414
#0261a:00140014
#02714:14
#02719:00140000
#02713:0014
#02718:00000014
#03214:0014
#0321a:14
#0291a:14
#02914:00140000
#02919:0014
#02913:00000014
#03018:1414
#03012:00140014
#03118:14
#03113:00140000
#03119:0014
#03114:00000014
#0131a:1414
#01314:00140014
#01418:1414
#01412:00140014
#0151a:1414
#01514:00140014
#01618:1414
#01612:00140000
#09912:14
#09914:0014
#0911a:14
#09118:0014
#09119:00340034
#05112:14
#05114:0014
#05113:00340034
#0591a:14
#05918:0014
#0641a:14
#06414:00140000
#06418:0014
#06412:00000014
#06914:0014
#06918:00140000
#06912:14
#06712:14
#06718:00140000
#06714:0014
#0671a:00000014
#06812:14
#06818:00140000
#06814:0014
#0681a:00000014
#0801a:14
#08218:14
#08114:14
#07912:14
#0711f:11
#03310:41
#06110:41
#10110:41
#05752:14
#06252:00140000
#0975a:14
#1025a:00140000
#11158:14
#09954:0024
#09952:54
#0915a:64
#09158:0024
#05152:54
#05154:0024
#0595a:64
#05958:0024
#0805a:64
#08258:54
#08154:64
#07952:54
#001320:14
#002340:24
#0033a0:14
#004380:24
#005340:14
#006320:24
#007380:14
#0083a0:24
#0233a0:14
#023380:0034
#0243a0:24
#028320:1424
#0333a0:14
#033380:0034
#0343a0:34
#034380:0024
#035320:14
#035340:0034
#036320:34
#036340:0024
#041320:14
#041340:0024
#0423a0:14
#042380:0000000034000034
#0433a0:0024
#051320:14
#051330:00340034
#051340:0034
#052320:3424
#0593a0:14
#059380:0054
#0603a0:24
#061340:14
#061320:0000003400340034
#062320:00240000
#0693a0:0000000000001434
#0703a0:00000024
#071320:14
#071340:0024
#0723a0:14
#072380:0024
#073340:14
#073320:0024
#074380:14
#0743a0:0024
#079320:14
#079340:0024
#0803a0:14
#080380:0024
#081340:14
#081320:0024
#082380:14
#0823a0:0024
#0913a0:14
#091390:00340034
#091380:0034
#0923a0:3424
#099320:14
#099340:0054
#100320:24
#101380:14
#1013a0:0000003400340034
#1023a0:00240000
#110380:0014
#111380:24
#112380:0000000016363636
#1183a0:00000024
