This file was generated by Ched 2.7.0.0.
#TITLE ""
#ARTIST ""
#DESIGNER ""
#DIFFICULTY 0
#PLAYLEVEL
#SONGID ""
#WAVE ""
#WAVEOFFSET 0
#JACKET ""
#REQUEST "ticks_per_beat 480"
#00002: 4
#BPM01: 192
#00008: 01
#TIL00: ""
#HISPEED 00
#MEASUREHS 00
#0061a:14
#00714:14
#00818:14
#00912:14
#0101a:14
#01114:14
#01218:14
#01312:14
#0141a:14
#01410:41
#01514:14
#01812:14
#01918:14
#0221a:14
#02314:14
#02612:14
#02610:41
#02718:14
#0301a:14
#0311a:14
#03212:14
#03312:14
#03418:14
#03518:14
#03812:0016
#03818:26
#03810:41
#03918:16
#03912:0016
#04018:16
#04012:0016
#04118:1616
#04212:1616
#04318:1616
#04812:16
#04818:0016
#04912:1616
#05018:16
#05012:0016
#05118:16
#05112:0016
#05218:1616
#0541a:14
#05410:41
#05512:14
#05618:14
#05714:14
#0581a:14
#05912:14
#06018:14
#06114:14
#0771a:0014
#0771f:11
#0781a:0014
#07912:0014
#08012:0014
#08118:0014
#08212:0014
#0831a:0014
#08414:0014
#08612:16
#08618:0016
#08610:0041
#08712:16
#08718:0016
#08812:16
#08818:0016
#08918:16
#08912:0016
#09012:16
#09018:0016
#09118:16
#09512:0016
#09518:16
#09618:16
#09612:0016
#09712:16
#09718:0016
#09812:16
#09818:0016
#09912:16
#09918:0016
#10018:16
#09418:16
#09412:0016
#10212:0014
#1031a:0014
#10414:0014
#10518:0014
#10612:0014
#1071a:0014
#10814:0014
#04612:2626
#04718:2626
#08518:0026
#0851f:0021
#09312:0026
#10118:0026
#07310:0041
#002390:14
#003390:24
#004330:14
#005330:24
#0163a0:14
#0173a0:24
#020320:14
#021320:24
#024380:14
#025380:24
#028340:14
#029340:24
#036340:1400000000000034
#037340:0024
#044320:1626
#045380:1626
#053320:1626
#0623a0:14
#063380:34
#0643a0:34
#065380:24
#066320:14
#067340:34
#068320:34
#069340:24
#0703a0:14
#070390:00000034
#071380:00003434
#072390:0034
#0733a0:00240000
#073320:0014
#074330:00340000
#075340:34340000
#077320:24
#091320:0016
#092320:26
#092380:0016
#093380:26
#100320:0016
#101320:26
#109380:0014
#110380:0000003400000000
#1123a0:0000342400000000
