This file was generated by Ched 2.7.0.0.
#TITLE ""
#ARTIST ""
#DESIGNER ""
#DIFFICULTY 0
#PLAYLEVEL
#SONGID ""
#WAVE ""
#WAVEOFFSET 0
#JACKET ""
#REQUEST "ticks_per_beat 480"
#00002: 4
#BPM01: 192
#00008: 01
#TIL00: ""
#HISPEED 00
#MEASUREHS 00
#0771f:11
#07712:1300000024240000
#0771b:13
#07717:0000000024240000
#09916:2400001400000000
#0991a:24140000
#09915:0000000000130000
#09918:0000000000000013
#09912:00002323
#0991b:00002323
#04318:1300001300001300
#0431b:00131300
#04315:0000000013000013
#04312:13000013
#03412:2313
#0341b:1323
#03418:0000001300001300
#03415:0000130000000013
#0361a:0012000000140024
#03613:0000001300000000
#03616:14141414
#03612:0000000000000024
#03515:0013001300000000
#03518:00130000
#0351b:13002313
#03512:2313
#03516:00000013
#0301b:1300001300000000
#03018:0000000013000013
#03015:00130013
#03012:2323
#03115:00130013
#03118:0000000000000013
#03112:2323
#03119:0033003300000000
#03318:00130013
#03315:0000000000000013
#0331b:2323
#03314:0033003300000000
#0481b:0013
#04812:13
#04815:00000013000013000000000013000000
#04818:00000000130000000000001300001300
#0601b:00001313
#06012:13130000
#06014:0000001300000000
#06019:0000000000000013
#06016:0023
#06017:23
#08712:13001313
#08718:00001313
#08715:00000013000013000000000000000000
#0871b:00130000
#08714:0000000000000013
#08717:23
#08917:0013000000000000
#08912:00131300
#08918:0000000013000013
#0891b:23000013
#08915:0000001300001300
#08816:1300000000000013
#08817:0000000000130000
#0881b:1323
#08812:00132323
#08818:00000013000013000000000000000000
#09218:0013001300001300
#0921b:23231300
#09212:0000000013000013
#09215:00000000000000000000001300000000
#09812:00002414
#09816:1300002424000024
#0981a:14140000
#10015:0013001300002300
#1001b:0000000013000013
#10018:00000000000000000000001300000000
#10012:23232300
#11215:00000000001300000000000000000000
#11218:0000001300000000
#1121b:00130000
#0931b:1313
#09312:00000033000000000000130000000000
#09315:2300000013000013
#09318:00230013
#09313:0033000000000000
#09314:00330000000000000000000000000000
#10118:0013131300000000
#10115:00000013001300000000000000000000
#10112:2300000024240000
#1011a:0000000024240000
#0911b:23132323
#09118:0000000000130000
#09115:0000001300000013
#09112:00132323
#09116:23
#09012:00132313
#0901b:13130013
#09015:13
#09014:0000000000000023
#09019:0000002300000000
#09017:0023
#07912:00130000
#07915:1300000024240000
#07918:00130000
#0791b:13
#0791a:0000000024240000
#04118:0000230000130000
#04112:0000230000130000
#04115:2300000023000013
#0411b:2323
#09612:1300001323000000
#0961b:1300001323002300
#09618:00000013000000000000000000000000
#09615:00130000
#09617:0000000000000013
#09616:0000000000130000
#04418:1300001300000023
#04412:13
#0441b:00132300
#04415:00132300
#04419:00000023
#0441a:0000000000230000
#0391b:1313
#03917:00130000
#03915:0000000013000013
#03919:0000001300000000
#03918:00000013
#03912:00000000000000000000001300000000
#04618:1300000000000013
#04612:1300000000000013
#0461b:0000001313000000
#04615:0000001313000000
#09416:0013
#0941b:1313
#09412:13000013
#09418:0013001300000000
#09415:00130000
#09417:00000013
#09419:0000000000000013
#09414:0000000000130013
#0951b:13000013
#09514:0000001300000013
#09512:00130000
#09519:0013001300000000
#09517:00130000
#09516:0024
#04712:13000000000000000000001300000000
#04715:0013
#0471b:00000013000000001300000000000000
#04718:13
#09716:0013000000000013
#0971b:00130000
#09717:0000001313000000
#09712:23001413
#08615:24000013
#08612:00142400
#08617:00142400
#0861b:0000002300001300
#08619:0000000000000023
#0861a:24
#08610:0041
#08318:0000000013001414
#0831a:0024000000000000
#08312:24
#08315:0024000000000000
#08317:24
#05218:0013001300230000
#05215:00132323
#0521b:1323
#05212:0000001300000023
#05117:0000000000140000
#05115:0014000000000000
#05112:14001414
#0511a:14141400
#05116:0000001400000014
#05018:0000130000130013
#05015:0013001300001300
#05012:1313
#0501b:1313
#0451b:1300001300332300
#04518:00131300
#04515:00000013000000001300000000000000
#04512:1300001300332300
#04012:1313
#0401b:13000000000013000000001300000000
#04015:00130013
#04018:0000000013000013
#03212:1300001300000000
#03215:0000000013000013
#03218:00130013
#0321b:2323
#02915:00000000000000000000001300001300
#02918:0000000000131300
#0291b:00131300
#02912:00131300
#02712:0013000013002300
#02715:1300130000130000
#02718:0000001300000013
#0271b:00002313
#02516:13
#02512:0000001313000000
#10816:14000000000000000014000000140000
#10812:2400000000002414
#10815:0000001400000000
#10818:00000014000000000000000000000000
#10813:0014000000000000
#1081a:0000000024140000
#10814:00240000
#10716:0014
#10717:1300000000000014
#10718:00000013000000000000000024000000
#10714:00000000230000000000001400000000
#10719:0000000000140000
#10715:0000001300000000
#10713:0013000000000000
#1071a:0024
#10712:23
#10616:0013
#10615:13000000000000000000001300000000
#10618:1300000000000013
#1061a:0000240000130000
#10619:00000023
#1061b:00333333000000002300000000000000
#10612:00333333240000000000000000000000
#10518:0013000013000000
#10515:00000013000013000000000013000000
#10512:1300000000000013
#1051b:2300130000130000
#0851a:00000014
#08515:00000014
#0851f:0021
#08512:000000002c000023
#05819:0000000000000013
#05814:0000001300000000
#05812:00001313
#0581b:13130000
#0421b:00131300
#04212:13000013
#04215:0000000013000013
#04218:1300001300000000
#0231b:13131300
#02318:0000001300001300
#02312:13131300
#02315:0013000000130013
#02412:13000013
#02415:0013
#02414:0000000000000013
#02212:0000001300001300
#02218:00003300000000000013000000001300
#02215:00000013000000003300000000000000
#0221b:13000013
#02214:00000000000000330000000000000000
#02219:00330000000000000000000000000000
#02019:0013000000000000
#0201b:0000001300000000
#0201a:00130000
#02018:1300000000130000
#06914:00000000000000000000000000000013
#06919:0000000000000013
#06915:00130013000000000000000000130000
#06918:0013000000001300
#0691b:13
#06913:00000000000000000033333300000000
#0691a:00000000003333330000000000000000
#04915:13001313
#0491b:1313
#04912:00130000
#04918:0000130000000013
#03812:23131300
#03816:00000013
#03817:00130000
#03814:0000000000000013
#03819:0000001300000000
#0381b:23
#03810:41
#0661b:13130000
#06612:13
#0661a:00000000000000000033333300000000
#06618:00000000000000000000000000333333
#06613:00000000003333330000000000000000
#06615:00000000000000000033333300000000
#03712:0000001414000000
#03719:0013000000000000
#0371a:0000001414000000
#03714:0013000000000000
#10412:23132313
#10418:13000000230000000000001300001300
#1041b:0013001313000000
#10415:0013001300130000
#10315:00001300000000000000001300001300
#10318:00000013000013000000130000000000
#1031b:13002313
#10312:23131300
#10215:00000000000000000000001300001300
#10218:0000000000130000
#10212:0013
#1021b:00002313
#07614:0013000000000013
#07619:0000000000000013
#0761b:0000000000130000
#07612:0000000000130000
#06814:0000001300000000
#06812:0013
#06815:00000000000000000000000000130013
#06818:0000000000001313
#00518:12
#0051c:0012
#00516:0012
#0051a:00120000
#00514:00120000
#00512:12000025
#00519:00000025
#1091a:0000000000140000
#10918:0000000000001313
#10915:00000000000000000000000000130000
#10912:2525252500140000
#10919:2525252500000000
#1101a:1400001400000000
#11015:00130000
#11018:0013000000000000
#11012:14
#07415:00130013000013001300000000130013
#07418:13001300000000130013000013001300
#07412:0000000000240000
#0741a:00240000
#07312:0013001300000024
#07315:0000130000131300
#07318:00001300000013000000001300130000
#0731b:13130000
#0731a:0024
#07310:0041
#05912:00130000
#05917:00130000
#05916:1313
#0591b:1313
#02812:13
#0281b:23
#02119:0013001300000000
#0211b:1313
#02117:00130000
#02115:0000000000000026
#07514:0000000000130000
#07512:00141300
#07519:0000000000000013
#07516:0014000000000000
#0751a:24
#08418:1515161626000000
#08013:00000014
#08019:00000014
#08018:0014
#08014:0014
#08017:2424000000000000
#08012:2424000000000000
#0811a:1424
#08112:1400000000240000
#08115:0024
#08117:0000000000240000
#07116:00000000003300000000140000000000
#07112:00000024
#0711a:0024000024000000
#0711b:00000000000000000000000000000033
#06719:00000000000000000000000000000013
#06713:0000000000000013
#06714:00000013
#0671a:00000000000000000000000000130000
#06715:0000000000130000
#0671b:00000000000000000000001300000000
#06718:00000000000000000013000000000000
#06712:0013
#0631b:00000000000000000000000000000013
#06316:0000000000000013
#0631a:00000000000000000000000000130000
#06319:00000000000000000000001300000000
#06315:00000013
#06314:0000000000130000
#06318:00000000000000000013000000000000
#06313:0013
#06317:00000000000000130000000000000000
#06312:0000001300000000
#06515:0000000000000013
#06518:00000013
#06516:00141400
#0651b:00230000
#06512:2323
#06413:0000000000000013
#06414:00000013
#06418:00000000000000000000000000000013
#06419:00000000000000000000000000130000
#06415:0000000000130000
#0641a:00000000000000000000001300000000
#06416:0013
#0641b:00000000000000000013000000000000
#05718:0000001300000000
#05719:00130000
#0571a:0013000000000000
#0571b:13
#05712:14141414
#0561b:1300003313000000
#05618:0033130000330000
#05612:14141414
#05515:0000001300000000
#05514:00130000
#05513:0013000000000000
#05512:13
#0551a:14141414
#05412:1313
#05415:00130000
#0541a:14141414
#05410:41
#01412:1313
#01415:00001300130000000000130000130000
#01418:26000013000013000000000013001300
#0141b:0013
#01410:41
#0261b:23000013
#02618:00000013000000001300130000001300
#02615:00001300130000000013000000000000
#02612:0000002300000000
#02610:41
#01915:0023000000130013
#01918:0000002300001300
#01815:0000000013130000
#0181b:00000000000000000013000000000000
#01818:0013130000000023
#01812:00000013000000000000000000000000
#01716:1313000000000000
#01718:0000000000000013
#01715:00000013
#0171b:0000000000130000
#01612:1300000000131300
#01616:0000131300000000
#01515:0013000013000013
#01518:00130013
#0151b:0000001300130000
#01512:13
#01315:0000000000130013
#01318:00000013
#01319:00130000
#0131b:0013
#0131a:0000001300000000
#01314:13
#0111b:0000000000000013
#01114:00130000
#01115:00000013
#01118:0000000000130000
#01112:0013
#01113:0000001300000000
#01119:13
#01213:0013000000000013
#01219:0013
#0121a:0000000000130000
#01214:00130000
#01212:23
#0101a:0013000000000013
#01014:0013
#01013:0000000000130000
#01019:00130000
#0101b:23
#0091b:00001313
#00912:00000016
#00918:0000001300130000
#00915:13
#0081b:0000000000130000
#00815:13130000
#00712:1300000000000013
#00718:0000001300001300
#00715:0000000000130000
#0071b:0013
#00618:0000000000130000
#00612:00130000
#00615:13
#00415:0000001200000012
#00418:00121212
#0041b:0000000000120000
#0041a:12
#00413:12
#00318:0000000000000012
#00315:00000012
#0031a:0000000000120000
#00317:0012
#0031c:0000001200000000
#00319:00120000
#0031b:12
#00316:0012000000000000
#00215:0000001200000012
#00219:0000001200000012
#07812:0000000024240000
#07817:0000000024240000
#07815:2424000000000000
#0781a:2424000000000000
#06117:23
#06112:2323
#06114:0023002300000000
#06116:00230000
#0821a:0024000024000000
#08212:2400000000240000
#08215:0024000024000000
#08217:2400000000240000
#07212:0024000024000024
#07217:00000000003300000000000000000000
#0721b:00000000000000000000003300000000
#0701a:2400002400002400
#07016:00000000000000000033000000000000
#07012:00000033000000000000000000000033
#05315:00000026
#08952:1313
#0895b:63
#08957:0023000000000000
#08958:0013
#0885b:00006313
#08852:00001353
#08856:6300000000000023
#08857:0000000000230000
#09352:0000130000230000
#09358:00130000
#09355:5353
#0935b:13
#0975b:13
#09752:5314
#09756:0023000000000000
#09757:0023
#08452:0016
#08458:0016
#09652:00005313
#0965b:00001363
#09657:0000000000000023
#09656:0000000000230000
#05757:00000013
#05556:00000013
#08757:53
#0915b:13
#09156:13
#10152:13
#10055:00000013
#10052:0013
#03052:13
#09052:0013
#09057:0013
#0905b:13
#09055:13
#08657:0014
#08652:0014
#0865a:14
#08655:14
#0455b:00000013
#04552:00000013
#04558:0063
#04555:0053
#0995a:14
#09956:24
#09852:0014
#09856:2324
#0985a:14
#0655b:00130000
#06552:1313
#0385b:13
#03852:0013
#0415b:0053
#04155:0053
#04158:0000000000230000
#04152:0000000000230000
#10652:00140000
#1065a:00140000
#10655:63
#10658:53
#07452:0000000000140000
#0745a:00140000
#08552:001c
#0755a:14
#07552:00140000
#07352:0000000000000014
#0735a:0014
#05355:00000016
#01458:16
#00559:00000015
#00552:00000015
#09258:00000013
#0925b:0013
#0395b:1363
#09456:0023
#09454:0000000000530053
#09452:00000023
#09458:0023000000000000
#0945b:53
#0955b:23
#09559:0053005300000000
#09557:00230000
#0465b:0063
#04658:53
#04655:0063
#04652:53
#05157:0000000000240000
#05155:0024000000000000
#0515a:0054
#05152:64
#05058:0000000000230000
#05055:0023000000000000
#05052:63
#0505b:0053
#04358:13
#04355:0013
#0435b:0013
#04352:13
#04052:1353
#0405b:13
#02556:53
#02552:0063
#10558:0013
#10555:00000013
#04955:1313
#04958:00130000
#1105a:0000001400000000
#05952:00530000
#05957:00530000
#05956:5353
#0595b:5353
#0475b:0063
#04752:53
#02252:0000006300000000
#0225b:53
#08053:00000014
#08059:00000014
#08058:0014
#08054:0014
#0815a:14
#08152:14
#06852:0013
#0695b:13
#06652:13
#0665b:13
#0565b:6363
#05658:00630000
#05452:5353
#05455:00530000
#04258:13
#04255:0013
#03556:00000053
#0205b:0000005300000000
#02058:0000000000530000
#0215b:0053
#01756:0053000000000000
#00952:00000016
#0023b0:12220000
#002331:12220000
#002331:00001222
#0023b0:00001222
#006380:13
#0063b0:0000002300000000
#006321:0000001300000000
#006351:00000023
#006380:00000013
#0073b0:0023000000000000
#007321:0013000000000000
#007351:0023
#0083b1:13
#008381:0000002300000000
#008350:0000001300000000
#008320:00000023
#0083b1:00000013
#009381:0023000000000000
#009350:0013000000000000
#009320:0023
#010320:13
#010330:0033000000000000
#010340:00330000
#010350:0000002300000000
#010381:0000001300000000
#010391:0033
#0103a1:0000000000330000
#0103b1:00000023
#010320:00000013
#010330:0000000000000033
#011340:33
#011350:0023000000000000
#011381:0013000000000000
#011391:00330000
#0113a1:0000003300000000
#0113b1:0023
#0123b1:13
#0123a1:0033000000000000
#012391:00330000
#012381:0000002300000000
#012350:0000001300000000
#012340:0033
#012330:0000000000330000
#012320:00000023
#0123b1:00000013
#0123a1:0000000000000033
#013391:33
#013381:0023000000000000
#013350:0013000000000000
#013340:00330000
#013330:0000003300000000
#013320:0023
#0163a0:14
#0173a0:0024
#017361:0013000000000000
#017321:0023
#018351:1323000000000000
#018381:0000001323000000
#018321:0000000000001323
#0193b1:1323000000000000
#019321:0000132300000000
#0193b1:0000000013230000
#020321:14
#021321:00000024
#0203b0:0000001300000023
#020380:0000000000330000
#0213b0:0013
#021370:00000023
#0223b0:13
#022390:00330000000000000000000000000000
#022380:00003323000000000000000000000000
#022320:0000001300000000
#022340:00000000000000330000000000000000
#022350:00000000000000003323000000000000
#0243a0:14
#0253a0:00000024
#024351:0013002300000000
#025361:13
#025321:00230000
#025321:0013
#025361:00000023
#028351:00130000
#028341:0000003300000000
#028331:0023
#028381:00000012
#028391:0000000000000032
#0293a1:22
#031381:1323
#031391:0033003300000000
#0313b1:00330000
#033351:1323
#033341:0033003300000000
#033321:00330000
#035361:00000013
#035321:0000000000000053
#036321:23
#0383b1:00001323
#039321:13230000
#0393b1:0013
#039381:00000000000000000000002300000000
#040321:0013
#040351:00000000000000000000002300000000
#041351:00001323
#041321:0000000000530000
#0413b0:00001323
#041380:0000000000530000
#044350:0013
#044320:0000000000000023
#045380:0013
#0453b0:0000000000332300
#045351:0013
#045321:0000000000332300
#046381:13
#0463b1:00230000
#046320:13
#046350:00230000
#0463b0:0013
#046380:00000023
#046351:0013
#046321:00000023
#047321:13
#047351:00000033330023000000000000000000
#0473b0:0000132300000000
#0473b0:0013
#047380:00000000000000000000003333002300
#047321:0000000000001323
#0483b1:13
#048381:00000023000000000000000000000000
#048321:0013
#048351:00000000000000000000002300000000
#050321:13230000
#050351:0053000000000000
#0503b1:00001323
#050381:0000000000530000
#051321:14240000
#051351:0054000000000000
#0513a1:00001424
#051371:0000000000540000
#053351:16000036360036003600000026000000
#054321:1333
#054351:00330023
#055361:00001323
#0563b1:1300003333000000
#056381:0033330000332300
#057371:00001323
#058361:13230000
#058371:00001323
#059361:1333
#059321:00330023
#0593b0:1333
#059370:00330023
#060370:13
#0603b0:00230000
#060360:0013
#060320:00000023
#061370:1323
#061390:0033003300000000
#0613b0:00330000
#0613b0:0000000000000000000000000000000000000000135353535353535333000000
#0613a0:00000000000000000000000000000000000000000000000000000000000000000000000000000000005300530053005300530053005300530000000000000000
#061390:00000000000000000000000000000033
#062370:3353535353535353535353532300000000000000000000000000000000000000
#062380:00530053005300530053005300530053005300530053005300000000000000000000000000000000000000000000000000000000000000000000000000000000
#061361:0000000000000013
#061341:00000000000000000000000000000033
#062321:3353535353535353535353533300000000000000000000000000000000000000
#062331:00530053005300530053005300530053005300530053005300000000000000000000000000000000000000000000000000000000000000000000000000000000
#062341:00000000000000330000000000000000
#062361:0000000000000000000000000000000033535353535353535353535323000000
#062351:00000000000000000000000000000000000000000000000000000000000000000053005300530053005300530053005300530053005300530000000000000000
#0623b0:0000000000000013
#062390:00000000000000000000000000000033
#063370:3353535353535353535353532300000000000000000000000000000000000000
#063380:00530053005300530053005300530053005300530053005300000000000000000000000000000000000000000000000000000000000000000000000000000000
#064360:13
#064350:00330000000000000000000000000000
#064340:0033000000000000
#064330:00000033000000000000000000000000
#064320:00230000
#064371:00130000
#064381:00000000003300000000000000000000
#064391:0000003300000000
#0643a1:00000000000000330000000000000000
#0643b1:0023
#066361:00130023
#066331:00000000003333330000000000000000
#066321:0033
#066351:00000000000000000033333300000000
#066370:0013
#0663a0:00000000000000000033333300000000
#0663b0:00000033
#066380:00000000000000000000000000333333
#067370:23
#067321:1323000000000000
#067380:0013230000000000
#067351:0000132300000000
#0673b0:0000001323000000
#068320:13
#068340:0033000000000000
#068360:00230000
#0683b1:00130000
#068391:0000003300000000
#068371:0023
#069381:00130000
#0693a1:00000000003333330000000000000000
#0693b1:0023
#069350:0013
#069330:00000000000000000033333300000000
#069320:00000023
#070320:00001333000000000000000000000000
#070360:00230000
#070360:00000000000000001333000000000000
#070320:0000000000230000
#070320:00000000000000000000000000001333
#071360:23
#071360:00000000133300000000000000000000
#071320:0000002300000000
#0713b0:00000000000000000000000000001333
#072370:23
#072370:00000000133300000000000000000000
#0723b0:0000002300000000
#0723b0:00000000000000000000133300000000
#072370:00000023
#075370:0013
#075380:00000000000000000033000000000000
#075390:0000000000330000
#0753a0:00000000000000000000003300000000
#0753b0:00000023
#075361:00000013
#075351:00000000000000000000000000330000
#075341:0000000000000033
#075331:00000000000000000000000000000033
#076321:23
#076370:13
#076380:00330000000000000000000000000000
#076390:0033000000000000
#0763a0:00000033000000000000000000000000
#0763b0:00230000
#076361:00000000143434342400000000000000
#076371:00000000000000000000000000000000005400550054005400560054005500540000000000000000000000000000000000000000000000000000000000000000
#076351:0000000000000000005400000000005400000000000000000000000000000000
#076331:0000000000000000000000560000000000000000000000000000000000000000
#076341:0000000000000000000000000055000000000000000000000000000000000000
#083351:000000000000000000000000000000000000000000000000000000000000000000000000000000000000000000000000000000000000000000000000000000000000000000000000000000000000000000000000000000000000000000000000130000000000000000000000000000000000000000000000000000000000000000000000000000000000000000000053000000000000000000000000000000000000000000000000000000000000000000000000000000000000000000000000
#083341:000000000000000000000000000000000000000000000000000000000000000000000000000000000000000000000000000000000000000000000000000000000000000000000000000000000000000000000000000000000000000000000000000000000000000000000000000000000000000000000000000000000000000000000000000000000000000000000000540000000000000000000000000000000000000000000000540000000000000000000000000000000000000000000054
#084331:550000000000000000000000000000000000000000000000550000000000000000000000000000000000000000000055000000000000000000000000000000000000000000000000000000000000000000000000000000000000000000000000000000000000000000000000000000000000000000000000000000000000000000000000000000000000000000000000000000000000000000000000000000000000000000000000000000000000000000000000000000000000000000000000
#084321:00562600
#085351:160000003600000036000000360000003600000036000000360000000000000000000000000000000000000056000000000000560000000000560000000000560000000000560000000000560000000000560000000000560000000000560000000000000000000000000000000000000000000000000000000000000000000000000000000000000000000000000000000000000000000000000000000000000000000000000000000000000000000000000000000000000000000000000000
#085361:005400540054005400540054000054000000540000000000000000000000000000000000000000000000000000000000000000000000000000000000000000000000000000000000000000000000000000000000000000000000000000000000
#085341:000000000000000000000000000000003800000038000000000000580000000000580000000000000000000000000000000000000000000000000000000000000000000000000000000000000000000000000000000000000000000000000000
#085331:00000000000000003a003a003a5a000000000000000000000000000000000000
#085321:00000000000000000000000000003c5c2c000000000000000000000000000000
#087371:13
#0873b1:00000023000000000000000000000000
#088361:13
#088321:00000023000000000000000000000000
#0883b1:00001323
#088371:0000000000330000
#088320:00000013
#088360:0000000000000033
#089320:23
#0893b1:13230000
#089371:0053000000000000
#092321:13330000
#092351:0033002300000000
#093351:13
#093341:00330000000000000000000000000000
#093331:0033000000000000
#093321:00000033230000000000000000000000
#093351:00001323
#093321:0000000000530000
#0943b1:13230000
#094381:0053000000000000
#094361:0013
#094341:0000000000530033
#094321:00000033
#095361:23
#0953b0:1323
#095390:0053003300000000
#095370:00330000
#095361:00001424
#096321:00001323
#096361:0000000000330000
#0963b0:00000013
#096370:0000000000000033
#0973b0:23
#097321:13230000
#097361:0053000000000000
#097371:0013
#0973b1:00000023
#098361:13
#098321:00230000
#098361:0014
#0983a1:00000024
#099361:14
#099321:00240000
#1003b1:13330000
#100381:0033002300000000
#105321:0000000013230000
#1053b1:0000000000001323
#106351:13
#106321:00333333240000000000000000000000
#106380:13
#1063b0:00333333000000000000000000000000
#1063a0:00240000
#110320:0000001800000000
#112320:00230000
