This file was generated by Ched 2.7.0.0.
#TITLE ""
#ARTIST ""
#DESIGNER ""
#DIFFICULTY 0
#PLAYLEVEL
#SONGID ""
#WAVE ""
#WAVEOFFSET 0
#JACKET ""
#REQUEST "ticks_per_beat 480"
#00002: 4
#BPM01: 192
#00008: 01
#TIL00: ""
#HISPEED 00
#MEASUREHS 00
#00514:13
#00513:00130024
#0051a:00130000
#00512:0013
#0051b:0013
#00519:13000024
#00715:0013
#00718:00000013
#01418:0000001300000000
#01415:00001313
#0141b:2300000000130013
#01412:00130000
#01410:41
#01512:13130013
#01518:0013001300000013
#0151b:0000000000130000
#01515:0013
#01715:0013000000001300
#0171b:0000000000000013
#01718:0000000000130000
#02712:0013000000130000
#02715:0000001300000013
#0271b:1323
#02718:00130023
#03612:00140014
#03614:1414
#03618:0014000000140000
#0361a:0000001400000024
#03714:0014000014000000
#03718:0000001400000000
#04218:0000001300000000
#04212:0013
#0421b:13
#04215:0000000000000013
#10918:26260013
#10915:0000000000000013
#1091b:0000000000130000
#10912:0026002600000000
#11015:0013000000000000
#11012:00130000
#11018:13
#04115:0000230000000013
#04118:23
#04112:0023
#0411b:0023
#04315:0000000000000013
#04318:0000001300000000
#04312:0013
#0431b:13
#05112:0013
#05115:13
#0511b:0000000000000013
#05118:0000001300000000
#05012:0013
#05015:13
#05018:0000001300000000
#0501b:0000000000000013
#05518:13
#05512:0013000000000000
#0551b:00130000
#05515:0000001300000000
#05615:1300003313000000
#05612:0033130000330000
#06418:1300001300130000
#06415:00130013
#06412:0013000000000013
#0641b:0013
#0661b:13
#06612:13
#06615:0000000000330000
#06614:00000000000000000033000000000000
#06613:0033
#06015:0000001300000013
#06018:0023
#0601b:23
#06818:0013000000130000
#0681b:0000001300000013
#06812:1313
#06815:00130013
#06915:1313
#06918:00130013
#06912:00130013
#0691b:0013
#07512:00140000
#07518:24
#07519:00000000000000000033000000000033
#0751a:0000000000330033
#0751b:00000000000000000000003300330000
#08015:0013
#08018:00000013330000000000000013000000
#0801b:13
#0491b:0000130000000013
#04912:13
#04915:0013
#05915:1313
#05912:00130000
#0381b:0000001300000000
#03815:0013
#03812:0000000000000013
#03818:23
#03810:41
#03918:13000000000000000000001333000000
#03915:0000001300000000
#0391b:0013
#07612:0000000000140000
#07614:0000000000000014
#0761a:0033000000140000
#07619:00330000000000000000000000000000
#0761b:00000033000000000000000000000000
#07718:14
#07712:0013
#0771b:0013
#07715:0000000000000013
#0771f:11
#05218:00130023
#05212:1300000000000023
#05215:0000001300230000
#0521b:0023
#0221b:13000000000000003333000000000000
#02218:00003333000013000000000000000000
#02212:0000000000000013
#05818:0000001300000013
#0301b:0000001300000000
#03018:0000000000000013
#03015:0013
#03012:23
#0311b:0013000000000000
#03118:0000001300000000
#03115:0000130000000013
#03112:1313
#02915:00130013
#0291b:00130013
#02918:0013
#02912:0013
#04015:13000000000000000000001333000000
#04012:0013
#04018:0000001300000000
#04812:0000001300000000
#04818:1300000000000013
#04815:00000013
#0481b:0013
#0441b:1300000000230000
#04412:0023
#04418:0000330000000023
#04415:00000023
#00918:0013
#00915:00000013
#01118:00001313
#01115:0000000000130000
#01315:00001313
#01318:0000000000130000
#01612:13000013
#01615:0000001300000000
#0241b:0013000000000000
#02415:00000013
#02418:0000000000000013
#02515:1313
#02512:00130000
#02514:0033003300000000
#02618:13000013
#02615:0000001300000013
#0261b:00003333000000000000000000000000
#02612:00000000000000003333000000000000
#02610:41
#03212:0000001300000000
#03215:0000000000000013
#03218:0013
#0321b:23
#03312:0013000000000000
#03315:0000001300000000
#03318:0000130000000013
#0331b:1313
#03518:0000001300001400
#0351b:0013000000000000
#03512:1313
#03515:00130000
#0471b:13
#04712:0013
#04718:00000013330000000000000000000000
#04715:00000000000000000000001333000000
#05412:1313
#05415:00130000
#05410:41
#06718:13
#06715:0013000000000000
#0671b:00130000
#06712:0000001300000000
#08915:0000000000000013
#08918:0000001300000000
#08912:2313
#0891b:23
#0901b:13
#09018:0000002300000000
#09012:0023
#09015:0000000000000023
#09118:0000001300000000
#09112:0013
#0911b:23
#09115:00000033
#0871b:0013
#08712:00000013330000000000000000001300
#08715:23
#0921b:2313
#09218:00000000230000000000003313003300
#09212:0023000000000000
#09215:0000002300000000
#09912:0000001300000013
#0991b:2323
#09918:00000023
#08818:13000023
#0881b:00000013330000000000000000000000
#08815:0023
#10418:0013000000000000
#1041b:0000001300000000
#10412:23000000000000000000001333000000
#10415:00231300
#10515:0013
#10512:00000013
#10518:00000013330000000000000000000000
#1051b:13
#10615:1300000000130000
#10618:00000013
#10612:0000230000000013
#1061b:0023
#10715:0013000000000013
#10718:00132300
#10712:0000001300130000
#1071b:23000013
#10812:0013000000000013
#1081b:00130023
#10815:0000001300130000
#10818:2323
#11215:0000001600000000
#00318:12000012
#00314:00120000
#00316:0012
#0041a:12000012
#00414:12
#00416:00120000
#00418:0012
#01812:13
#0181b:0000001300000000
#01815:00003333000000000000000013000000
#01818:00000000000000003333000000002300
#01912:1313
#01915:0000130000130013
#01918:0000002300001300
#0191b:0023000000000000
#02315:0013000000130000
#0231b:1313
#02318:00130013
#02312:0000001300000013
#09315:0013
#0931b:13
#09318:00230000
#07314:00000014
#07318:0024
#07319:0000000000000024
#07310:0041
#07415:0014000000000000
#07414:0014
#07413:0000000000000014
#0741a:00240000
#07419:0000000000240000
#09618:13000023
#0961b:00000013330000000000000000000000
#09615:0023
#09515:0000001300000013
#09518:13130000
#09512:0013000000000000
#0951b:0013
#09418:13
#09412:0013
#0941b:00000013
#09415:0000000000000013
#10015:0013000000000000
#10012:0000001300000000
#10018:00000000230000000000003313000000
#1001b:2313
#10019:0000000000000033
#10114:00140000
#04512:1313
#04515:00000033130033000000000023000000
#0631b:0013
#06315:0000000000130000
#06318:00000013
#06312:0000000000000013
#07818:1300000013000013
#07815:0000001300000000
#07918:0013
#07912:13
#07915:00000013330000000000000000001300
#08118:0000001300000013
#08112:0013
#08115:13
#08212:13
#08215:0000002300000023
#0821b:0023
#08318:0013
#08315:0000001300000000
#0831b:23000033
#08415:13000000000000000000003333003300
#0841b:0013000000000000
#08412:00130000
#08418:0000001300000000
#10212:00000013
#10218:0000000000000013
#10315:00000013330000000000000000000000
#10312:13
#1031b:00000000000000000000001333000000
#10318:0013
#0341b:0000001300000000
#03418:0000000000000013
#03415:0013
#03412:23
#0571b:13
#05715:0013000000000000
#05718:00130000
#05712:0000001300000000
#02018:0000001300000033
#0201b:1300000000130000
#0201a:0033000000000000
#02019:00330000
#0211b:00130000
#02118:13
#02115:0000000000000023
#02119:0033003300000000
#0981b:13
#09815:0000000000000023
#09812:0000002300000000
#09818:0023
#09712:2300001300000000
#09718:0013
#09715:0000000000000013
#0971b:23
#04618:13
#04615:0013
#0281b:23
#0611a:2424
#06112:0024000000000000
#06118:00240000
#06114:0000002400000000
#06518:2626
#06512:00260000
#05318:00000026
#0531b:00000033330033003300000000000000
#0851b:0000000000000023
#08515:3323
#0851f:0021
#08615:23
#08618:0023
#08612:0000002300000000
#0861b:0000000000000023
#08610:0041
#00553:00000014
#00559:00000014
#05655:6363
#05652:00630000
#05055:63
#05052:0023
#05955:5353
#05952:00530000
#06558:1616
#06552:00160000
#07558:14
#07552:00140000
#0145b:13
#03855:0013
#03858:13
#03958:13000000000000000000002300000000
#0395b:0053
#02258:0000006300000000
#0225b:63
#01755:0053000000000000
#01652:53000053
#01655:0000005300000000
#0245b:0023000000000000
#02555:5353
#02552:00530000
#02658:53
#02655:0000006300000000
#04052:0063
#04055:13000000000000000000002300000000
#0445b:53
#0475b:63
#04752:0053
#04758:00000023000000000000000000000000
#04755:00000000000000000000002300000000
#05452:5353
#05455:00530000
#05358:00000016
#0765b:00130000
#0925b:0053
#09258:00000023
#09152:0063
#0915b:13
#08752:00000023000000000000000000000000
#08755:63
#08858:63
#0885b:00000023000000000000000000000000
#09358:00130000
#09355:0063
#0935b:53
#10652:00130000
#10655:63
#10552:00000063
#10555:0063
#10558:00000023000000000000000000000000
#1055b:63
#08655:13
#08658:0013
#09052:0013
#0905b:13
#01852:53
#0185b:0000006300000000
#06955:13
#10452:00000000000000000000002300000000
#10455:0063
#09658:63
#0965b:00000023000000000000000000000000
#09458:53
#0955b:0053
#04552:6363
#04555:00230013
#0715b:0013
#07352:00130000
#1005b:0053
#10058:00000023
#0435b:13
#04352:0013
#04955:0013
#08952:0013
#0425b:13
#04252:0013
#07952:63
#07955:00000023000000000000000000000000
#0805b:53
#08058:00000023000000000000000013000000
#08055:0013
#08358:0063
#08555:0013
#10258:0014
#10355:00000023000000000000000000000000
#10352:53
#1035b:00000000000000000000002300000000
#10358:0053
#02058:0000005300000000
#0205b:5300000000530000
#0215b:00230000
#02158:53
#08155:13
#05152:0023
#05155:63
#0985b:23
#09858:0053
#09758:0053
#0995b:23
#04658:53
#04655:0063
#03052:13
#002330:12220000
#002391:12220000
#002351:00001222
#0023b0:00001222
#0063b0:1300000000333300
#006380:0000333300000000
#007380:3333000000000000
#0073b0:0000002300000000
#008320:1300000000333300
#008350:0000333300000000
#009350:3333000000000000
#009320:0000002300000000
#0103b0:1300000000230000
#010380:0000333300000000
#010350:00000013
#011320:3333000000000000
#011350:0000002300000000
#012320:1300000000230000
#012350:0000333300000000
#012380:00000013
#0133b0:3333000000000000
#013380:0000002300000000
#016320:1300000000333300
#016350:0000333300000000
#017350:3333000000000000
#017320:0023
#018320:13
#018350:00003333230000000000000000000000
#0183b0:0000001300000000
#018380:00000000000000003333230000000000
#0203b0:1300000000330000
#0203a0:0033000000000000
#020390:00330000
#020380:0000003300000033
#021380:33003323
#021390:0033003300000000
#0213b0:00330000
#0223b0:13000000000000003333000023000000
#022380:00003333000033000000000000000000
#0243b0:1333000000000000
#024380:0023
#025350:1333
#025340:0033003300000000
#025320:00330023
#026380:13
#0263b0:00003333230000000000000000000000
#026350:0000001300000000
#026320:00000000000000003333230000000000
#028350:00130000
#028340:0000003300000000
#028330:0023
#028380:00000013
#028390:0000000000000033
#0293a0:23
#0393b0:0000000013000023
#039380:00000000000000000000003333000000
#040320:0000000013000023
#040350:00000000000000000000003333000000
#0443b0:13
#044380:0000332300000000
#045320:1333
#045350:00000033330033000000000023000000
#046380:13
#0463b0:0000002300000000
#046350:0013
#046320:0000000000000023
#0473b0:1300002300000000
#047380:00000033330000000000000000000000
#047320:0000000013000023
#047350:00000000000000000000003333000000
#050350:13
#050320:00230000
#050320:0013
#050350:00000023
#051350:13
#051320:00230000
#051320:0013
#051350:00000023
#0533b0:13000033330033003300000000000000
#053380:00000026
#054320:1333
#054350:00330023
#055380:0013
#0553b0:00000023
#056350:1300003333000000
#056320:0033330000332300
#0573b0:0013
#057380:00000023
#058320:13
#058350:00230000
#058350:0013
#058320:00000023
#059350:1333
#059320:00330023
#0603b0:13
#060380:00230000
#060380:0013
#0603b0:00000023
#061320:0000000000000000000000000000000000000000145454545454545434000000
#061330:00000000000000000000000000000000000000000000000000000000000000000000000000000000005400540054005400540054005400540000000000000000
#061340:00000000000000000000000000000034
#062360:3454545454545454545454543400000000000000000000000000000000000000
#062350:00540054005400540054005400540054005400540054005400000000000000000000000000000000000000000000000000000000000000000000000000000000
#062340:00000000000000340000000000000034
#062320:0000000000000000000000000000000034545454545454545454545434000000
#062330:00000000000000000000000000000000000000000000000000000000000000000054005400540054005400540054005400540054005400540000000000000000
#063360:3454545454545454545454542400000000000000000000000000000000000000
#063350:00540054005400540054005400540054005400540054005400000000000000000000000000000000000000000000000000000000000000000000000000000000
#066350:00000000130000000000333300000000
#066340:00000000003300000033000033000000
#066330:00000000000033003300000000330000
#066320:00000000000000330000000000002300
#067380:0000000013000023
#067390:00000000000000000033000000330000
#0673a0:0000000000333300
#0673b0:00000000000000000000003300000000
#0703b0:1300000000333300
#070380:0000333300000000
#071380:3333000000000000
#0713b0:0000003323000000
#071320:00000013
#072350:3333000000003333
#072320:0000003333000000
#073320:0033230000000000
#075380:0013
#075390:00000000000000000033000000000033
#0753a0:0000000000330033
#0753b0:00000000000000000000003333330000
#076380:33
#076390:00330000000000000000000000000000
#0763a0:0033000000000000
#0763b0:00000033230000000000000000000000
#079320:1300002300000000
#079350:00000033330000000000000000000000
#0803b0:1300002300000000
#080380:00000033330000000000000000000000
#083380:0013
#0833b0:0000000000003323
#084350:00000000000000001300003333003300
#085350:3323
#087350:1300002300000000
#087320:00000033330000000000000000000000
#088380:1300002300000000
#0883b0:00000033330000000000000000000000
#091320:0013
#091350:0000000000003323
#0923b0:0013
#092380:00000000000000000000003333003300
#0933b0:33
#093380:00230000
#093350:0013
#093320:0000000000000023
#094380:13
#0943b0:0000002300000000
#0953b0:0013
#095380:00000023
#096380:1300002300000000
#0963b0:00000033330000000000000000000000
#097380:0013
#0973b0:00000023
#0983b0:13
#098380:00230000
#098380:0013
#0983b0:00000023
#0993b0:13
#099380:00230000
#1003b0:0013
#100380:00000000000000000000003333000000
#100390:0000000000000033
#1013b0:23
#101380:0000000014003434
#102380:3434343424000000
#103320:1300002300000000
#103350:00000053330000000000000000000000
#103380:0000000013000023
#1033b0:00000000000000000000005333000000
#104350:0000000013000023
#104320:00000000000000000000005333000000
#1053b0:1300002300000000
#105380:00000053330000000000000000000000
#105350:0013
#105320:00000033
#106350:33
#106320:00230000
#110380:0000001600000000
#1123b0:00230000
