This file was generated by Ched 2.7.0.0.
#TITLE ""
#ARTIST ""
#DESIGNER ""
#DIFFICULTY 0
#PLAYLEVEL
#SONGID ""
#WAVE ""
#WAVEOFFSET 0
#JACKET ""
#REQUEST "ticks_per_beat 480"
#00002: 4
#BPM01: 192
#00008: 01
#TIL00: ""
#HISPEED 00
#MEASUREHS 00
#01315:00000000000000001600000000131616
#01312:00002600000016000000001300000000
#0131b:00000000000000130000130000000000
#01318:16130013
#0141a:0014000000000000
#01416:00000014000000001400000014141400
#0141b:0000001300130000
#01412:0000141300130000
#01415:26
#01410:41
#0151b:13131313
#01512:13131313
#01519:0000000000120000
#01517:0000001200000012
#01515:0012000000000000
#01617:1200000000121200
#01612:0000121200000000
#0161b:13000013
#01616:0000001300000000
#0171b:0000000000130000
#01719:00000013
#01717:0000000013000013
#01712:1212000013001300
#01716:0013000000000000
#01815:13001316160000000016160000000000
#01818:0000001313000000
#0181b:00000013
#01812:0000000000000029
#02414:0000000000000012
#02412:13000000001200000000000012000000
#02417:0012000000001300
#0241b:1313000000000000
#02419:0000000000000013
#02416:00000000001300000000000000000000
#02615:2916160016160000
#0261b:00000013000000000000000013000000
#02612:00000000000029000013000000000000
#02618:0000000000000013
#02610:41
#02715:1300130029130000
#02712:0013000000002900
#02718:0000001300000013
#0361a:12121212
#03614:00120000001200000012281800120000
#03617:00002212000000000000000000000000
#03616:00000000000024140000000000000000
#03612:000000000000002c
#03712:0016001616000000
#03718:0016001616000000
#04215:0000001313000000
#04218:13
#04212:001c1c00001c1c00
#0421b:0000000000000013
#04216:0000000000000013
#04316:1300000000000013
#04317:0000001313000000
#04312:001c1c13131c1c00
#0431b:1300000000000013
#10912:2626262600160000
#1091a:00000012
#10917:00000000000000000000000000120000
#10914:0000000000000012
#10918:2626262600160000
#11012:1600001600000000
#11017:0012000000000000
#11014:00120000
#11018:1600001600000000
#11215:0000001300000000
#1121b:00130000
#11218:001300
#11212:000000000000001300000000000000000000000000000000
#03916:00000000000000000000001300001400
#0391b:1300000000130000
#03915:0000161300000000
#03918:0013000016000000
#03912:16000013000000001300000000000000
#03919:00000013
#04018:1613000000000000
#04015:00161600
#0401b:0000001313000000
#04012:16000013000013000000130000000000
#04017:00000000000000000000001300000000
#04016:0000000000000014
#04014:00000013
#05112:1400001c1414141c
#0511a:1414140014000000
#05116:00000014000000000000001400000000
#0541a:14141414
#05412:1313
#05416:00130013
#05410:41
#0551a:14141414
#05512:0013000000130000
#05514:00130000
#05516:0000001313000000
#05612:14141414
#0561b:1313
#05619:0013001300000000
#05617:0000130000000013
#05712:14141414
#0571b:0013000000130000
#05719:13130000
#05717:0000001313000000
#06415:00000013000000130016001300001600
#0641b:0000130013130000
#06418:0013001300001300
#06412:13130000001300000000000000130013
#06518:0000000000001313
#06515:29000000000000002900000000130013
#06512:00290000
#0661b:1300000013130000
#06612:13000000000000000000000000130013
#06615:00000000000000000016001616001600
#0581a:14141400
#05812:14001414
#05816:0014001400140014
#06312:00001313
#06315:00000000000000130000130000001300
#06318:00000000000000000013000000000013
#0631b:00000000000000000000001300130000
#0631a:0000001400000000
#06712:00000000000000001300000000000013
#06718:00000000000000000013000000000000
#06716:00000000000000000000001300000000
#0671b:1300000000130000
#06714:00000000000000000000000000130000
#06719:00000013
#06717:0000000000000013
#06815:13000000000000000000161300160013
#06818:0000000000001313
#06812:0000001316000000
#0681b:13
#06816:00000013130000000000000000000000
#06918:1613001300000000
#06912:00130000001300000013001300000000
#0691b:0000130000001313
#06915:00000013000000131600160000160016
#07512:2c161c0000000000
#07514:0012
#07518:00160016000000000012000000000000
#07516:0000000000120013
#0751a:00000000000000000000001200000013
#07513:00000013
#07517:00000000000000000000000000130000
#0731b:0000130000130000
#07315:00000000000000000000001300000000
#07318:00000013
#07312:13000000000013002c00000000132c00
#07319:0013000000000000
#07317:1300001300000000
#07314:0013000000000000
#07316:00130000
#07310:0041
#08112:1600000022220000
#08118:16
#08116:0000000022220000
#02512:0012001200000000
#0251b:13131300
#02517:0013001300000000
#02516:12121200
#0591a:14141400
#05916:000000000000000000000000000000000000000000000000141400000000000000000000000000000000000000000000000000000000000000000000000000000000000000000000141400000000000000000000000000000000000000000000000000000000000000000000000000000000000000000000141400000000000000000000000000000000000000000000000000000000000000000000000000000000000000000000000000000000000000000000000000000000000000000000
#05912:14141400
#07412:130000002c00000000132c0013000000
#07418:00130000000000130000000000001300
#07415:00001300000000001300000000130000
#0741b:00000013000013000000000000000013
#09515:0026002600000016
#09512:2600261200000000
#0951c:0012000000000000
#09518:2626
#09612:1300000024000024
#0961b:13
#09615:00000013001300130000000000000000
#09618:0013131300000000
#09616:0000000000140014
#0961a:0000000024242400
#09712:2413
#09716:0000000000131813
#09717:0014001313000000
#0971b:00000000130000000000001300000000
#0981b:13
#09812:00000013180028002400000000000000
#09816:1300000024141828
#09817:0013000000000000
#0981a:00000000000000000000001400000000
#10218:00000000000000000000131300001600
#10212:00001616
#1021b:0023
#10412:2300160023130016
#10416:0014001400000000
#10418:16001616
#10415:00000000000000000000001300000000
#1041b:00230000
#1051b:2313000000130000
#10518:00000013000016001600000000000000
#10512:1600160000001613
#10818:26000000000016000013001300000000
#1081b:00000000000000000000000000130013
#10815:0000000000002616
#10812:000016162c0016002600160000000000
#03812:26000013000000001300000000000000
#03818:0013000016000013
#03815:0000161300131600
#0381b:23000000000000000000001300000000
#03810:41
#07612:1400000000001600160016001600001c0000000000160000
#07618:000000000000001600160016000000000000000000160000
#07616:00141400000000000000000000000000
#0761a:00000014000000000000000000000000
#07718:16
#07712:1600000022220000
#0771f:11
#07716:0000000022220000
#10318:16000000160000000000131300001600
#10315:00001313000000000000000000000000
#10312:2300001616001600
#1031b:0023
#10618:00000000260000000000141400000000
#10612:1434343400343434260000000000000026000000000000000000000014000000
#1061a:1400343400343434000000000000000000000000000000000000000014000000
#10616:000000000000000000000000000000000000000000000000141400000000000000000000000000000000000000000000000000000000000000000000000000000000000000000000000000000000000000000000000000000000000000000000000000000000000000000000000000000000000000000000000000000000000000000000000000000000000000000000000000000000000000000000000000000000000000000000000000000000000000000000000000000000000000000000
#10614:00000028
#09112:241c1c0022002200
#09118:0000001400000000
#09116:2400000000000014
#09117:0000000000140000
#0911c:00002222
#04518:16160026
#04512:16001626
#04515:0000001600260000
#05212:14000014000014002c00290026002300
#05216:00140000
#0521a:1400001400000000
#05218:0014000000000000
#04412:0013001329000000
#0441b:13132300
#04417:0000001300002300
#04416:13
#04419:0000000000230000
#04415:0000000000000023
#04912:14130013
#0491b:13
#0491a:0014
#04915:0000000000000016
#0921a:0000000000000014
#09216:00000000000000000000001400000000
#09212:22221214
#0921c:22221200
#09215:0014000000000000
#09214:0000001400000000
#0291b:00000000000000001300001300000000
#02912:16161616
#02918:0013001300130013
#03012:26130013
#03014:0000001300000013
#03017:00130013
#0301b:1313
#03016:0024
#03412:00131300
#03414:0000001300000013
#03419:0000001300000013
#0341b:13000013
#03416:2413000024000000
#03417:0000000000130000
#03112:00130013
#03119:0000000000000013
#03116:2414141424000000
#0311b:00001313
#08716:0000000014141818
#0871b:00000000001300130000000000000000
#08715:00000016000016000000000000000000
#08712:2c13130014000000
#0871a:00000000000000000000001400000000
#04612:00131300
#04617:13000000000000000000001300001300
#04616:00000013000013001300000000000000
#0461b:13000013
#0791b:13
#07918:00001300001300002200220000000000
#07915:00130000130000000000000000000000
#07912:0000001300000000
#0791c:0000000022220000
#10018:0000000026160000
#10015:00000000000000000013001326001600
#10012:00001300000013000000000000130013
#10016:23230000
#04116:0013000000000000
#04117:0000001300000000
#04112:23230013
#04118:0000000000000013
#0411b:2323
#09012:131c1c00001c1c24
#09016:1300002424000024
#0901a:0000002424000000
#10115:0013130000000000
#10118:00130013001300000000000000000000
#1011b:0000001300000000
#10112:2600001325250000
#10119:0000000025250000
#0931a:1424
#09315:0000000000000013
#09318:0000000000000013
#09316:2424000000000000
#09312:002400242c0000000000000000000000
#00314:0012000000000012
#0031c:1200001200000000
#00316:12000012
#00318:0000120000120000
#0031a:0012
#00218:0000001200000012
#00212:0000001200000012
#00412:12121212
#0041c:1200000000120000
#00414:0000001200000000
#0041a:00120012
#00418:0000000012000012
#00512:12000026
#00515:00120000
#00519:00120000
#00518:00001226
#0051c:0012
#00516:12
#00915:000000000000000000000012000000000000160000000000
#0091a:000000000012000000000000
#00912:0013001300130000
#0091b:0000130000130000
#00917:1313000013000000
#00916:00130000
#01919:0000000000130013
#01912:1300002913001300
#0191b:00130000
#01914:0000000000130013
#01917:00000013
#01915:0029000000000000
#04717:1300000000000017
#04712:00000013130017001300000000000000
#0471b:13000000000000000000001313000000
#04716:0013
#04815:00130000
#04812:13000000000013000000001300000000
#0481b:00000013000000001300000000001300
#04817:13
#04818:00000000000000000000001313000000
#04816:0013
#0501b:1313130013000000
#05017:00000013000000000000000000000000
#05012:130000001313131c
#05016:00000000000000000000001300000000
#05015:0000001600000000
#05315:00000000000000000000000000130013
#05318:0000000000000013
#05312:1c
#0531a:00000024
#06112:2425272524000014
#06116:00000000000000000000000000000014
#0611a:00240000
#06117:2727
#06118:0026002600000000
#0621a:0000001400000000
#06216:00000000000000140000000000000014
#06212:0000000000000014
#08812:00000014180018002400240024000000
#08816:1414000000140014
#0881a:1400000024000024
#09412:1400001313000000
#0941a:14
#09415:0000130000131316
#0941b:0000001313000000
#09418:00001300000000000000001300000000
#08318:2626000013131414
#08315:0000000013130000
#08314:0000000000001414
#08312:2626000000000000
#08418:1515161600000000
#08413:1515000000000000
#08412:000016162c000000
#11118:0000001600000000
#03317:00000013
#03319:0000000000000013
#03312:00001313
#03316:2414141424000000
#0331b:00130000
#0351b:1313
#03512:0018130000001600
#03518:00000016
#03516:2400141824000000
#08915:0014000000000000
#08912:00001300001c1c13
#0891b:0000001313000000
#08917:0000001313000000
#08916:0000000000000013
#0891a:24
#02318:0013160000160000
#02312:1600000016000016
#02315:0000001300001600
#02112:120000001200002c
#0211c:1212
#0211a:0012001200000000
#02116:00000012000000000000120000000000
#02118:0000120000120000
#02114:0000001200000000
#0081b:1300130000000013
#00816:0000001300130013
#00817:0013000000001300
#00812:00001313
#00612:1300130000000013
#00617:0000001300130013
#00616:0013000000001300
#0061b:00001313
#00716:1313000000000000
#0071b:0013001300131300
#00717:00130000
#00718:0000000013000013
#00715:0000000000131300
#00712:0000130013000013
#01118:0026001613001300
#01115:00131313
#01112:1600000000130013
#0111b:0000000000130013
#02016:13131300
#0201b:13
#0201c:00121200
#02018:0012001200001200
#02014:0000000000130000
#02012:0013001300001300
#0201a:0000000000120000
#0221a:14000000000000001414000000000000
#02212:00001414000014000000000000000000
#02218:00000016
#02215:0000000000000013
#0321b:00130013
#03219:0000001300000013
#03216:24132413
#03212:1313
#08013:00000015
#08018:00001415
#08014:0014
#08019:2323000000000000
#08015:2323000000000000
#07112:00000000000000000013001329000000
#07115:0029000029160000
#07114:00000000003400000000000000000000
#07117:00000000000000000000000000000034
#0861b:0000000000130000
#08615:00000000000000000000001300002900
#08612:2c1316292c000000
#08618:00000013000000000000000016000000
#08610:0041
#0851b:0000000000130000
#08518:0000002600001600
#08515:00000000000000000000001300002900
#0851a:14240000
#08512:00000000002400262c00000000000000
#0851f:0021
#0601a:14142400
#06012:2400001c1400141c
#06018:0014000000000000
#06014:0000000000140000
#09916:2414001400140014
#09912:00000014180000002300000023000000
#0991a:24
#0991b:00002323
#10714:00001414280000000000000000000000
#1071a:0000001400000000
#10718:26000000000000000000161600001600
#10712:0000001426002c16
#01015:2600162600160000
#01012:0013000000002600
#0101b:0013
#01018:0000000000000013
#01215:2600162600160013
#0121b:0013000000000000
#01212:0013
#01218:00000026
#07015:29000034000029000000000029000034
#07014:00000000000000000034000000000000
#02815:29
#0781a:0000000024240000
#07816:0000000024240000
#07814:2323000000000000
#07818:2323000000000000
#07212:0029000029000029
#07218:00000000003400000000000000000000
#07217:00000000000000000000003400000000
#08216:0000000024240000
#08212:0000000024240000
#08217:2323000000000000
#0821b:2323000000000000
#0535a:00000014
#05352:6c
#05452:5353
#0545a:44444444
#05456:00530053
#06852:0016
#06958:16
#05152:64000014
#0515a:00145400
#0595a:54545444
#05956:000000000000000000000000000000000000000000000000242400000000000000000000000000000000000000000000000000000000000000000000000000000000000000000000242400000000000000000000000000000000000000000000000000000000000000000000000000000000000000000000242400000000000000000000000000000000000000000000000000000000000000000000000000000000000000000000000000000000000000000000000000000000000000000000
#05952:64646434
#08452:001c
#09752:5413
#09757:0024000023000000
#09758:46
#0985b:13
#09856:2324
#09852:0014
#11058:0000001600000000
#11052:0000005600000000
#07552:1c1c0000
#01455:16
#09956:24
#0995a:14
#0255b:53535300
#02557:0023002300001300
#02556:0062
#02552:00000012
#01752:0052000000000000
#01756:0053000000000000
#03852:0013
#0385b:13
#0395b:13
#03952:0053
#0435b:13
#04352:0013
#04356:13
#04357:0013
#08756:0054
#08752:3c44
#0905a:0014
#09056:1314
#09052:13
#04652:0053
#04657:00000000000000000000002300000000
#0465b:63
#04656:00000023000000000000000000000000
#0415b:53435300
#04156:0023000000000000
#04152:33633300
#04157:0000002300000000
#04258:13
#04255:0013
#10058:0016
#10055:00000016
#10152:16
#09152:14
#09156:14
#0885a:3464
#08852:00003454
#08856:6400000000240024
#08858:00000046
#0895a:64
#08955:0024000000000000
#08952:36
#0895b:0013
#08957:0013
#09252:00001214
#0925c:0012
#0935a:14
#09352:001c0000
#00955:00000016
#0095b:00230000
#00957:0053000000000000
#00552:00000036
#00558:00000046
#01657:12000012
#01652:0000001200000000
#0165b:53000053
#01656:0000005300000000
#01855:13
#01858:0000001300000000
#02452:00000000002200000000000000000000
#02457:0052000000000000
#02456:00000000002300000000000000000000
#0245b:0053000000000000
#03052:16
#03057:00230023
#0305b:5353
#04052:16
#04058:16
#0405b:0063
#04558:56460046
#04552:36003636
#0475b:53
#04752:0063
#04952:34530000
#04956:00443400
#0495b:53
#0495a:0044
#05052:53000013
#0505b:00136300
#0555a:44444444
#05556:00006343
#05552:0000000000230000
#05652:34343434
#0565b:0053
#05752:34343434
#05757:00005333
#0575b:0000000000230000
#05852:54
#05856:0024000000240000
#0585a:0064
#10458:1616
#10452:00160000
#10252:0016
#10358:16
#10352:0016
#10552:16000036
#10558:0046
#10952:3636363600000000
#10958:4646464600000000
#02852:0013
#0295c:12
#11158:0000002600000000
#06555:4949
#06552:00390000
#0665b:43
#06652:33
#01355:0016
#10652:54363600
#1065a:54
#10656:000000000000000000000000000000000000000000000000242400000000000000000000000000000000000000000000000000000000000000000000000000000000000000000000000000000000000000000000000000000000000000000000000000000000000000000000000000000000000000000000000000000000000000000000000000000000000000000000000000000000000000000000000000000000000000000000000000000000000000000000000000000000000000000000
#10658:00460000
#07252:0019000019000019
#0215c:0052
#02158:0000000000220000
#02152:0062
#02156:0000000000220000
#02056:63632300
#02054:0000000000630000
#02058:0000006200002200
#02052:0063006300002300
#0205a:0000000000620000
#0205c:0022
#0225a:54
#02256:00000014000000000014000000000000
#02252:0000006400000000
#03256:00230023
#03252:6363
#0345b:53
#03456:0023000000000000
#03452:0063
#03457:0000000000230000
#0355b:0043
#04452:0023000000000000
#04456:53
#08152:36
#08158:46
#08053:00000035
#08058:00004445
#08054:0034
#00752:00230000
#00756:0053000000000000
#00758:0013
#00755:00000013
#0065b:00000053
#00657:0000000000000023
#08552:004c
#08652:3c4c
#0485b:00000023000000001300000000000000
#04857:53
#04852:13000000000000000000002300000000
#04856:0063
#06058:0024000000000000
#06054:0000000000240000
#06052:54
#0605a:0064
#07155:0019000019000000
#07152:00000019
#09558:5656
#09552:0000562200000000
#0955c:0022000000000000
#09656:0000000000240024
#09652:13005436
#0965a:00004464
#0965b:13
#01158:0013
#01155:00000013
#03352:0033
#0315b:0043
#10758:46
#10752:0036
#10858:46
#10852:0036
#10855:00000036
#09452:3413
#0945b:0013
#0945a:44
#07452:00003c00004c0000
#07352:000000003c00004c
#07055:1900001900001900
#00856:0000000000000023
#00852:00000053
#002320:12
#002360:00220000
#002381:12
#0023c1:00220000
#002381:0012
#0023c1:00000022
#002320:0012
#002360:00000022
#006370:13230000
#0063b0:0033000000000000
#006320:0000001300230000
#006360:0033
#0063b0:00000013
#006370:0000000000000033
#0073b0:23
#007360:0013002300000000
#007320:00330000
#008360:13230000
#008320:0033000000000000
#0083b0:0000001300230000
#008370:0033
#008320:00000013
#008360:0000000000000033
#009320:23
#009370:0013002300000000
#0093b0:00330000
#0103b0:13230000
#010370:0053000000000000
#010320:0000001300230000
#010360:0053
#0103b0:00000013
#0113b0:23
#011320:0013002300000000
#012320:13230000
#012360:0053000000000000
#0123b0:0000001300230000
#012370:0053
#012320:00000013
#013320:23
#0133b0:0013002300000000
#0163b0:1300000000333300
#016360:0000333300000000
#017360:3333000000000000
#0173b0:0000002300000000
#017321:0012000000000000
#017371:0000002200000000
#018381:1626000000000000
#018321:0000001626000000
#020361:1300330053000023
#020321:0033003300005300
#020341:0000000000330000
#020380:0000001200005200
#0203c0:0000000052000022
#0203a0:0000000000320000
#0213c0:00001222
#021380:0000000000520000
#021321:00001222
#021361:0000000000520000
#0223a1:14
#022361:00003424000000000000000000000000
#022321:0000001400000000
#022361:00000000000000003424000000000000
#022321:0000000000001323
#0233b1:1323000000000000
#023321:0000132300000000
#024371:0012000022000000
#024321:00000000005200000000000000000000
#0243b0:0013000023000000
#024360:00000000005300000000000000000000
#0253b0:13333300
#025370:0033003300532300
#025361:0012
#025321:0000000000522200
#026351:00000013
#027321:23
#027381:0013000000000000
#0273b1:0000002300000000
#028361:00130000
#028341:0000003300000000
#028321:0023
#028381:00000012
#0283a1:0000000000000032
#0293c1:22
#0303b1:1333
#030371:00330033
#0313b1:23
#032321:1333
#032361:00330033
#033321:23
#0343b1:13230000
#034361:0053000000000000
#034321:00001323
#034371:0000000000530000
#039321:0013
#039361:0000000000230000
#0403b1:0013
#040371:0000000000230000
#0413b1:13230000
#041361:0053000000000000
#041320:00132300
#041370:0000005300000000
#0413b1:0013
#041361:00000023
#044361:13230000
#044321:0053000000000000
#044321:0000000019000023
#045381:16
#045321:00000026000000000000000000000000
#0463b1:1300002300000000
#046361:00000053000000000000000000000000
#046321:0000000013000023
#046371:00000000000000000000005300000000
#0473b1:13
#047361:00230000
#047321:0013
#047371:00000023
#048371:13
#0483b1:00000053000000000000000000000000
#048361:0000002300000000
#048361:0013
#048321:00000000000000000000005300000000
#048371:0000000000000023
#0493b1:13
#049361:0054240000000000
#049320:00130000
#049360:0000005424000000
#050320:13
#050370:0023000000000000
#0503b0:0013
#050360:0000000000230000
#051320:14
#051360:0024000000000000
#0513a0:0014
#051360:0000000000240000
#053320:1c
#0533a0:00000024
#054320:1333
#054360:00330033
#055320:23
#055360:00001323
#055320:0000000000530000
#0563b0:0013
#056370:00000023
#057370:00001323
#0573b0:0000000000530000
#058320:14240000
#058360:0054000000000000
#0583a0:00001424
#058360:0000000000540000
#0593a0:14343424
#059360:0054005400540000
#059321:14343424
#059361:000000000000000000000000000000000000000000000000005400000000000000000000000000000000000000000000000000000000000000000000000000000000000000000000005400000000000000000000000000000000000000000000000000000000000000000000000000000000000000000000005400000000000000000000000000000000000000000000000000000000000000000000000000000000000000000000000000000000000000000000000000000000000000000000
#060321:14240000
#060381:0054000000000000
#0603a1:00001424
#060341:0000000000540000
#061321:00000000001c0000
#061351:000000000000000000000000000000000000000000000000000000000000000000000000000000000000000000000000000000000000000000000000005400000000590000000000000000000000000000000000000000000000000000000000
#061331:000000000000000000000000000000000000000000000000000000000000005b00000000000000000000000000000000
#061361:000000000000000000000000000000000000000000000000000000000000000000000000000000000000000000000000000000000000000000000000000000540000000058000000000000000000000000000000000000000000000000000000
#061341:00005a
#061371:000000000000000000000000000000000000000000000000000000000000000000000000000000000000000000000000000000000000000000000000000000000054000000005700000000000000000000000000000000000000000000000000
#061381:000000000000000000000000000000000000000000000000000000000000000000000000000000000000000000000000000000000000000000000000000000000000005400000000560056005600000000000000000000000000000000000000
#061391:000000000000000000000000000000000000000000000000000000000000000000000000000000000000000000000000000000000000000000000000000000000000000000530000000000000000550055005500250000000000000000000000
#0613a1:000000000000000000000000000000000000000000000000000000000000000000000000000000000000000000000000000000000000000000000000000000000000000000000052005200520000000000000000000000000000000000000000
#0613b1:000000000000000000000000000000000000000000000000000000000000000000000000000000000000000000000000000000000000000000000000000000000000000000000000000000000051005100510051000000000000000000000000
#062321:145400000000000054240000000000000000000000000000
#062341:005400005400000000000000000054000054000000000000000000000000000000000000000000000000000000000000
#062361:00545400545400000000000000000000
#062381:000000000054000054005400005400000000000000000000000000000000000000000000000000000000000000000000
#0623a1:000000000000005400540054000000000000000000000000000000000000000000000000000000000000000000000000
#0623a1:000000000000000000000000145400000000000054240000
#062381:000000000000000000000000000000000000000000000000005400005400000000000000000054000054000000000000
#062361:00000000000000000054540054540000
#062341:000000000000000000000000000000000000000000000000000000000054000054005400005400000000000000000000
#062321:000000000000000000000000000000000000000000000000000000000000005400540054000000000000000000000000
#063321:145400000000000054240000000000000000000000000000
#063341:005400005400000000000000000054000054000000000000000000000000000000000000000000000000000000000000
#063361:00545400545400000000000000000000
#063381:000000000054000054005400005400000000000000000000000000000000000000000000000000000000000000000000
#0633a1:000000000000005400540054000000000000000000000000000000000000000000000000000000000000000000000000
#0663b1:00130000
#066391:00000000003300000000000000000000
#066371:0000002300000000
#066320:0000001300000000
#066340:00000000000000330000000000000000
#066360:0023
#067320:13
#067350:0023000000000000
#067381:0013000000000000
#0673b1:00230000
#067320:00130000
#067350:0000002300000000
#067381:0000001300000000
#0673b1:0023
#0683b1:00132300
#068371:0000003300000000
#070321:0014000000000000
#070351:00000034000000000000000000000000
#070371:00240000
#070371:0014
#070341:00000000000000000034000000000000
#070321:0000000000240000
#070321:0000000000000014
#070351:00000000000000000000000000000034
#071371:24
#071371:00140000
#071341:00000000003400000000000000000000
#071321:0000002400000000
#0713a1:0000000000000014
#071371:00000000000000000000000000000034
#072351:24
#072351:00140000
#072381:00000000003400000000000000000000
#0723a1:0000002400000000
#0723a1:0000000000140000
#072371:00000000000000000000003400000000
#072351:00000024
#085361:143400000000005400540000240000000000000000000000000000000000000000000000000000000000000000000000
#085371:005200520052005200520052000000000000000000000000000000000000000000000000000000000000000000000000000000000000000000000000000000000000000000000000000000000000000000000000000000000000000000000000
#085351:000036360000000000000000000000000000000000000000000000000000000000000000000000000000000000000000
#085341:000000003838000038000000000000000000000000000000000000000000000000000000000000000000000000000000
#085331:003a000000000000
#087361:0014
#0873a1:0000000000240000
#088361:14
#088321:0024000000000000
#0883a1:0014
#088361:0000000000540000
#088381:00000026
#088320:00000014
#088360:0000000000000054
#089320:26
#0893a1:14240000
#089351:0054000000000000
#093321:0014
#0933a1:00000024
#0933a0:0014
#093320:00000024
#095380:16260000
#0953c0:0052000000000000
#095321:0000165226000000
#095380:0016
#095320:00000026
#096320:00001426
#096360:0000000000540000
#0963a1:00000014
#096361:0000000000000054
#097381:26
#097320:14240000
#097370:0054000000000000
#097370:0013
#0973b0:0000000000230000
#098360:13
#098320:0023000000000000
#098360:0014
#0983a0:0000000000240000
#099360:14
#099320:0024000000000000
#1003b0:13330000
#100370:0033002300000000
#105320:0014
#105370:0000000000240000
#1053a0:00000014
#105350:0000000000000024
#1063a0:1400343400343434000000000000000000000000000000000000000000000000
#106360:0034000000000000
#106380:00260000
#106321:1434343400343434260000000000000000000000000000000000000000000000
#106361:000000000000000000000000000000000000000000000000005400000000000000000000000000000000000000000000000000000000000000000000000000000000000000000000000000000000000000000000000000000000000000000000000000000000000000000000000000000000000000000000000000000000000000000000000000000000000000000000000000000000000000000000000000000000000000000000000000000000000000000000000000000000000000000000
#110321:0000001600000000
#111381:0000005600000000
#112321:00260000
