This file was generated by Ched 2.7.0.0.
#TITLE ""
#ARTIST ""
#DESIGNER ""
#DIFFICULTY 0
#PLAYLEVEL
#SONGID ""
#WAVE ""
#WAVEOFFSET 0
#JACKET ""
#REQUEST "ticks_per_beat 480"
#00002: 4
#BPM01: 192
#00008: 01
#TIL00: ""
#HISPEED 00
#MEASUREHS 00
#0061a:14
#00614:0014
#0071a:14
#00714:0014
#00818:14
#00812:0014
#00918:14
#00912:0014
#0101a:1414
#01114:1414
#01218:1414
#01312:1414
#0141a:14
#01414:00140000
#01418:0014
#01412:00000014
#01410:41
#0151a:14
#01514:00140000
#01512:00000014
#01518:0014
#02612:14
#02618:00140000
#02614:0014
#0261a:00000014
#02610:41
#02712:14
#02718:00140000
#02714:0014
#0271a:00000014
#01812:14
#0181a:00140000
#01814:0014
#01818:00000014
#01912:14
#0191a:00140000
#01914:0014
#01918:00000014
#0221a:14
#02212:00140000
#02218:0014
#02214:00000014
#0231a:14
#02312:00140000
#02318:0014
#02314:00000014
#0301a:14
#03014:0014
#03212:14
#03218:0014
#0341a:14
#03414:0014
#0361a:14
#03614:00140000
#03618:0014
#03512:00000014
#03918:1414
#03914:00140014
#0401a:1414
#04012:00140014
#04414:00140000
#0441a:14
#04418:0014
#04412:00000014
#04518:14
#04514:00140000
#0451a:0014
#04612:14
#04618:14
#04614:0014
#0461a:0014
#04712:14
#04718:14
#0471a:0014
#04714:0014
#04118:1414
#04114:00140000
#03812:00140014
#0381a:2414
#03810:41
#0481a:1414
#04812:00140014
#04918:1414
#04914:00140000
#0521a:00140000
#05214:14
#05212:0014
#05218:00000014
#0541a:14140000
#05414:00001414
#05410:41
#05518:14
#05512:00140000
#05612:14140000
#05618:00001414
#05714:14
#0571a:00140000
#0581a:14
#05812:0014
#05818:0014
#05814:14
#0591a:00140000
#05912:14
#05914:0014
#05918:00000014
#0601a:14
#06014:14
#06012:0014
#06018:0014
#06812:14
#0681a:00140000
#06814:0014
#06818:00000014
#06912:14
#0691a:00140000
#06914:0014
#06918:00000014
#0751a:00140000
#07512:0014
#07518:00000014
#07614:14
#0761a:00140000
#08518:14
#0851a:00000014
#08512:0024
#0851f:0021
#04218:00140000
#04212:14
#04214:0014
#0421a:00000014
#04314:14
#04318:00140000
#04312:0014
#0501a:00140000
#05014:14
#05012:0014
#05018:00000014
#05114:14
#0511a:00140000
#05112:0014
#05118:00000014
#07914:1414
#08012:14
#07818:14
#0771a:0014
#0771f:11
#08118:1414
#0821a:14
#08312:1414
#08414:14
#08714:14
#08718:00140000
#08712:0014
#0871a:00000014
#08812:14
#0881a:00140000
#08814:0014
#08818:00000014
#09118:00000014
#09112:0014
#0911a:14
#09214:1414
#0921a:00140000
#09218:00000014
#09418:00000014
#09414:0014
#09512:14
#0951a:00140000
#09514:0014
#09518:00000014
#08914:14000014
#0891a:0014
#0861a:00140000
#08618:00000014
#08612:14
#08614:0014
#08610:0041
#09612:14
#0961a:00140000
#09614:0014
#09618:00000014
#09714:14
#09712:00000014
#09718:0014
#09912:00000014
#09918:0014
#0991a:14
#09914:00140000
#1001a:14
#10014:00140000
#09018:1414
#09012:00140000
#09014:00000014
#0981a:14
#09814:00140000
#09818:0014
#09812:00000014
#09312:14
#0931a:0014
#10214:00000014
#1021a:0024
#10318:14
#10312:00140000
#1031a:0014
#10314:00000014
#10418:14
#10412:00140000
#1041a:0014
#10414:00000014
#10518:1414
#10512:00140000
#10514:00000014
#1061a:14
#10618:00000014
#10612:0024
#10714:14
#1071a:00140000
#10712:0014
#10718:00000014
#10814:14
#1081a:00140000
#10812:0014
#10818:00000014
#10914:14
#1091a:00140000
#06112:00240000
#0611a:2424
#10112:0025
#10119:0025
#06718:00343400
#06614:00343400
#07310:0041
#04158:0014
#04958:0014
#05354:0014
#06558:0014
#06354:0014
#07754:14
#0775a:0054
#08052:24
#07954:0054
#07858:24
#0825a:24
#08158:0064
#08454:24
#08352:0064
#0455a:0014
#08954:14
#09754:14
#09352:14
#0935a:0054
#10158:14
#1065a:14
#0023a0:1434
#0033a0:3424
#004320:1434
#005320:34
#005330:00340000
#005340:0024
#0163a0:14
#016380:0034
#0173a0:34
#017380:0024
#020320:14
#020340:0034
#021320:34
#021330:00340000
#021340:0024
#0243a0:14
#024380:0034
#0253a0:34
#025390:00340000
#025380:0024
#028320:14
#028340:0034
#029320:34
#029340:0024
#0313a0:14
#031390:00340000
#031380:0024
#033320:14
#033330:00340000
#033340:0024
#0353a0:14
#035390:00340000
#035380:0024
#036320:0000000000001434
#037320:0024
#053340:14342400
#055380:0014
#0553a0:00000024
#057340:0014
#057320:00000024
#062320:14
#062330:00340034
#062340:0034
#063320:34
#063330:00340000
#063340:0024
#0643a0:14
#064390:00340034
#064380:0034
#0653a0:34
#065390:00340000
#065380:0024
#066320:14
#066340:00343424
#0673a0:14
#067380:00343424
#070340:14000034
#070330:0000003400000000
#071330:0034000000000000
#071340:0024
#071380:00000014
#072390:0034000000000034
#072380:0034
#073380:00240000
#073340:0014
#073330:0000000000000034
#074340:00340000
#074330:0000000000340000
#075340:24
#076340:0014
#077340:24
#0773a0:0014
#078380:54
#0783a0:0024
#079340:0014
#080320:54
#080340:0024
#081380:0014
#0823a0:54
#082380:0024
#083320:0014
#084340:54
#084320:0024
#0933a0:0014
#094380:24
#100380:00001434
#101380:24
#110320:0000001600000000
#112320:0000342400000000
