This file was generated by Ched 2.7.0.0.
#TITLE ""
#ARTIST ""
#DESIGNER ""
#DIFFICULTY 0
#PLAYLEVEL
#SONGID ""
#WAVE ""
#WAVEOFFSET 0
#JACKET ""
#REQUEST "ticks_per_beat 480"
#00002: 4
#BPM01: 115
#BPM02: 130
#BPM03: 128
#BPM04: 133
#BPM05: 138
#BPM06: 229
#BPM07: 112
#00008: 01
#01808: 00000001
#04908: 00000001
#01408: 02
#03008: 00000003
#03308: 00000004
#03608: 00000005
#03908: 00000006
#07008: 0007000000000000
#TIL00: ""
#HISPEED 00
#MEASUREHS 00
#0001a:14
#00014:0014
#00118:14
#00218:0014
#00314:14
#0031a:0014
#00412:14
#00418:0014
#00514:14
#0051a:0014
#00612:1414
#00610:41
#00718:1414
#00814:1414
#0091a:1414
#02012:00140000
#02118:14
#02114:00000014
#0221a:00000014
#02210:00000041
#0231a:00140000
#02314:00000014
#02414:00140000
#02418:00000014
#02518:00140000
#02512:00000014
#02612:00140000
#05012:0014000000000000
#05018:0000000000140000
#0501f:0011000000000000
#05114:0014000000000000
#0511a:0000000000140000
#05414:0014000000000000
#0541a:0000000000140000
#05512:0014000000000000
#05518:0000000000140000
#05818:0000001600000000
#05812:0026000000160000
#0581f:0021000000000000
#05912:0000001600000000
#05918:0026000000160000
#05910:0041000000000000
#06018:0000001600000000
#06012:0026000000160000
#06112:0000001600000000
#06118:0026000000160000
#06218:0000001600000016
#06212:0026000000160000
#06512:0016001600000016
#06518:0000000000160000
#06612:0000001600000016
#06618:0026000000160000
#06918:0016001600000016
#06912:0000000000160000
#01410:0000004100000000
#03110:00410000
#07010:0041000000000000
#001320:0014
#002320:24
#010320:1424
#011380:1424
#012340:1424
#0133a0:140000000000000000000024
#014320:0000001400000000
#015340:34
#015320:0000000000340000
#016340:00240000
#0163a0:0000000000000014
#017380:0034
#0183a0:0034000000000000
#018380:000000000000000000343434
#019380:343434343434240000000000
#0263a0:00000014
#0273a0:00240000
#027340:00000014
#028340:00240000
#028380:00000014
#029380:00240000
#029320:00000014
#030320:000024
#0313a0:00140000
#031380:0000000000000034
#0323a0:0034
#033380:0024000000000000
#033320:00000014
#034340:0034
#035320:00340000
#036340:24
#0363a0:00000014
#037380:0034
#0383a0:00340000
#039380:34
#0393a0:00000034
#0443a0:0034
#0483a0:0024
#052320:0014000000240000
#053380:0014000000240000
#056340:0014000000240000
#0573a0:0014000000240000
#063320:0016003600260000
#064380:0016003600260000
#067380:0016003600260000
#068320:0016003600260000
#070320:0014000000000034
#070340:0034
#071340:00240000
#0713a0:0000000000140000
#072380:34000024
#0723a0:0000003400000000
#073340:0014000000000034
#073320:0034
#074320:00240000
#074380:0000000000140000
#0753a0:34000034
#075380:0000003400000000
#0763a0:00340000000000000000000000000000
#0793a0:0024000000000000
