This file was generated by Ched 2.7.0.0.
#TITLE ""
#ARTIST ""
#DESIGNER ""
#DIFFICULTY 0
#PLAYLEVEL
#SONGID ""
#WAVE ""
#WAVEOFFSET 0
#JACKET ""
#REQUEST "ticks_per_beat 480"
#00002: 4
#BPM01: 115
#BPM02: 130
#BPM03: 128
#BPM04: 133
#BPM05: 138
#BPM06: 229
#BPM07: 112
#00008: 01
#01808: 00000001
#04908: 00000001
#01408: 02
#03008: 00000003
#03308: 00000004
#03608: 00000005
#03908: 00000006
#07008: 0007000000000000
#TIL00: ""
#HISPEED 00
#MEASUREHS 00
#00012:1212
#00014:00120000000000120000000000120000
#00016:00001200000012000000001200000012
#00018:00000012001200001600000000001200
#0001a:00120000
#0001c:00000000000000000000001200000000
#0011a:14000014000014000000000000000000
#00116:00140000001400000000000000000000
#00112:00001400140000140000000000000000
#00212:1313131316131313
#00215:00000013000000000000000000130000
#00218:16000000001300000000001300000000
#0021b:0013131313131313
#0041b:0013131313000000
#00412:1300000016131313
#00418:16
#00615:00130013000013000000000000130000
#00618:13001300001300000000000000001300
#0061b:00000000130000000013000000000013
#00612:00000000000000130000001300000013
#00616:00000000000000000013000000000000
#00617:00000000000000000000001300000000
#00610:41
#0081a:00000000000000000014000000000000
#00816:00001300000000000000140000000014
#00819:00000013000000000000000000000000
#00814:00130000
#00817:00000000001300000000000000000000
#00812:0000001300000023
#00815:00000000000000190000000023000000
#0081b:00000000000000000000002300000000
#00818:00000000000000000000000000230000
#01012:18001400140000001400001800000000
#01016:00000014000014000014000000001300
#0101a:00140000001400140000140000000000
#0101b:0000000000000013
#01218:13000000000000000000000000000013
#01215:00130000000000000000001300001300
#0121b:00001300000000000000001300000000
#01212:00000000000000130000000000130000
#0131b:130000000000000000000000000000130000000000000000000000000000000000000000000000000000000013000000
#01318:000000160000000000000000160000001300000000000000
#01312:130000000000000000160000000000130000000000160000000000160000000013000000000000000000000000000000
#01319:00000013
#0131a:000000000013
#01313:00000013
#01314:000000000013
#01315:000000000000000000000013
#01412:00000000000013130000000000130000
#0141b:0000000000000000000000001300000000000000000000000000000000333333
#01410:0000004100000000
#02212:13000013000023000000001300000000
#02218:000000130000000000000000130000000000000000000000000023000000000000000000000000130000000000130000
#02215:000000000000230000000000000000230000000000002300000000000000000000000000130000000000130000000000
#0221b:0000000000230000
#02210:00000041
#01112:00140000001400140000140000000013
#0111a:0014140014000000
#01116:18000014000014000014001800000000
#01512:1300000000000000000000000000000000333333000013000000000000000000
#0151b:00130000000000130000130000000000
#04912:00000012
#04914:0000000000000012
#05016:12000000001212000000000000000000
#05018:00001200000000000032000000000000
#05015:00000012
#05012:00000000000000000012120000000000
#0501a:0000000000000012
#0501c:00000000003212000000000000000000
#0501f:0011000000000000
#05117:12
#05114:0012000000000000
#0511c:00120000
#05118:00000000000012000012120000000000
#0511a:00000000000000000000000000121200
#05116:00000000120000000032120000000000
#05112:00000000000012000000000000321200
#0521c:00121200000000000000000000000000
#05212:00120000
#05214:0000001200000000
#05216:00320000000000001200000000001200
#05218:0000000000120000
#05318:1200001200001200
#05316:0012000000120000
#05312:1200001200001200
#0531c:0012000000120000
#0531a:0000000000000012
#05314:0000000000000012
#0541c:1212000000000000
#05416:1212000000120000
#05418:00000000001212000000001200000000
#0541a:00000000000000000012000000000000
#05414:0000000000001212
#05412:00000000003200000000000000000000
#07018:00000012000012000000120000120014
#07016:00000000120000120012000012000000
#07014:00000000001200000000000000000000
#07012:1324000014000024
#0701b:13
#0701a:00001400000000002400001200001400
#07010:0041000000000000
#07116:14000014000014000014000012000012
#07114:00140000001400000000000000120000
#07112:0014140000240000
#07118:00000000000000140000001200001200
#0711a:0000240014140000
#00312:1313131316131313
#00315:00000013000000000000000000130000
#00318:16000000001300000000001300000000
#0031b:0013131313131313
#0051b:0013131313000000
#00512:1300000016131313
#00518:16
#00515:00000000000000000000000000000013
#0071b:00130000000000000000000000000000
#00716:00130000000000000000000000000014
#00912:14130000000000000000000000000000
#00917:00130000000000000000000000000000
#0091a:00000000000000000000000000000014
#01615:00130000000000000000000000000000
#01612:0000000000000000130000000000000000000000000000000033333300001300
#01618:00000000000000000000001300000000
#0161b:0000000000333333000013000000000000000000000000000000000013000000
#01715:00000000001300000000000000000000
#01712:0013
#01718:00000000000000000000000000000013
#0171b:0000000000000000000000000033333300001300000000000000000000000000
#0181b:0000000013000000000000000000000000000000003333330000000000000000
#01815:00000000000000000013000000000000
#01812:000000330000330000330000000000000000130000000000000000000000000000000000000000000000000000000000000000000000000000000000000000000000000000000000140000000000000018000000000000001c00000000000000
#01912:14181c14181c130000160000
#01915:00000000000000000013000000000013
#01918:0000000000130013
#0191b:00000000000000000000001300130000
#02012:13
#0201b:13
#02018:00000013000000000000000000000000
#0211b:1313
#02118:00130000160000130000000000000000
#02115:00001300000013000000001300000000
#02112:00000013001300001300000000000000
#02312:13000000001300000000001300130000
#02315:00130000000000000000130000000000
#02318:00001300000000000013000000000000
#0231b:00000013000000130000001300000000
#02317:00000000001300000000000000130000
#02316:00000000000000130000000000000000
#02512:00000019001400230000000000000000
#02516:00130000000014000000001400130000
#02519:13
#0251b:00001300000000000000230000130000
#0251a:00000014
#02518:0023
#02515:00000000000000000023000000000000
#0271a:14000000140000000000000000140000
#02716:00001400001400180000000000000014
#02712:00140014000014000000130018001400
#02717:0000000000130000
#02815:00000013
#02818:00000000000000000000000000130000
#02812:14000000140000180000000000001300
#0281b:00000000000000000000001300000000
#02816:00001400001400000000000000000000
#0281a:00140014000014000000000000000000
#0291b:00000013000000000013000013000000
#02912:00000000000000130000000013001600
#02915:00000000000000000000001300000000
#02918:00000000000000130000130000000016
#03012:00130000160000000000000000000000
#03018:000000000000000000160000000000160000000000000000000000000000000013000000000000000000000000000000
#03015:000000000013000000000000
#03014:0013
#03013:000000000000001300000000
#0301b:000000130000000000000000000000000000000013000000000000000000000000000000000000000000000000000000
#0301a:0013
#03019:000000000000001300000000
#02616:00000000000000000000000018000014
#02612:00000000000000000000001400140000
#0261a:0000000000000014
#02416:00000000000000000000001400000000
#02417:0000000000000013
#02414:00000000000000000000000000000013
#0311b:0000000000000000130000000000000000000000000000000033333300001300
#03112:00000000001300000000001300001300
#03110:00410000
#0321b:00000000001300001300000000000000
#03215:00000000000000000000000000000013
#03212:0000000000000000000000000033333300001300000000000000000000000000
#03312:000000000000000000000000130000000000000000000000000000000000000000000000000000000000000000000000000000000000000000000000000000330000330000330000000000000000000000000000000000001600000000000000
#03318:00000000000000000013000026000000
#0331b:0033333300001300000000000000000000000000000000000000000000000000
#03315:000000000016
#03415:001600001600000016000016
#03412:000016000016001600001600
#03418:26262626
#03512:001600260000260000260000
#03515:000016001600001600001600
#03518:260000160016000016000016
#03618:001600001600001600260000
#03615:000016000016000016001616
#03612:26262616
#03715:001616001616001616001616
#03712:2626
#03718:00260026
#03815:001616000016000016000016
#03812:2600002c16002c00002c1600
#03818:000000000000001600000000
#03918:001600000000001600000000
#03915:000016000016000016000000
#03912:2c00000000000000000000002c00000016000000000000002c0000000000000000000000000000000000000000340000
#05517:12
#0551a:0012000000000000
#05512:00120000
#05516:00000000000012000012120000000000
#05515:00000012
#05514:0000000000000012
#05518:00000000120000000032120000000000
#0551c:0000001200003212
#05613:12
#05612:0012000000000000
#0561c:00120000
#0561a:0000001200000000
#05618:3200000012000012
#05616:0000000000120000
#05716:1200001200001200
#05718:0012000000120000
#0571c:1200001200001200
#05712:0012000000120000
#05714:0000000000000012
#0571a:0000000000000012
#05812:12000000001300130000130000000013
#05818:12000013000016000013000000000000
#0581b:00001300000000000000130000130000
#05815:00131300
#05816:00000000000000000000000000130000
#0581f:0021000000000000
#05915:13000013
#05918:00130000000000000000001300160000
#05912:00000000000000000000000000130000
#0591b:00000000000000000000000000000013
#05910:0041000000000000
#06018:13131300
#06015:00130013000000000013000000000000
#06012:00001300000016000000130000130000
#0601b:00000000001300130000130000000013
#06017:00000000000000000000000000130000
#06118:13
#06115:00130000000000000000000000000000
#0611b:00000013
#06116:00000013
#06119:0000000000000013
#06114:0000000000000013
#06217:13000000003300000000000000000000
#06212:13000000001313000000000013000000
#06216:0013000000000013
#0621b:00001300000000000013000000001300
#06215:0000000000130000
#06218:00000000000000000000001300000000
#06317:13000000000013000000000000331300
#0631b:00001300000000000033130000000000
#06312:13000000000013000000000000131300
#06319:00130000
#06314:00130000
#06316:00000000000000000013130000000000
#06416:00131300000000001300000000000000
#06412:0000130000130000
#06417:0000130000130000
#06414:0000001300000000
#06419:0000001300000000
#0641b:00330000000000001300000000000000
#06512:1313000000130000
#0651b:1313000000130000
#06518:0000001300000000
#06515:0000001300000000
#06516:00000014
#06519:0000000000000013
#06514:0000000000000013
#0661b:13000000001313000000000013000000
#06612:13001300000000000013000000001300
#06617:0013000000000013
#06618:0000000000130000
#06615:00000000000000000000001300000000
#06616:00000000003300000000000000000000
#06716:13000000000013000000000000331300
#06712:00001300000000000033130000000000
#0671b:1300001300001300
#06714:00130000
#06719:00130000
#06717:00000000000000000013130000000000
#0671a:0000000000000013
#06819:1300001300000000
#06818:0013000000000000
#0681b:0000130000130000
#06816:0000130000130000
#06814:0000001300000000
#06817:0013
#06812:00330000000000001300000000000000
#0691b:1313000000130000
#06912:1313000000130000
#06915:0000001300000000
#06918:0000001300000000
#06916:00000014
#06914:0000000000000013
#06919:0000000000000013
#07212:1400002400141400
#07218:00001200001200140000000000000014
#07216:00120000120000001400001400001400
#07214:00000000000000000014000000140000
#0721a:24000012000014000000000024000000
#0731a:14001400000000002400001200001400
#07316:00140000120000120012000012000000
#07318:00000012000012000000120000120014
#07314:00000000001200000000000000000000
#07312:0024000014000024
#07416:14000014000014000014000012000012
#07414:00140000001400000000000000120000
#07412:0014140000240000
#07418:00000000000000140000001200001200
#0741a:0000240014140000
#07512:1400002400141400
#07518:00001200001200140000000000000014
#07516:00120000120000001400001400001400
#07514:00000000000000000014000000140000
#0751a:24000012000014000000000024000000
#0761a:14
#07612:00260000000000000000000000000000
#04012:0000000000000000000000000000000000003400000000000000000000000000000000000000000000003400000000000000000000000000000000000000000034000000000000000000000000000000000000003400000000000000000000000000000000003400000000000000000000000000000000000000003400000000
#04112:000000000000000000000000000000000000000000000000000000000000000000000000000000000000000000000000000000000000340000000000000000000000000000000000000000000000000000000000000000000000000000000000000000000000000000000000000000000000000000003400000000000000000000000000000000000000000000000000000000000000000000000000000000000000000000000000000000000000340000000000000000000000000000000000000000000000000000000000000000000000000000000000000000000000340000000000000000000000000000000000000000000000000000000000000000000000000000000000000000000000000000000000000000340000000000000000000000000000000000000000000000000000000000000000000000000000000000000000000000000000000000000000000000340000000000000000000000000000000000000000000000000000000000000000000000000000000000000000
#04212:0000000000340000000000000000000000000000003400000000000000000000000000000000340000000000000000000000000000000034000000000000000000000000000000000000000000000000000000000000000000000000000000000000000000000000000000000000000000000000000000000000000000000000
#01052:18000000140000000000001800000000
#01252:00000000000000130000000000000000
#01258:00000000000000130000000000000000
#00258:16
#00252:0016
#05058:0052000000000000
#0505c:0000005200000000
#05258:0000000000520000
#05356:0052000000000000
#05352:0000005200000000
#0535c:0052000000000000
#05358:0000005200000000
#00358:16
#00352:0016
#00458:16
#00452:0016
#00558:16
#00552:0016
#0075b:00530000000000000000000000000000
#00756:00530000000000000000000000000000
#00952:00630000000000000000000000000000
#00957:00630000000000000000000000000000
#01156:18000000000000000000001800000000
#0115a:00140000
#02756:00000000000000180000000000000000
#0275a:14
#02752:00000018
#0295b:00000013000000000000000000000000
#02955:00000013000000000000000000000000
#02656:00000018
#02352:00000000000000000000000000630000
#02357:00000000000000000000000000630000
#0255b:00000000000000000000000000530000
#02556:00000000000000000000000000530000
#02852:14000000000000180000000000000000
#05152:0000005200000052
#05156:0000000000520000
#05456:0062000000000000
#05656:0000000000620000
#05758:0062000000000000
#0575c:0000006200000000
#05752:0062000000000000
#05756:0000006200000000
#0555c:0000006200000062
#05558:0000000000620000
#06252:0000005300005300
#0625b:0053000000000000
#06256:0000000000000053
#06352:53
#06357:0000005300000053
#0635b:0000000000530000
#06452:0000000000530000
#06457:0000000000530000
#0655b:0053000000000000
#06558:0000005300000000
#06555:0000005300000000
#06552:0053000000000000
#0665b:0000005300006300
#06652:0063000000000000
#06657:0000000000000063
#0675b:63
#06756:0000006300000063
#06752:0000000000630000
#0685b:0000000000630000
#06856:0000000000630000
#06952:0063000000000000
#06955:0000006300000000
#06958:0000006300000000
#0695b:0063000000000000
#0225b:0000000000130000
#0705a:0014
#07052:0014000000000014
#0715a:00140000
#07152:0000000000140000
#0725a:14000014
#07252:0000001400000000
#0735a:0014
#07352:0014000000000014
#0745a:00140000
#07452:0000000000140000
#0755a:14000014
#07552:0000001400000000
#001370:0000000012000022
#004320:0014342400000000
#004350:00000034003400000000000000000000
#0043a0:0000000000143424
#004370:00000000000000000000003400340000
#005320:0014342400000000
#005350:00000034003400000000000000000000
#0053a0:0000000000143424
#005370:00000000000000000000003400340000
#007360:00130000000000000000000000000000
#007320:0000000000000023
#0073b1:00130000000000000000000000000000
#007371:0000000000000023
#0083b1:1323000000000000
#009371:00130000000000000000000000000000
#0093b1:00000023
#009320:00130000000000000000000000000000
#009360:00000023
#012320:00000013000000000000000000000000
#012350:0000000000000053000023000000000000000000000000000000000000000000
#0123b1:00000000001300000000000000000000
#012381:0000000000000000000000530000230000000000000000000000000000000000
#0143b1:00000000000000130023000000000000
#014350:00000000000000000013002300000000
#014381:00000000000000000000001300230000
#014381:0000000000000013
#0143b1:0000000000000000000000000000000000000000000000000000000000333333
#0153b1:23
#015321:00130023000000000000000000000000
#015380:00000013002300000000000000000000
#015351:00000000001300230000000000000000
#015351:0013
#015321:0000000000000000000000000000000000333333230000000000000000000000
#015381:00000000000000000000001300230000
#015350:00000000000000000000000000130023
#0153b1:00000000000000000000000000000013
#0163b1:00230000000000000000000000000000
#016381:0013000000000000
#0163b1:0000000000333333230000000000000000000000000000000000000000000000
#016351:00000000001300230000000000000000
#016380:00000000000000130023000000000000
#016321:00000000000000000013002300000000
#016351:00000013
#016321:0000000000000000000000000000000000000000000000000033333323000000
#016381:00000000000000000000000000000013
#0173b1:00230000000000000000000000000000
#017350:00130000000000000000000000000000
#017320:00000023000000000000000000000000
#0173b1:00000013000000000000000000000000
#017381:00000000002300000000000000000000
#017381:0000001300000000
#0173b1:0000000000000000000000000033333323000000000000000000000000000000
#017351:00000000000000000013000000000000
#017321:00000000000000000000002300000000
#017380:00000000000000000000001300000000
#0173b0:00000000000000000000000000230000
#017321:00000000000000000000000000130000
#017351:00000000000000000000000000000023
#018351:13
#018321:0033333323000000000000000000000000000000000000000000000000000000
#018381:00000013000000000000000000000000
#0183b1:00000000002300000000000000000000
#018350:00000000001300000000000000000000
#018320:00000000000000230000000000000000
#0183b1:00000000000000130000000000000000
#018381:00000000000000000023000000000000
#018381:0000000000130000
#0183b1:0000000000000000000000000000000000000000003333332300000000000000
#020321:00130000
#020331:00000000000000000000000000000000005300003300000000000000000000000000000000000000000000000000000000000000000000000000000000000000
#020341:00000000000000000000000000000000000000000053000033000000000000000000000000000000000000000000000000000000000000000000000000000000
#020351:00000000000000000000000000000000000000000000000000530000330000000000000000000000000000000000000000000000000000000000000000000000
#020361:00000000000000000000000000000000000000000000000000000000005300002300000000000000000000000000000000000000000000000000000000000000
#0203b0:0013
#0203a0:00000000000000000000000000000000000000000000000000000000000000000053000033000000000000000000000000000000000000000000000000000000
#020390:00000000000000000000000000000000000000000000000000000000000000000000000000530000330000000000000000000000000000000000000000000000
#020380:00000000000000000000000000000000000000000000000000000000000000000000000000000000005300003300000000000000000000000000000000000000
#020370:00000000000000000000000000000000000000000000000000000000000000000000000000000000000000000053000023000000000000000000000000000000
#020321:00000013
#020331:00000000000000000000000000000000000000000000000000000000000000000000000000000000000000000000000000530000330000000000000000000000
#020341:00000000000000000000000000000000000000000000000000000000000000000000000000000000000000000000000000000000005300003300000000000000
#020351:00000000000000000000000000000000000000000000000000000000000000000000000000000000000000000000000000000000000000000053000033000000
#020361:00000000000000000000000000000000000000000000000000000000000000000000000000000000000000000000000000000000000000000000000000530000
#021361:23
#0213b1:00000013
#0213a1:00000000000000000000000000000000000000000000000000000000000000000000000000000000000000000000000000530000330000000000000000000000
#021391:00000000000000000000000000000000000000000000000000000000000000000000000000000000000000000000000000000000005300003300000000000000
#021381:00000000000000000000000000000000000000000000000000000000000000000000000000000000000000000000000000000000000000000053000033000000
#021371:00000000000000000000000000000000000000000000000000000000000000000000000000000000000000000000000000000000000000000000000000530000
#022371:23
#023371:00000000000000000000000000130000
#0243b1:0000000000230000
#023320:00000000000000000000000000130000
#024360:0000000000230000
#024320:0000000000001323
#025360:00000000000000000000000000130000
#026320:0000000000230000
#0253b1:00000000000000000000000000130000
#026371:0000000000230000
#0283b1:00000000000000000000000000000013
#028381:0000000000000000000000000000000000000000000000000000000000000053
#029381:00230000000000000000000000000000
#029320:00130000000000000000000000000000
#029350:0000005300002300000000000000000000000000000000000000000000000000
#030320:000013
#031320:00230000
#0313b0:00000000001300230000000000000000
#031351:00000000000000130023000000000000
#031380:00000000000000000013002300000000
#031380:00000013
#0313b0:0000000000000000000000000000000000000000000000000033333323000000
#031320:00000000000000000000000000000013
#032320:00230000000000000000000000000000
#032381:00130023000000000000000000000000
#032350:00000013002300000000000000000000
#032350:0000001300000000
#032320:0000000000000000000000000033333323000000000000000000000000000000
#032380:00000000000000000013002300000000
#032351:00000000000000000000001300230000
#0323b0:00000000000000000000000000130023
#033380:13
#0333b0:0033333323000000000000000000000000000000000000000000000000000000
#033350:00000013002300000000000000000000
#033381:00000000001300230000000000000000
#033320:00000000000000130023000000000000
#033350:0000000000130000
#033320:0000000000000000000000000000000000000000003333332300000000000000
#039320:0000000000000000000000001c000034
#040320:0000000000000000000000000000000000003400000000000000000000000000000000000000000000003400000000000000000000000000000000000000000034000000000000000000000000000000000000003400000000000000000000000000000000003400000000000000000000000000000000000000003400000000
#041320:000000000000000000000000000000000000000000000000000000000000000000000000000000000000000000000000000000000000340000000000000000000000000000000000000000000000000000000000000000000000000000000000000000000000000000000000000000000000000000003400000000000000000000000000000000000000000000000000000000000000000000000000000000000000000000000000000000000000340000000000000000000000000000000000000000000000000000000000000000000000000000000000000000000000340000000000000000000000000000000000000000000000000000000000000000000000000000000000000000000000000000000000000000340000000000000000000000000000000000000000000000000000000000000000000000000000000000000000000000000000000000000000000000340000000000000000000000000000000000000000000000000000000000000000000000000000000000000000
#042320:0000000000340000000000000000000000000000003400000000000000000000000000000000340000000000000000000000000000000034000000000000000000000000000034000000000000000000540000000000000057000000000000005400000000000000570000000000000054000000000000005700000000000000
#043320:54575457545754575457545754575457
#044320:54575457545754575400000000000000
#044330:000000000000000000000000000000000000000000000000000000000000000000000000000000000000000000000000000000000000000000000000000000000000000000000000000000000000000000000000000000000000000000000000000000000000000000000000000000000000000000000000000000000000000000000000000000000000000000000000000000000000000000000000000000000000000000000000000000000000000000000000000000000000000000000000000000000000000000000000000000000000000000000000000000000000000000000000000000000000000000000000005300000000000000000000000000000000000000000000000000000000000000000000000000000000000000000000000000000000000000000000000000000000000000000000000000000000000000000000000000000000000000000000000000000000000000000000000000000000000000000000000000000000000000000000000000000000000000000000000000000000000000000000000000000000000000000000000000000000000000000000000000000000000000000000000000000000000000000000000000000000000000000000000000000000000000000000000000000000000000000000
#048320:0022
#0423a1:00000000000000000000000000000000000000000000000000000000000000000000001400000000000000005400000000000000540000000000000054000000
#042371:0000000000575757
#043371:5757575757575757
#0433a1:00540054005400540054005400540054
#044371:5757575757000000
#0443a1:000000000000000000000000000000000000000000000000000000000000540000000000000000000000000000000000000000000000000000000000000000000000000000000000000000000000000000000000000000000000540000000000000000000000000000000000000000000000000000000000000000000000000000000000000000000000000000000000000000000000540000000000000000000000000000000000000000000000000000000000000000000000000000000000000000000000000000000000000000000000540000000000000000000000000000000000000000000000000000000000005300000000000000000000000000000000000000000000000000000000000000000000000000000000000000000000000000000000000000000000000000000000000000000000000000000000000000000000000000000000000000000000000000000000000000000000000000000000000000000000000000000000000000000000000000000000000000000000000000000000000000000000000000000000000000000000000000000000000000000000000000000000000000000000000000000000000000000000000000000000000000000000000000000000000000000000000000000000000000000000
#0483c1:0022
#050381:00001200000000000032220000000000
#0503c1:00000000003232000000000000000000
#051321:00000000000012000000000000323200
#051361:00000000000000000032320000000000
#052361:00322200000000000000000000000000
#052381:0000000000120000
#0523c1:0000000000000022
#053361:0012000000000000
#053321:00000000002200000000000000000000
#0533c0:0012000000000000
#053380:00000000002200000000000000000000
#053320:0000001200000000
#053360:00000000000000000022000000000000
#053381:0000001200000000
#0533c1:00000000000000000022000000000000
#054361:0012000000000000
#054321:00000000003222000000000000000000
#0553c1:0000001200003232
#055381:00000000000000000032320000000000
#056381:3222000000000000
#056361:0000000000120000
#056321:0000000000000022
#057381:0012000000000000
#0573c1:00000000002200000000000000000000
#057320:0012000000000000
#057360:00000000002200000000000000000000
#0573c0:0000001200000000
#057380:00000000000000000022000000000000
#057361:0000001200000000
#057321:00000000000000000022000000000000
#059361:00000000000000001300000000000000000000000000000000000000000000000000000000530000230000000000000000000000000000000000000000000000
#059351:00000000000000000053000033000000000000000000000000000000000000000053000033000000000000000000000000000000000000000000000000000000
#059341:00000000000000000000000000530000330000000000000000000000005300003300000000000000000000000000000000000000000000000000000000000000
#059331:00000000000000000000000000000000005300003300000000530000330000000000000000000000000000000000000000000000000000000000000000000000
#059321:00000000000000000000000000000000000000000053000033000000000000000000000000000000000000000000000000000000000000000000000000000000
#0593b0:00000000000000001300000000000000000000000000000000000000000000000000000000530000230000000000000000000000000000000000000000000000
#0593a0:00000000000000000053000033000000000000000000000000000000000000000053000033000000000000000000000000000000000000000000000000000000
#059390:00000000000000000000000000530000330000000000000000000000005300003300000000000000000000000000000000000000000000000000000000000000
#059380:00000000000000000000000000000000005300003300000000530000330000000000000000000000000000000000000000000000000000000000000000000000
#059370:00000000000000000000000000000000000000000053000033000000000000000000000000000000000000000000000000000000000000000000000000000000
#061370:00000000000000001300000000000000000000000000000000000000000000000000000000530000230000000000000000000000000000000000000000000000
#061380:00000000000000000053000033000000000000000000000000000000000000000053000033000000000000000000000000000000000000000000000000000000
#061390:00000000000000000000000000530000330000000000000000000000005300003300000000000000000000000000000000000000000000000000000000000000
#0613a0:00000000000000000000000000000000005300003300000000530000330000000000000000000000000000000000000000000000000000000000000000000000
#0613b0:00000000000000000000000000000000000000000053000033000000000000000000000000000000000000000000000000000000000000000000000000000000
#061321:00000000000000001300000000000000000000000000000000000000000000000000000000530000230000000000000000000000000000000000000000000000
#061331:00000000000000000053000033000000000000000000000000000000000000000053000033000000000000000000000000000000000000000000000000000000
#061341:00000000000000000000000000530000330000000000000000000000005300003300000000000000000000000000000000000000000000000000000000000000
#061351:00000000000000000000000000000000005300003300000000530000330000000000000000000000000000000000000000000000000000000000000000000000
#061361:00000000000000000000000000000000000000000053000033000000000000000000000000000000000000000000000000000000000000000000000000000000
#0623b1:0013000000000000
#062371:00000000003323000000000000000000
#062320:0000001300000000
#062360:00000000000000000023000000000000
#062320:00000013
#062360:0000000000000033
#063320:33
#063360:0023000000000000
#063370:00000000000013000000000000333300
#0633b0:00000000000000000033330000000000
#0643b0:00332300000000000000000000000000
#064320:0000000000130000
#064360:0000000000000023
#064371:0000000000130000
#0643b1:0000000000000023
#0653b1:0013000000000000
#065381:00000000002300000000000000000000
#065320:0013000000000000
#065350:00000000002300000000000000000000
#065380:0000001300000000
#0653b0:00000000000000000023000000000000
#065351:0000001300000000
#065321:00000000000000000023000000000000
#066321:0013000000000000
#066361:00000000003323000000000000000000
#0663b0:0000001300000000
#066370:00000000000000000023000000000000
#0663b0:00000013
#066370:0000000000000033
#0673b0:33
#067370:0023000000000000
#067360:00000000000013000000000000333300
#067320:00000000000000000033330000000000
#068320:00332300000000000000000000000000
#0683b0:0000000000130000
#068370:0000000000000023
#068361:0000000000130000
#068321:0000000000000023
#069321:0013000000000000
#069351:00000000002300000000000000000000
#0693b0:0013000000000000
#069380:00000000002300000000000000000000
#069350:0000001300000000
#069320:00000000000000000023000000000000
#069381:0000001300000000
#0693b1:00000000000000000023000000000000
#076321:0000160056000000000000000000005656000000000000000000005656000000
#076341:0000000000565600000000000056560000565600000000000056560000565600
#076361:0000000000000056560000565600000000000056560000565600000000000056
#076381:0000000000000000005656000000000000000000005656000000000000000000
#077361:5600005656000000000000565600005656000000000000565600005656000000
#077381:0056560000000000000000000056560000000000000000000056560000000000
#077341:0000000000565600005656000000000000565600005656000000000000565600
#077321:0000000000000056560000000000000000000056560000000000000000000056
#078321:5600000000000000000000565600000000000000000000565600000000000000
#078341:0056560000000000005656000056560000000000005656000056560000000000
#078361:0000005656000056560000000000005656000056560000000000005656000056
#078381:0000000000565600000000000000000000565600000000000000000000565600
#079361:56
#079341:0056560000000000000000000000000000000000000000000000000000000000
#079321:0000005626000000000000000000000000000000000000000000000000000000
