This file was generated by Ched 2.7.0.0.
#TITLE ""
#ARTIST ""
#DESIGNER ""
#DIFFICULTY 0
#PLAYLEVEL
#SONGID ""
#WAVE ""
#WAVEOFFSET 0
#JACKET ""
#REQUEST "ticks_per_beat 480"
#00002: 4
#BPM01: 115
#BPM02: 130
#BPM03: 128
#BPM04: 133
#BPM05: 138
#BPM06: 229
#BPM07: 112
#00008: 01
#01808: 00000001
#04908: 00000001
#01408: 02
#03008: 00000003
#03308: 00000004
#03608: 00000005
#03908: 00000006
#07008: 0007000000000000
#TIL00: ""
#HISPEED 00
#MEASUREHS 00
#00214:00000013000000000000000000130000
#00216:00000000001300000000001300000000
#0021b:0013131300131313
#00212:0014
#00618:00130013000000000013000000130000
#00615:1313000000000013
#00612:00000000003333000000001300000000
#0061b:00000000000000000000000000000013
#00610:41
#00815:13000013000000000013000000230000
#00818:0013000000132300
#00812:00000000000000000000002300000014
#0081b:00000000003333000000000000002300
#01014:1400000014140000
#01018:00000014000000000014001600000000
#01012:00140000
#0101b:0000000000000013
#0101a:00000000000000140000000000000000
#01019:00140000001400000000000000000000
#01013:0014001400000000
#01015:0000000000000013
#01215:13000000000000000000001300003333
#01218:00130000001300000000000000130000
#0121b:00000013000000000000001300003333
#01212:00001300000000000000000000130000
#01318:000000000000130000000000000000160000000000000000130000000000000000000000340000003400000000000000
#01315:00000013000000130013000000000000
#01312:000000000000000000343400
#02215:00000013000000000000000000130013
#02212:000000130000000000000000000000230000000000003300000033000000000000000000000000000000000000000000
#02218:0023000000001313
#0221b:00130000
#02210:00000041
#0111b:00000000000000000000000000000013
#01118:1400000014140000
#01114:00000014000000000014000000000000
#01112:00000000000000140000001600000000
#0111a:00140000
#01113:00140000001400000000000000000000
#01119:0014001400000000
#04912:00000013
#04915:0000000000000013
#05018:13000000003313000000000000001300
#05015:00000013
#0501b:00001300000000000033000000000000
#0501f:0011000000000000
#05112:13000000000000000033130000000000
#0511b:0013000000000000
#05118:00130000
#05115:00000000000013000000000000331300
#0521b:00130000
#05212:00330000000013000000000000000000
#05215:0013
#05218:0000000000130000
#05318:13000000003313000000000000000000
#05312:13000000003313000000000013000000
#0531b:00001300000000000033000000000000
#05315:00001300000000000033000000001300
#07017:00000013000000000000000000002400
#07014:00130000
#07019:00000000001300000000000000000000
#07016:0000001300130000
#0701b:00000000000000130013000000000000
#07012:00002400000000002400000000130014
#07015:13
#07010:0041000000000000
#07118:1414
#07113:00140000000000140000000000000000
#07119:0014001400001300
#07112:00000000000000000014000000000013
#07114:00000014001400000000000000130000
#07116:00000000000000000000001300000000
#07117:0000000000000013
#0711a:0000240000240000
#0031a:1414
#00319:00000013000000000000000000130000
#00317:00000000001300000000001300000000
#00312:0013131300131313
#00412:1414
#0041a:00000034003400000000003400340000
#00518:00000000000000000000000000000013
#0051a:1414
#00512:00000034003400000000003400340000
#00715:00140000000000000000000000000000
#0071b:00000000000000000000000000000013
#00916:14
#00912:00140000000000000000000000000000
#0091a:00000000000000000000000000000014
#0191b:0013
#01915:00000000000000000013000000000013
#01918:160000001600000016000000000000130000160000130000
#01912:000000001600000000000000160000000000000016000000000000000000000000130000000000130000000000000000
#0201b:13
#02018:00000013000000000000000000000000
#02012:00000000003333330033333300333333
#05415:00000000000000000013001300001300
#05418:13000000003300000000130013000000
#0541b:0013000000000000
#05518:1300001300003313
#05512:0013000000000000
#05515:00130000
#0551b:00000000000000000033130000000000
#06218:00000000000000000013001300000000
#0621b:0000000000000013
#0621a:14
#06212:0013000000000000
#06215:00000000003300000000130013000000
#06315:13
#06318:00001300000013000000000000331300
#06312:00130000
#0631b:00000000000000000033130000000000
#06412:00130000
#06415:0000001300000000
#06418:0013
#0641b:00330000000000000000130000000000
#06512:00000013
#06515:1300000000000013
#06518:00001300000000000033000000000000
#0651b:00000000003313000000000000000000
#06618:13000000003300000000130013000000
#06615:00000000000000000013001300000000
#06612:0000000000000013
#0661b:0013000000000000
#00012:1313
#00018:00130000000000130000000000130013
#00015:00001300130013000000001300001300
#0001b:00000013001300000000001300000000
#00112:14
#00118:00140000000000140000000000000000
#00114:0014001400000000
#0011a:00000014001400000000000000000000
#00116:00140000
#01812:000000000000000000160016
#01818:000000000016
#02118:00130000000000130000000000000000
#02115:00001300000013000000001300000000
#0211b:00000013001300000000000000333333
#02112:00161300
#02315:00000000001300000013000000000000
#0231b:00333300000000130000000000000000
#02318:0000000000130000
#02317:00000000000000000000000000140000
#02312:00000000000000000000001300000000
#02518:00000000001300000023000000000000
#02515:0000001323000000
#0251a:00000000000000000000001400140000
#02516:00000014
#0251b:00000000000000230000000000000000
#02512:00333300000000000000230000000000
#02718:00000000140014000000130000000014
#02714:00000000001400000000000014000000
#02712:00000014000000160000130000000000
#0271a:14
#02713:00140000000000000000000000001400
#02719:00001400000000000000000000140000
#02818:00000000001400160000000013000000
#02815:00000000000000000000000000130000
#02812:14000000000000000000001300000013
#02814:0000141400000000
#0281a:00000014000000000000000000000000
#02819:00140000000000000000000000000000
#02813:0014000000000000
#0281b:0000000000000013
#02912:00000000000000130000333300000000
#02915:00130000000000000013000000001300
#02918:00000000000000130000333300000013
#0291b:00000000000000000013000000000000
#03012:00160000000000000000000000000000
#03018:00000013001300000000000000000000
#03015:00130000
#03014:000000000000343400000000
#0301a:000000000000343400000000
#02618:00000014
#02612:00000000000000000000001400000000
#02613:00000000000000000000000000140000
#02619:0000000000000014
#02614:00000000000000000000000000000014
#02412:00000000000000000000001300000000
#02415:0000000000000013
#02418:00000000000000000000000013000013
#03316:0000000000000014
#0331a:00000024
#03412:0014000024002400
#03416:0000001400140000
#0341a:2400240000000014
#03516:0014001400000014
#03512:2400000000140000
#0351a:00242424
#03616:0014000000140000
#0361a:0000001400000000
#03615:0000000000000016
#03618:00000026
#03612:24242400
#03715:0016001600160016
#03712:2626
#03718:00260026
#03815:0016001600160016
#03812:2626
#03818:00260026
#03915:0016001600160000
#03912:2626
#03918:00260000
#0391b:00000000000000000000000000000033
#05612:00130000
#0561b:3300001300000000
#05618:0013
#05615:0000000000130000
#05715:13000000003313000000000000000000
#0571b:13000000003313000000000013000000
#05712:00001300000000000033000000000000
#05718:00001300000000000033000000001300
#05815:13000000130013001300000000130000
#05812:0013000000130000
#05818:00000013000000000013000000000013
#0581b:00000000001300130000000000130000
#0581f:0021000000000000
#05915:13
#05918:00130014000000000014000000000000
#05912:0014000000000000
#05914:00141400
#0591a:00000000001400140000000000000000
#05916:00000000000014000000003434000000
#05910:0041000000000000
#0601b:0013000000130000
#06015:00000013000000000013000000000013
#06018:00000000130013001300000000130000
#06012:00000000001300130000000000130000
#06014:34
#06118:13141400
#06115:00130000000000000000000000000000
#0611a:0014000000140000
#06114:00000014000000000014000000000000
#06112:00000000001400140000000014000000
#06116:0000001400000014
#06718:13
#06715:0013001300003313
#0671b:00130000
#06712:00000000000000000033130000000000
#0681b:00130000
#06818:0000001300000000
#06815:0013
#06812:3300000000130000
#06918:1300000000000013
#06915:00001300000000000033000000000000
#06912:00000000003313000000000000000000
#0691b:00000013
#0721a:24000000000000140000000000000000
#07214:0014
#07219:00000000000000000014000000000014
#07213:0000000000140014
#0721b:00000000001300000000000000000000
#07212:00130000000000000000000024000000
#07217:0013000000000000
#07218:00000000000000000000001400140000
#07215:0000002400000000
#07314:14130000
#0731a:00140000000000000000000000000000
#07317:00000013000000000000000000002400
#07319:00000000001300000000000000000000
#07316:0000001300130000
#0731b:00000000000000130013000000000000
#07312:00002400000000002400000000130014
#07418:1414
#07413:00140000000000140000000000000000
#07419:0014001400001300
#07412:00000000000000000014000000000013
#07414:00000014001400000000000000130000
#07416:00000000000000000000001300000000
#07417:0000000000000013
#0741a:0000240000240000
#0751a:24000000000000140000000000000000
#07514:0014
#07519:00000000000000000014000000000014
#07513:0000000000140014
#0751b:00000000001300000000000000000000
#07512:00130000000000000000000024000000
#07517:0013000000000000
#07518:00000000000000000000001400140000
#07515:0000002400000000
#07614:14
#07618:00260000000000000000000000000000
#0401b:0000000000000000000000000000000000003300000000000000000000000000000000000000000000003300000000000000000000000000000000000000000033000000000000000000000000000000000000003300000000000000000000000000000000003300000000000000000000000000000000000000003300000000
#0411b:000000000000000000000000000000000000000000000000000000000000000000000000000000000000000000000000000000000000330000000000000000000000000000000000000000000000000000000000000000000000000000000000000000000000000000000000000000000000000000003300000000000000000000000000000000000000000000000000000000000000000000000000000000000000000000000000000000000000330000000000000000000000000000000000000000000000000000000000000000000000000000000000000000000000330000000000000000000000000000000000000000000000000000000000000000000000000000000000000000000000000000000000000000330000000000000000000000000000000000000000000000000000000000000000000000000000000000000000000000000000000000000000000000330000000000000000000000000000000000000000000000000000000000000000000000000000000000000000
#0421b:0000000000330000000000000000000000000000003300000000000000000000000000000000330000000000000000000000000000000033000000000000000000000000000000000000000000000000000000000000000000000000000000000000000000000000000000000000000000000000000000000000000000000000
#01410:0000004100000000
#03110:00410000
#01058:00000000000000000000001600000000
#05258:0000000000530000
#00252:1414
#0035a:1414
#00452:1414
#00755:00540000000000000000000000000000
#00952:00640000000000000000000000000000
#0055a:1414
#01152:00000000000000000000001600000000
#0125b:00000053000000130000000000000000
#01258:00000000005300000000000000530000
#01252:00000000000000000000000000530000
#02752:00000000000000160000000000000000
#02357:00000000000000000000000000640000
#0255a:00000000000000000000000000540000
#02858:00000000000000160000000000000000
#02852:00000000000000000000000000000063
#02955:00630000000000000063000000000000
#0295b:00000000000000000063000000000000
#02952:00000013000000000000000000000000
#0505b:0053000000000000
#05058:0000005300000000
#05155:0000005300000053
#05152:0000000000530000
#0535b:0063000000000000
#05355:0063000000000000
#05352:0000005300000000
#05358:0000005300000000
#0545b:0053000000000000
#05655:0000000000630000
#05558:0000006300000063
#0555b:0000000000630000
#05752:0053000000000000
#05758:0053000000000000
#0575b:0000006300000000
#05755:0000006300000000
#06252:0053000000000000
#06358:0000005300000053
#0635b:0000000000530000
#0645b:0000000000530000
#06558:0053000000000000
#0655b:0000005300000000
#0665b:0063000000000000
#06755:0000006300000063
#06752:0000000000630000
#06852:0000000000630000
#06955:0053000000000000
#06952:0000005300000000
#02256:0000000000130000
#001320:0014
#002320:24
#0043a0:00001434003424000000000000000000
#004360:00340000
#0043a0:00000000000000000000143400342400
#004360:00000034
#005320:00001434003424000000000000000000
#005360:00340000
#005320:00000000000000000000143400342400
#005360:00000034
#006320:00000000133333000000000000000000
#006350:00000000000000230000000000000000
#007350:00140000000000000000000000000000
#007320:0000000000000024
#0083b0:00000000133333000000000000000000
#008380:00000000000000230000000000000000
#009320:00140000000000000000000000000000
#009360:00000024
#0123b0:00000013000000230000000000000000
#012380:00000000003300000000000000000000
#012320:00000000000000000000000000130000
#012350:00000000000000000000000000003333
#013350:23
#012381:00000000000000000000000000130000
#0123b1:00000000000000000000000000003333
#0133b1:23
#013381:000000000000000014343400
#0133a1:000000000000000000000024
#013320:000000000000000014343400
#013340:000000000000000000000024
#0143a0:00000000000014340000543400000000
#014370:00000000000000005434000054240000
#015320:14340000543400000000000000000000
#015350:00005434000054240000000000000000
#015370:00000000000000000000143400005434
#0153a0:00000000000000000000000054340000
#0163a0:54240000000000000000000000000000
#016350:00000000143400005434000000000000
#016320:00000000000054340000542400000000
#0163a0:00000000000000000000000000001434
#017370:54340000542400000000000000000000
#0173a0:00005434000000000000000000000000
#016321:00000000000000000000000000001333
#017321:00330033002300000000000000000000
#017321:00000000000000001434000054340000
#017351:00000000000000000000543400005424
#0173b0:00000000000000001333003300330023
#018370:00001434000054340000000000000000
#0183a0:00000000543400005424000000000000
#018321:00001333003300330023000000000000
#020351:00130033
#020321:00000000003333333333333300333333
#021321:23
#0213b1:00000000000000000000000013333333
#022381:23
#022321:000000000000000000000000000000130000330000003300000033000000000000000000000000000000000000000000
#022361:0000000000230000
#0233b1:13333300000000000000000000000000
#023381:00000023000000000000000000000000
#023371:00000000000000000000000000140000
#0243a1:0000000000240000
#025321:13333300000000000000000000000000
#025351:00000023000000000000000000000000
#0253a1:00000000000000000000000000140000
#026361:0000000000240000
#028321:00000000000000000000000000000013
#029351:00330000000000000000000000000000
#029321:00000023000000000000000000000000
#0293b1:00000000000000000013000000000000
#029381:00000000000000000000333323000000
#029350:00000000000000000013000000000000
#029320:00000000000000000000333323000000
#030340:000000000014343400000000
#030320:000034
#031320:00240000
#0303a1:000000000014343400000000
#030381:000024
#0313a1:00000000143400005434000000000000
#031371:00000000000054340000542400000000
#031321:00000000000000000000000000001434
#032351:54340000542400000000000000000000
#032321:00005434000000000000000000000000
#032371:00000000000000001434000054340000
#0323a1:00000000000000000000543400005424
#033351:00001434000054340000000000000000
#033321:00000000543400005424000000000000
#039381:00000016
#0393b1:00000000000000000000000000000033
#0403b1:0000000000000000000000000000000000003300000000000000000000000000000000000000000000003300000000000000000000000000000000000000000033000000000000000000000000000000000000003300000000000000000000000000000000003300000000000000000000000000000000000000003300000000
#0413b1:000000000000000000000000000000000000000000000000000000000000000000000000000000000000000000000000000000000000330000000000000000000000000000000000000000000000000000000000000000000000000000000000000000000000000000000000000000000000000000003300000000000000000000000000000000000000000000000000000000000000000000000000000000000000000000000000000000000000330000000000000000000000000000000000000000000000000000000000000000000000000000000000000000000000330000000000000000000000000000000000000000000000000000000000000000000000000000000000000000000000000000000000000000330000000000000000000000000000000000000000000000000000000000000000000000000000000000000000000000000000000000000000000000330000000000000000000000000000000000000000000000000000000000000000000000000000000000000000
#0423b1:0000000000330000000000000000000000000000003300000000000000000000000000000000330000000000000000000000000000000033000000000000000000000000000033000000000000000000530000000000000000000000000000005300000000000000000000000000000053000000000000000000000000000000
#042381:00000000000000000000005600560056
#0433b1:5353535353535353
#043381:00560056005600560056005600560056
#0443b1:5353535353000000
#044381:00560056005600560000000000000000
#0483b1:0023
#042320:00000000000000000000000000000000000000000000000000000000000000000000001300000000530000005300000056000000530000005600000053000000
#043320:56535653565356535653565356535653
#044320:56535653565356535300000000000000
#048320:0023
#0503b0:00001300000000000033230000000000
#050380:00000000003333000000000000000000
#051350:00000000000013000000000000333300
#051320:00000000000000000033330000000000
#052320:00332300000000000000000000000000
#052380:0000000000130000
#0523b0:0000000000000023
#0533b0:00001300000000000033230000000000
#053380:00000000003333000000000000000000
#053351:00001300000000000033230000000000
#053321:00000000003333000000000000000000
#0543b1:0013000000000000
#054381:00000000003323000000000000000000
#055381:0000001300003333
#0553b1:00000000000000000033330000000000
#0563b1:3323000000000000
#056351:0000000000130000
#056321:0000000000000023
#057321:00001300000000000033230000000000
#057351:00000000003333000000000000000000
#057380:00001300000000000033230000000000
#0573b0:00000000003333000000000000000000
#059320:0000000000140000
#059360:00000000000000000000003434340034
#060340:34
#060320:00240000000000000000000000000000
#062320:0013000000000000
#062350:00000000003323000000000000000000
#063380:00000000000013000000000000333300
#0633b0:00000000000000000033330000000000
#0643b0:00332300000000000000000000000000
#0643b0:0000000000130000
#064380:0000000000000023
#065380:00001300000000000033230000000000
#0653b0:00000000003333000000000000000000
#0663b0:0013000000000000
#066380:00000000003323000000000000000000
#067350:0000001300003333
#067320:00000000000000000033330000000000
#068320:3323000000000000
#068320:0000000000130000
#068350:0000000000000023
#069350:00001300000000000033230000000000
#069320:00000000003333000000000000000000
#076380:0000160056000056560000565600005656000056560000565600005656000056
#076360:0000000000565600005656000056560000565600005656000056560000565600
#077380:5600005656000056560000565600005656000056560000565600005656000056
#077360:0056560000565600005656000056560000565600005656000056560000565600
#078380:5600005656000056560000565600005656000056560000565600005656000056
#078360:0056560000565600005656000056560000565600005656000056560000565600
#079380:5600005626000000000000000000000000000000000000000000000000000000
#079360:0056560000000000000000000000000000000000000000000000000000000000
