This file was generated by Ched 2.7.0.0.
#TITLE ""
#ARTIST ""
#DESIGNER ""
#DIFFICULTY 0
#PLAYLEVEL
#SONGID ""
#WAVE ""
#WAVEOFFSET 0
#JACKET ""
#REQUEST "ticks_per_beat 480"
#00002: 4
#BPM01: 115
#BPM02: 130
#BPM03: 128
#BPM04: 133
#BPM05: 138
#BPM06: 229
#BPM07: 112
#00008: 01
#01808: 00000001
#04908: 00000001
#01408: 02
#03008: 00000003
#03308: 00000004
#03608: 00000005
#03908: 00000006
#07008: 0007000000000000
#TIL00: ""
#HISPEED 00
#MEASUREHS 00
#00012:12161200
#00014:00120000000000120012001200000000
#00016:00001200000012000000120000000012
#00018:16000012001200001600001200000000
#0001a:00120000
#0001c:00000000000000000000000000120000
#00019:0000000000000012
#00112:1c
#00115:00190000000000190000000000000000
#00118:0016001600000000
#0011b:00000013001300000000000000000000
#0011c:00120000
#00212:1313131316161616
#00215:000000000000000000130000000000130000000000000000000000000000000000000000000000000000000000001300
#00218:160000000000160000000000160000000000160000000000000000000000000000130000000000130000000013000000
#0021b:0000000013131313
#00216:00000000000000140000000000000000
#00415:130000000000000000140000000000140000000000160000000000000000000000000000000000000000000000001300
#00412:0013131316000000
#00418:160000000000130000000013
#00417:00000000000000000000001400140000
#0041b:0000000000131313
#00618:00130000130013001200000000000000
#00615:16001313000000130000000000000000
#0061b:13000000001300000013000000000013
#00612:00000000000000000000001300130000
#00617:00000000000000000000120000130000
#00619:0000000000000013
#00616:00000000000000000014001412000013
#00614:0000000000000013
#00610:41
#00816:14
#00815:00001600130000131600130023000013
#00818:00000013001300000013130000230000
#00812:00000000000019000000002300000013
#0081b:00000000000000000013000000002300
#00716:00000000000000000000000000000014
#00712:001c0000000000000000000000000000
#00719:12000000000000000000121200000000
#0071c:00000000121200000000000000000000
#0071b:00000000000012120000000000000000
#0071a:00000000000000001212000000000000
#00718:00000000000000000000000012120000
#00717:0000000000000012
#00918:13000000000000000000000000000013
#00915:13000000000000000000121200000000
#00912:001c0000121200000000000000000000
#00913:00000000000012120000000000000000
#00914:00000000000000001212000000000000
#00916:00000000000000000000000012120000
#00917:0000000000000012
#01012:19000000000000161c00000016000000
#01015:00000000190000000019000000160000
#01018:00000000000000000000160000001316
#0101b:00000000000000000000001300000000
#01212:13160013000000000000000000001300
#01215:00001319001300000000001600131600
#0121b:00000000000000000000001300000000
#01218:00000000001300000000000000130000
#0131b:130000000000000000000000000000130000000000000000130000000000000000000000000000000000000013000000
#01312:1300000000001c00001300000000001300000000001c00000000001c0000000013000000000000000000000000000000
#01315:000000000000000000130000000000000000000000000000000000000000000013000000000000000000000000000000
#01317:00000013
#01319:000000000013
#01318:000000000000130000000013
#01314:00000013
#01316:000000000013
#01412:00000000000013190000000000001900
#01415:0000000000000000000000000000000000001600000000000000160000130013
#01418:00000000000000000000001600000013
#0141b:0000001300000000
#01410:0000004100000000
#01815:160000160000160000000000000000160000000000160000000000000000160000160000000000001300000000000000
#01812:000000130000000000130000000000000000160000000000000000000000000000000000000000000000000000000000000000000000190000000000000000000000000000000000000000000000000000000000000000001c00000000000000
#0181b:0000000000000000000000000000000000000000001300130000000000000000
#01915:000000001300000000000000000000001300000000000000000000160000130000160000190000000000000000000000
#01912:00000000000000001c00000000000000000000001c000000130000000000000000000000000000000000000000120000
#01918:00000000000000000000000000160016
#0191b:0000000000000013
#02015:19000000001300000013000000190000
#02016:00000014000000000000000000000000
#02012:0012000013000012000000121c120000
#02018:0000001313130016
#0201b:00000000000000130000001300000013
#02219:000000000000000000130000000000000000000000000000000023000000000000000000000000000000000000000000
#02217:000000000000130000000023000000000000000000000000
#02215:13000000000023000000000016130000
#02218:00130000000000000000000000001313
#02212:00000013
#0221b:00002300002300000000230000000000
#02210:00000041
#03115:00000000001300000000000000000000
#03118:0000000000000000000000000000160000001300000000001300001300001300
#0311b:0000000000000000000000000000000000000000000013000013000000000000
#03112:00000000000000000000000000160000
#03110:00410000
#03316:1400001400000000000000000000000000000000140000140000000000000000
#0331a:0014000000000000000000000000000000000000000014000000000000000000
#03312:0000140000000000000000000000000000001900001400002c00000012000000
#03313:00000000001b
#03314:00000000000000000000001a
#03318:00000016000000160000000000000000
#03315:00000000001300000000000000000000
#0031b:1313131300000000
#00318:000000000000000000130000000000130000000000000000160000000000160000000000160000000000160000001300
#00315:000000000000000000000000000000000000000000000000000000000000000000130000000000130000000013000000
#00312:1616161613131313
#00316:00000000000000140000000000000000
#00515:000000000000000000000000000000000000000000160000130000000000000000140000000000140000000013000000
#00518:130000000000000000000000160000000000000000000013
#00512:1600000000131313
#00517:00000014001400000000000000000000
#0051b:0013131300000000
#01112:00000000190000001c19161300000016
#01115:19000000000000000000000000161300
#01118:00000000000000160000000016000000
#0151b:13
#01515:00190016000000161913000000000016
#01518:0000000000000000000000000000000000130013000000000000000000000000
#01512:00000000001600000000131900190000
#01612:0000160019000000130000000000000000000000000000000013001300001600
#0161b:0000000000130013000000000000000000000000000000000000000000000000
#01615:00000016001900190016000019161600
#01618:00000000000000000000001600000000
#01715:00160016000016161600001600160019
#0171b:0000000000000000000000000013001300000000000000000000000000000000
#01712:00000000001900000000000000000000
#01718:00000000000000000016000000000000
#0211b:13000013
#02115:00160016000000000000000000001300
#02118:00001300000000000000000000130000
#02112:13000000191613161900000000000013
#02116:00000000000000000000001400000000
#0211c:00000000000000120012000000000012
#02315:1313000000001200
#02312:0000001300000000000000000000001300000000000000000000000000000000001300000000001c00001c0000001c00
#02318:00000013000000001200000000000000
#0231b:00000000000000130013000000000000
#02316:00000000121400140013000000000000
#02314:0000000000130000
#02317:00000000000012000000001300000000
#02319:0000000000130000
#0231c:000000000000000000000012
#02416:000000000000000000000000000000000000000012000000000000000000000000140000140000000000000000000000
#02415:00000000000000001200000000001613
#0241b:12
#02412:001b001a0019001800170016001500140000000000000000
#0241a:001200000000000000000000
#02419:001200000000
#02418:00120000
#02417:001200
#02414:000000000000001200000000
#02518:13000013000013002300001313000000
#02515:00131900161313000023000013000000
#02512:0000000000000000000000000000001300000000000000000000000000002300000000000000001c00001c0012001c00
#0251b:00000000000000230000001300000000
#02615:000000000000000012001900000000000000000000000000000000000000000000160000190000000000000000000000
#02613:121b00000000000000000000000000000000000000000000
#02614:0000121a0000000000000000000000000000000000000000
#02616:000000000000121800000000000000000000000000000000
#02617:000000000000000012170000000000000000000000130000
#02618:000000000000000000001216000000000000000000000000
#02619:000000000000000000000000121500000000000000000000
#0261a:000000000000000000000000000012140000000000000000
#0261b:00000000000000000000000000130013
#02712:191300131c1916130000001919130013
#02715:00000000000000000019130000000000
#02718:0016
#02716:0013000000000013
#0281b:00130013000000130000000013000013
#02818:00000000000016000000130000161300
#02812:000000001c0000001619000000000019
#02815:19000000001900000000001900000000
#02817:0013000000000000
#02912:00000000000000130000000013001c00
#02915:00130000000000160013160000000000
#02918:00130000000000000013000000000013
#0291b:00000000000000000000130013000013
#03012:0013001c131c00000000000000000000
#03018:000000000013000000000000
#03016:0013
#03014:000000000000001300000000
#0301b:000000130000000000000000000000000000000013000000000000000000000000000000000000000000000000000000
#03015:000000130000000013000000
#03019:0013
#03017:000000000000001300000000
#03212:0000160000000000000013000013000000001600000000000000160000000000
#03215:0000000000001300000000001300001300000000000000000000000000001900
#03218:00000000000000160000001300000000
#03416:000018000000000000120000000000120000000000001800
#03417:001700120017
#03419:001515
#0341a:000000000014001400000000
#03413:12
#03414:0012000000000012
#03415:29120012
#03418:00260026
#0341b:0023
#03514:001a00000000000000000000
#03513:121b00000000
#03512:0000001200002c001b001a00290018001700260015001400
#0351c:0000001200000000
#0351b:0012
#0351a:0000000000120000
#03519:00000012
#03518:0000000000000012
#03516:28
#03617:12
#03612:231415261718281a1b16001c
#03618:0012000000002600
#03619:00120000
#0361a:0000001200000000
#0361b:0012
#0361c:0000000000120000
#03614:0000000000000014
#03615:000000000019
#03716:12
#03714:0014000000000014
#03712:000000001c00160000141c00120000141c00160000001c00
#03715:001900001900001900001900
#03718:26262626
#03816:12
#03814:0014000000000000
#03815:001900000000000000000000
#03812:00001c26191c26191c26191c
#03818:2600161412141600
#0381a:0000000000000014
#0391c:12
#0391a:0014000000000000
#03918:0000161412140000
#03912:26000000190000001c00000026000000190000001c00000026000000190000001c0000002c00000000000000001b0000
#04012:0000000000000000000000000000000000001a00000000000000000000000000000000000000000000001900000000000000000000000000000000000000000018000000000000000000000000000000000000001700000000000000000000000000000000001600000000000000000000000000000000000000001500000000
#04112:0000000000000000000000000000000000000000000000000000000000000000000000000000000000000000000000000000000000001400000000000000000000000000000000000000000000000000000000000000000000000000000000000000000000000000000000000000000000000000000013000000000000000000000000000000000000000000000000000000000000000000000000000000000000000000000000000000000000001c00000000000000000000000000000000000000000000000000000000000000000000000000000000000000000000001b00000000000000000000000000000000000000000000000000000000000000000000000000000000000000000000000000000000000000001a0000000000000000000000000000000000000000000000000000000000000000000000000000000000000000000000000000000000000000000000190000000000000000000000000000000000000000000000000000000000000000000000000000000000000000
#04212:0000000000180000000000000000000000000000001700000000000000000000000000000000160000000000000000000000000000000015000000000000000000000000000000000000000000000000000000000000000000000000000000000000000000000000000000000000000000000000000000000000000000000000
#04912:00000012
#04914:0000000000000012
#05016:1200000000210000
#05018:0012000000000012
#0501a:00000000001212000000000012000000
#0501c:00000000000000000012120000000000
#0501f:0011000000000000
#05012:0021000000000000
#05013:00210000
#05014:0000002100000021
#05015:00002121
#05116:1200000000210000
#0511c:0012001200000000
#05118:00000000120000000012120000002100
#0511a:00000000000000000000000000121200
#05113:21210000
#05112:0021000000000000
#05114:0000002100000000
#05115:0021
#05117:00000021
#0521c:00121200000000000000000000000000
#0521b:00120000
#0521a:0021001200000000
#05219:21211200
#05218:0000002100120000
#05217:0021
#05216:0000000000210000
#05215:00000021
#05214:0000000000000021
#05318:1200001200001200
#0531c:0012000000120000
#0531a:0000000000000012
#05313:21210000
#05312:0021000000000000
#05314:0000002100000021
#05315:00002121
#05316:0000000000210000
#0541c:12210000
#05416:0012000000000012
#05414:00000000001212000000000012000000
#05412:00000000000000000012120000000000
#05413:21
#0541d:0021000000000000
#0541b:0000002100000021
#0541a:00002121
#05419:0000000000210000
#05518:12000021
#05512:0012001200000000
#05516:00000000120000000012120000000000
#05514:0000000000001212
#0551c:21210000
#0551d:0021000000000000
#0551b:0000002100000000
#0551a:0021
#05519:0000000000210000
#05517:0000000000000021
#05612:1212000000000000
#05613:00120000
#05614:0000001200000000
#05615:0021000012000000
#05616:2100210000120000
#05617:0000002100000000
#05618:0021
#05619:0000000000210000
#0561a:00000021
#0561b:0000000000000021
#05716:1200001200001200
#05712:0012000000120000
#05714:0000000000000012
#0571c:21210000
#0571d:0021000000000000
#0571b:0000002100000021
#0571a:00002121
#05719:0000000000210000
#05812:12002a00002800260000240000260028
#05814:00000014000000001400000000000000
#05818:00000000140000140012001200160000
#0581a:00000000001200000000120000000012
#0581c:2112001200000000
#05816:0000000000001214
#0581f:0021000000000000
#05914:14000014
#05918:00140000000000000000001400000000
#0591a:00000000000000000000000000120000
#0591c:00000000000000000000000000000012
#05916:0000000000000014
#05912:00002a0000280024000024000028002a
#05910:0041000000000000
#06015:12
#06019:00120000000000000000000000000000
#06018:00000014000000261400000012260000
#06014:00002a00141200140000120000000012
#06012:00001200000012000000000000160000
#06016:00000000002800000012001200001428
#0601a:0000000000240000
#06118:14000014
#06114:00142a0000000000000000140012002a
#06112:00000000000000000000000000000012
#06116:00000000002800000000000000281400
#0611a:00000000000000240000240000000000
#06219:12
#06215:00120000121200000000000000190000
#06212:00001c00000000000000001900000000
#06218:00000000120000130013000000000000
#0621b:00000012000013001300000000000000
#0621a:0000000000000014
#06216:00000000000000000000000000000014
#06312:16001c12000000000000001c001c0000
#06316:0016120000000000120000000000120000180018000000000000000000000000
#0631a:0000001200000000140000000000140000001200000000000000000000000000
#06318:00000000001200000000000000000012
#06314:0000001200000000
#0631c:0012
#06412:1216001600000000180000000000000018000000000000001200000012000000
#06414:00120000000000000000001200000000
#06416:00000000000018000000000000120000
#06418:00000000000000000000000000000012
#0641c:0000000000121212
#06512:1212
#0651a:00120000120000000000000000120000
#06516:00001200000012000000121212001212
#06518:00001200000012000000121212001212
#06514:00000000120000000000000000120000
#0651c:1212
#06616:12000000120000000000000000000014
#06614:00120000000000000000000000000000
#06618:12
#0661a:00120000000000000000000000000000
#06613:00000012000000000000000000000000
#06619:00000000121200000000000000000000
#06612:00000000000013001300000000191400
#06615:00000000000000130013001900000000
#06712:000000001c00000014000000000014001218001800001c0000001c0000000000
#06714:0016001200000000000000000000000000001200000000000000000000000000
#06716:00000000001200000000000000000012
#06718:16120000120000120000000000000000
#0671c:00000012000000000000000000000000
#0671a:0000001200000000
#0681c:1200000000001212
#06818:0016001600000000000000000000000000000000000000000000120000000000
#0681a:00120000000000000000001200000000
#06816:00000000180000001800000000000012
#06812:0000001800121212
#0691c:12
#06914:00120000000012000000000000000000
#06912:1212000000000000
#06913:00000000001200000000000000000000
#06915:00000000000000000012000000000000
#07014:00000012000000000000000012000000
#07016:00000000120000000000001200000000
#07018:00000000001200000000121600000000
#0701a:00000000000012002412000000000000
#0701c:00000000000000120000000000000000
#07012:00000000001600001400000000122418
#07010:0041000000000000
#07112:1c1c000000001c1c1614240000000012
#07116:00001800001800000000000000120000
#0711a:00000014240000000000001200000000
#07118:00000000000000000000000012160000
#07114:0000000000000012
#07216:00001200000000180000000000000000
#07218:00000012000000000000000000000000
#0721a:1400122400000000
#0721c:00000000001200000000000000000000
#07214:00120000000000000000000000000000
#07212:24000016000000001c1c181424181c1c
#07318:16000000001200000000121600000000
#0731a:00142400000012002412000000000000
#07314:00000012000000000000000012000000
#07316:00000000120000000000001200000000
#0731c:00000000000000120000000000000000
#07312:00000000001600001400000000122418
#07412:1c1c000000001c1c1614240000000012
#07416:00001800001800000000000000120000
#0741a:00000014240000000000001200000000
#07418:00000000000000000000000012160000
#07414:0000000000000012
#07516:00001200000000180000000000001400
#07518:00000012000000000000000000000014
#0751a:1400122400000000
#0751c:00000000001200000000000000000000
#07514:00120000000000000000000000140000
#07512:24000016000000001c1c181424000000
#0761a:14
#07612:00220000000000000000000000000000
#01052:393c
#01055:00000000490000000049000000000000
#01058:0000000000360000
#0105b:00000000000000000000004300000000
#01255:00000000005300130000000000001600
#01252:00000053000000000000000000001300
#01258:00000000005300130000000000000000
#00258:16
#00252:0016
#00455:13
#00452:0016
#00558:1316
#00752:005c0000000000000000000000000000
#01152:00000000390000004c39463300000000
#01155:49
#02752:390000004c3946330000000039000000
#02655:00000049
#02852:003c0000
#02855:49000000004900000000000000000000
#02858:0000003600000000
#0285b:00000000000000430000000000000063
#02955:00630013000000000000160000000000
#0295b:0000000000130000
#02958:00630013000000000000000000000000
#0315b:00000000000000000000001300000000
#03252:00000000001300000000000000000000
#03255:00000000000000000000000000000019
#03352:00000000000000000019000000000000
#05258:0000000000520000
#0535c:0052000000000000
#05358:0000005200000000
#05656:0000000000620000
#05752:0062000000000000
#05756:0000006200000000
#06556:00005200000052000000522252005222
#0655a:00000000220000000000000000220000
#06552:0022
#06558:00006200000062000000622262006222
#06554:00000000220000000000000000220000
#0655c:0022
#06656:52
#06654:00220000000000000000000000000000
#06658:62
#0665a:00220000000000000000000000000000
#07052:00000000001600000000000000001400
#07058:00000000000000000000001600000000
#0705a:0014
#07158:00000000000000000000000000160000
#0715a:00140000
#07152:0000000000140000
#07252:14000016000000000000000014000000
#0725a:0000001400000000
#07352:00000000001600000000000000001400
#07358:00000000000000000000001600000000
#0735a:0014000014000000
#07458:00000000000000000000000000160000
#0745a:00140000
#07452:0000000000140000
#07552:14000016000000000000000014000000
#0755a:0000001400000000
#00952:006c0000000000000000000000000000
#0225b:0000000000130000
#05852:001a000000140000
#05952:001a000000140000
#06054:001a000000000000
#0605a:0000000000140000
#06154:001a000000000000
#0615a:0000000000140000
#00352:0013
#0035b:13
#001320:0000000011000021
#0013d1:0000000011000021
#004351:0015352500000000
#004391:00000035003500000000000000000000
#004361:0000000000153525
#004321:00000000000000000000003500350000
#005361:0015352500000000
#005321:00000035003500000000000000000000
#005351:0000000000153525
#005391:00000000000000000000003500350000
#006321:000000000000000000000000000000000000130000000000000000000000000000000000005300000000230000000000000000000000000000000000000000000000000000000000000000000000000000000000000000000000000000000000
#006351:000000000000000000000000000000000000005300000000330000000000005300000000330000000000000000000000000000000000000000000000000000000000000000000000000000000000000000000000000000000000000000000000
#006381:000000000000000000000000000000000000000000000000005300000000330000000000000000000000000000000000000000000000000000000000000000000000000000000000000000000000000000000000000000000000000000000000
#007321:001c0000000000000000000000000021
#0083b1:13000000000000000000000000000000000000530000000000000000000000000000000000000000000000000000000000000000000000000000000000000000000000000000000000000000000000000000000000000000000000000000000000000000000000000000000000000000000000000000000000000000000000000000000000000000000000000000000000000000000000000000000000000000
#008351:0000000000000000000000000000000000000000000000000000000000000000000000000000005900595300000000000000000000000000000053560056000000000000000000000000000000000056005653000000000000000000000000000000535600560000000000000000000000000000000000000000000000000000000000000000000000000000000000000000000000000000000000000000000000000000000000000000000000000000000000000000000000000000000000000000000000000000000000000000000000000000000000000000000000000000000000000000000000000000000000000000000000000000000000000000000000000000000000000000000000000000000000000000000000000000000000000000000000000000000000000000000000000000000000000000000000000000
#008381:00000000000000000000000000000000000000000000000000000000000000530000000000000053000000000000000000000053000000000000005300000000000000000000000000000000000000000000000000000000000000000000000000000000000000000000000000000000000000000000000000000000000000000000000000000000000000000000000000000000000000000000000000000000
#008321:0000000000000000000000000000000000000000000000000000000000000000000000000000000000000000000000000000000000000000000000000000000000000000000000000000000000000000000000000000000000000000000000000000000000000000000000000000000000000000000000590059530000000000000000000000000000000000230000000000000000000000000000000000000000000000000000000000000000000000000000000000000000000000000000000000000000000000000000000000000000000000000000000000000000000000000000000000000000000000000000000000000000000000000000000000000000000000000000000000000000000000000000000000000000000000000000000000000000000000000000000000000000000000000000000000000000000000
#009321:001c0000000000000000000000000000
#0093d1:00000000000000000000000000000021
#0103b1:13230000000000000000000000000000
#010350:00132300000000000000000000000000
#010381:00001323000000000000000000000000
#010320:00000013230000000000000000000000
#010350:00000000001323000000000000000000
#010381:00000000000013230000000000000000
#011321:13230000000000000000000000000000
#011380:00132300000000000000000000000000
#011351:00001323000000000000000000000000
#0113b0:00000013230000000000000000000000
#011380:00000000001323000000000000000000
#011351:00000000000013230000000000000000
#012321:00000013000000000000000000000000
#012351:00000000533300000000000000000000
#012381:00000000000053230000000000000000
#012380:00000000001300000000000000000000
#012350:00000000000053230000000000000000
#0143b0:00000000000000000000000000000000000000000000000000000000000000000000000000000000000000000000000000000000000000000000000000000000000000000000130000000000000000000000000000000000005300000000000000000000000000000000000000000053000000000000000000000000000000000000230000000000000000000000000000000000000000000000000000000000
#014350:0000000000000000000000000000000000000000000000000000000000000000000000000000000000000000000000000000000000000000000000000000000000000000000000000000000000000000000000000000000000000000000000000000000000000000000000000000000000000000000000000000000000000000000000000000000000000000000000000000000000000000000000000000000000000000000000000000000000000000000000590059530000000000000000000000000000000000000000000000000000000000000000000000535900590000000000000000000000000000000000000000000000000000000000000000000000000000000000000000000000000000000000000000000000000000000000000000000000000000000000000000000000000000000000000000000000000000
#015320:0000000000000000000000000000000000000000130000000000000000000000000000000000000000000000000000000000000000000000000053590059000000000000000000000000000000000000000000000000000000000000000000000000005900595300000000000000000000000000000000000000000000000000000000000000000000000000230000000000000000000000000000000000000000000000000000000000000000000000000000000000000000000000000000000000000000000000000000000000000000000000000000000000000000000000000000000000000000000000000000000000000000000000000000000000000000000000000000000000000000000000000000000000000000000000000000000000000000000000000000000000000000000000000000000000000000000000
#015380:00000000000000000000000000000000000000000000000000000000000000530000000000000000000000000000000000530000000000000000000000000000000000000000000000000000000000000000000000000000000000000000000000000000000000000000000000000000000000000000000000000000000000000000000000000000000000000000000000000000000000000000000000000000
#0153b0:00000000000000000000000000000000000000000000000000000000000000000000000000000000000000000000000000000000000000000000000000000000000000000000000000000000000000000000000000000000000000000000000000000000000000000000000000001300000000000000000000000000000000000053000000000000000000000000000000000000000000000000000000000000
#015320:000000000000000000000000000000000000000000000000000000000000000000000000000000000000000000000000000000000000000000000000000000000000000000000000000000000000000000000000000000000000000000000000000000000000000000000000000000000000000000000000000000000000000000000000000000000000000000000000000000000000000000000000000000000000000000000000000000000000000000000000000000000000000000000000000000000000000000000000000000000000000000000000000000000000000000000000000000000000000000000000000000000000000000000000000000000000005c005c53000000000000000000000000000000000000000000000000000000000000000000000053590059000000000000000000000000000000000000
#015380:00000000000000000000000000000000000000000000000000000000000000000000000000000000000000000000000000000000000000000000000000000000000000000000000000000000000000000000000000000000000000000000000000000000000000000000000000000000000000000000000000000000000000000000000000000000000000000000000000000000000000530000000000000000
#016380:00230000000000000000000000000000
#016320:000000000000000000000000000000000000000000000000000000000000000000000000000000000000000000000000000000000000000000000000000000000000000000000000000000000000000000000000000000000000000000000000000000001300000000000000000000000000000000000000000000000000000000000000000000000000535c005c00000000000000000000000000000000000000000000000000000000000000000000000000000000000000000000000000000000000000000000000000000000000000000000000000000000000000000000000000000000000000000000000000000000000000000000000000000000000000000000000000000000000000000000000000000000000000000000000000000000000000000000000000000000000000000000000000000000000000000000
#0163b0:00000000000000000000000000000000000000000000000000000000000000000000000000000000000000000000000000000000000000000000000000000000000000000000005300000000000000000000000000000000005300000000000000000000000000000000000000000000000000000000000000000000000000000000000000000000000000000000000000000000000000000000000000000000
#016350:0000000000000000000000000000000000000000000000000000000000000000000000000000000000000000000000000000000000000000000000000000000000000000000000000000000000000000000000000000000000000000000000000000000000000000000000000000000000000000000000000000000000000000000000000000000000000000000000000000000000000000000000000000000000000000000000000000000000000000000000590059530000000000000000000000000000000000000000000000000000000000000000000000000023000000000000000000000000000000000000000000000000000000000000000000000000000000000000000000000000000000000000000000000000000000000000000000000000000000000000000000000000000000000000000000000000000000
#016380:00000000000000000000000000000013
#0173b0:00000000000000000053000000000000000000000000000000000000000000000000000000000000000000000000000000002300000000000000000000000000000000000000000000000000000000000000000000000000000000000000000000000000000000000000000000000000000000000000000000000000000000000000000000000000000000000000000000000000000000000000000000000000
#017350:0000000000000000000000000000000000000059005953000000000000000000000000000000000000000000000000000000000000000000000000000000000000000000000000000000000000000000000000000000000000000000000000000000000000000000000000000000000000000000000000000000000000000000000000000000000000000000000000000000000000000000000000000000000000000000000000000000000000000000000000000000000000000000000000000000000000000000000000000000000000000000000000000000000000000000000000000000000000000000000000000000000000000000000000000000000000000000000000000000000000000000000000000000000000000000000000000000000000000000000000000000000000000000000000000000000000000000
#017320:0000000000000000000000000000000000000000000000000000000000000000000000000000000000000000000000000000000000000000000053590059000000000000000000000000000000000000000000000000000000000000000000000000000000000000000000000000000000000000000000000000000000000000000000000000000000000000000000000000000000000000000000000000000000000000000000000000000000000000000000000000000000000000000000000000000000000000000000000000000000000000000000000000000000000000000000000000000000000000000000000000000000000000000000000000000000000000000000000000000000000000000000000000000000000000000000000000000000000000000000000000000000000000000000000000000000000000
#017380:00000000000000000000000000000000000000000000000000000000000000530000000000000000000000000000000000000000000000000000000000000000000000000000000000000000000000000000000000000000000000000000000000000000000000000000000000000000000000000000000000000000000000000000000000000000000000000000000000000000000000000000000000000000
#017350:0000000000000000000000000000000000000000000000000000000000000000000000000000000000000000000000000000000000000000000000000000000000000000000000000000000000000000000000000000000000000000000000000000000000000000000000000000000000000000000000000000000000000000000000000000000000000000000000000000000000000000000000000000000000000000000000000000000000000000000000001300000000000000000000000000000000000000000000000000000000000000000000000000000000000000000000000000000000000000000000000000000000000000000000000000000000000059005953000000000000000000000000000000000000000000000000000000000000000000000000000000000000000000000000000000000000000000
#017320:0000000000000000000000000000000000000000000000000000000000000000000000000000000000000000000000000000000000000000000000000000000000000000000000000000000000000000000000000000000000000000000000000000000000000000000000000000000000000000000000000000000000000000000000000000000000000000000000000000000000000000000000000000000000000000000000000000000000000000000000000000000000000000000000000000000000000000000000000000000000000000000000000000535900590000000000000000000000000000000000000000000000000000000000000000000000000000000000000000000000000000000000000000000000000000000000000000000000000000000000002300000000000000000000000000000000000000
#017380:00000000000000000000000000000000000000000000000000000000000000000000000000000000000000000000000000000000000000000000000000000000000000000000000000000000000000000000000000000000000000000000000000000000000000000000000000000053000000000000000000000000000000000000000000000000000000000000000000000000000000000000000000000000
#0173b0:00000000000000000000000000000000000000000000000000000000000000000000000000000000000000000000000000000000000000000000000000000000000000000000000000000000000000000000000000000000000000000000000000000000000000000000000000000000000000000000000000000000000000000053000000000000000000000000000000000000000000000000000000000000
#018380:00000000000000000000000000000000000000000000000000000000000013000000000000000000000000000000000000000000000000000000000000000000000000000000005300000000000000000000000000000000000000000000000000000000000000000000000000000000000000000000000000000000000000000000000000000000000000000000000000000000000000000000000000000000
#0183b0:00000000000000000000000000000000000000000000000000000000000000000000000000000000000000000000000000530000000000000000000000000000000000000000000000000000000000000000000000000000000023000000000000000000000000000000000000000000000000000000000000000000000000000000000000000000000000000000000000000000000000000000000000000000
#018350:0000000000000000000000000000000000000000000000000000000000000000000000000000000000000000000000000000000000000000000000000000000000000000000000000000000000000000000000000000000000000000000000000000005900595300000000000000000000000000000000000000000000000000000000000000000000000000000000000000000000000000000000000000000000000000000000000000000000000000000000000000000000000000000000000000000000000000000000000000000000000000000000000000000000000000000000000000000000000000000000000000000000000000000000000000000000000000000000000000000000000000000000000000000000000000000000000000000000000000000000000000000000000000000000000000000000000000
#018320:0000000000000000000000000000000000000000000000000000000000000000000000000000000000000000000000000000000000000000000000000000000000000000000000000000000000000000000000000000000000000000000000000000000000000000000000000000000000000000000000000000000000000000000000000000000000005359005900000000000000000000000000000000000000000000000000000000000000000000000000000000000000000000000000000000000000000000000000000000000000000000000000000000000000000000000000000000000000000000000000000000000000000000000000000000000000000000000000000000000000000000000000000000000000000000000000000000000000000000000000000000000000000000000000000000000000000000
#018320:000000000000000000135300
#0193b0:23
#019321:135300000000000000000000
#0193b1:00230000
#019320:000000135300000000000000
#0193b0:0023
#019320:00000000000000000000120000220000
#0213c0:00001200002200000000000000000000
#022360:0013000000000000
#022340:00000033000000000000000000000000
#022320:000000000000000000000000330000000000535300005353000053530000230000000000000000000000000000000000
#022350:000000000000000000000000000000000000000000000000000000000000000000000000005300000000000000000000000000000000000000000000000000000000000000000000000000000000000000000000000000000000000000000000
#022370:0000000000000000000000000000005300000000000000000000000000000000
#022390:000000000000000000000000000000000000000000000000000000000000000000000000000000000000000000000000000000000053000000000000000000000000000000000000000000000000000000000000000000000000000000000000
#0223b0:00000000000000000000000000000013
#022380:000000000000000000000000000000000000000000000000000000000000000000000000000000000000000000000000000000000000000000000000000000000000000000000000000000000000000000000000000000000000005300000000
#023380:330000000000005300000000330000000000000000000000000000000000000000000000000000000000000000000000000000000000000000000000000000000000000000000000000000000000000000000000000000000000000000000000
#023350:005300000000330000000000000000000000000000000000000000000000000000000000000000000000000000000000000000000000000000000000000000000000000000000000000000000000000000000000000000000000000000000000
#0233b0:000000000000000000000000005300000000230000000000000000000000000000000000000000000000000000000000000000000000000000000000000000000000000000000000000000000000000000000000000000000000000000000000
#024320:0000000000000000000000000000000000000000000000000000000000000000000000000000000000000000000000000000000000000000000000000000000000000000000000000000000000000000000000000000000000000000000000000000000000000000000000000000000000000000000000000000000000000000000000000000000000000000000000000000000000000000000000000000000000000000000000000000000000000000000000000000000000000000000000000000000000000000000000000000000000000000000000000000000000000000000000000000000000000000000000001300000000000000000000000000000000000000000000000000000000000000000000000000535900590000000000000000000000000000000000000000000000000000000000000000000000000000
#024380:00000000000000000000000000000000000000000000000000000000000000000000000000000000000000000000000000000000000000000000000000000000000000000000000000000000000000000000000000000000000000000000000000000000000000000000000000000000000000000000000000000000000000000000000000000000000000000053000000000000005300000000000000000000
#024350:0000000000000000000000000000000000000000000000000000000000000000000000000000000000000000000000000000000000000000000000000000000000000000000000000000000000000000000000000000000000000000000000000000000000000000000000000000000000000000000000000000000000000000000000000000000000000000000000000000000000000000000000000000000000000000000000000000000000000000000000000000000000000000000000000000000000000000000000000000000000000000000000000000000000000000000000000000000000000000000000000000000000000000000000000000000000000000000000000000000000000000000000000000000000000000000000000000000000000000000000560056530000000000000000000000000000005356
#025350:0056000000000000000000000000000000000056005653000000000000000000000000000000535900590000000000000000000000000000000000000000000000000000000000000000000000000000000000000000000000000000000000000000000000000000000000000000000000000000000000000000000000000000000000000000000000000000000000000000000000000000000000000000000000000000000000000000000000000000000000000000000000000000000000000000000000000000000000000000000000000000000000000000000000000000000000000000000000000000000000000000000000000000000000000000000000000000000000000000000000000000000000000000000000000000000000000000000000000000000000000000000000000000000000000000000000000000
#025380:00530000000000000053000000000000000000000000000000000000000000000000000000000000000000000000000000000000000000000000000000000000000000000000000000000000000000000000000000000000000000000000000000000000000000000000000000000000000000000000000000000000000000000000000000000000000000000000000000000000000000000000000000000000
#0253b0:00000000000000000000000000000000000000000053000000000000000023000000000000000000000000000000000000000000000000000000000000000000000000000000000000000000000000000000000000000000000000000000000000000000000000000000000000000000000000000000000000000000000000000000000000000000000000000000000000000000000000000000000000000000
#026320:00000013
#026370:00000000000000000000000000330000
#026330:0000000000000033
#026380:00000000000000000000000000000023
#0273b0:13
#027360:00330000000000000000000000000000
#0273a0:0033000000000000
#027350:00000023000000000000000000000000
#0273b0:00000013
#027360:00000000000000000000000000330000
#0273a0:0000000000000033
#027350:00000000000000000000000000000023
#028320:13
#028370:00330000000000000000000000000000
#028330:0033000000000000
#028380:00000023000000000000000000000000
#0283b0:00000000000000000000000000000013
#029380:53330000000000000000000000000000
#029350:00005323000000000000000000000000
#029351:00130000000000000000000000000000
#029381:00005323000000000000000000000000
#030321:000013
#031321:00230000
#031380:0000000000000000000000000000000000000000000000000000000000000000000000000000000000000000000000000000000000000000000000000000000000000000000000000000000000000000130000000000000000000000000000000000530000000000000000000000000000000000000000000000000000000000000000000000000000000000000000000000000000000000000000000000000000000000000000000000000000000000000000560056530000000000000000000000000000000000000000000000000000000000000000000000000023000000000000000000000000000000000000000000000000000000000000000000000000000000000000000000000000000000000000000000000000000000000000000000000000000000000000000000000000000000000000000000000000000000
#031350:0000000000000000000000000000000000000000000000000000000000000000000000000000000000000000000000000000000000000000000000000000000000000000000000000000000000000000000000000000000000000000000000000000005600565300000000000000000000000000000000000000000000000000000000000000000000005359005900000000000000000000000000000000000000000000000000000000000000000000000000000000000000000000000000000000000000000000000000000000000000000000000000000000000000000000000000000000000000000000000000000000000000000000000000000000000000000000000000000000000000000000000000000000000000000000000000000000000000000000000000000000000000000000000000000000000000000000
#0313b0:0000000000000000000000000000000000000000000000000000000000000000000000000000000000000000000000000000000000000000000000000000000000000000000000000000000000000000000000000000000000000000000000000000000000000000000000000000000000000000000000000000000000000000000000000000000000000000000000530000000000000000000000000000000000000000000000000000000000000000000053000000000000000000000000000000000000000000000000000000000000000000000000000000000000000000000000000000000000000000000000000000000000000000000000000000000000000000000000000000000000000000000000000000000000000000000000000000000000000000000000000000000000000000000000000000000000000000
#031350:0000000000000000000000000000000000000000000000000000000000000000000000000000000000000000000000000000000000000000000000000000000000000000000000000000000000000000000000000000000000000000000000000000000000000000000000000000000000000000000000000000000000000000000000000000000000000000000000000000000000000000000000000000000000000000000000000000000000000000000000000000000000000000000000000000000000000000000000000000000000000000000000000000000000000000000000000000000000000000000000000000000000000000000000000000000000000000000000000000000000000000000000000000000013000000000000000000000000000000000053560056000000000000000000000000000000000000
#031380:00000000000000000000000000000000000000000000000000000000000000000000000000000000000000000000000000000000000000000000000000000000000000000000000000000000000000000000000000000000000000000000000000000000000000000000000000000000000000000000000000000000000000000000000000000000000000000000000000000000000000530000000000000000
#032380:00000000000000000053000000000000000000000000000000000000000000000000000000000000000000000000000000000000000000000000000000000000000000000000000000000000000000000000000000000000000000000000000000000000000000000000000000000000000000000000000000000000000000000000000000000000000000000000000000000000000000000000000000000000
#032320:0000000000000000000000000000000000000059005900530000000000000000000000000000000000000000000000000000000000000000000053560056000000000000000000000000000000000000000000000000000000000000000000000000000000000000000000000000000000000000000000000000000000000000000000000000000000000000000000000000000000000000000000000000000000000000000000000000000000000000000000000000000000000000000000000000000000000000000000000000000000000000000000000000000000000000000000000000000000000000000000000000000000000000000000000000000000000000000000000000000000000000000000000000000000000000000000000000000000000000000000000000000000000000000000000000000000000000
#032350:00000000000000000000000000000000000000000000000000000000000000530000000000000000000000000000000000002300000000000000000000000000000000000000000000000000000000000000000000000000000000000000000000000000000000000000000000000000000000000000000000000000000000000000000000000000000000000000000000000000000000000000000000000000
#032380:00000000000000000000000000000000000000000000000000000000000000000000000000000000000000000000000000000000000000000000000000000000000000000000000000000000000000001600000000000000005600000000000000000000000000000000000000000053000000000000000000000000000000000053000000000000000000000000000000000000000000000000000000000000
#032320:00000000000000000000000000000000000000000000000000000000000000000000000000000000000000000000000000000000000000000000000000000000000000000000000000000000000000000000000000000000000000000000000000000000000000000000000000000000000000000000000000000000000000000000000000000000000000000000000000000000000000000000000000000000000000000000000000000000000000000000005c005c560000000000000000000000000000000000000000000000000000000000000000000000565900590000000000000000000000000000000000000000000000000000000000000000000000000059005953000000000000000000000000000000000000000000000000000000000000000000000000002300000000000000000000000000000000000000
#033320:00000000000000000000000000000000000000000000000000000000000000000000000000000000160000000000000000000000000000000000565c005c000000000000000000000000000000000000000000000000000000000000000000000000000000000000000000000000000000000000000000000000000000000000000000000000000000000000000000000000000000000000000000000000000000000000000000000000000000000000000000000000000000000000000000000000000000000000000000000000000000000000000000000000000000000000000000000000000000000000000000000000000000000000000000000000000000000000000000000000000000000000000000000000000000000000000000000000000000000000000000000000000000000000000000000000000000000000
#033380:00000000000000000000000000000000000000000000000000000000000000560000000000000000000000000000000000560000000000000000000000000000000000000000000000000000000000000000000000000000000000000000000000000000000000000000000000000000000000000000000000000000000000000000000000000000000000000000000000000000000000000000000000000000
#033350:0000000000000000000000000000000000000000000000000000000000000000000000000000000000000000000000000000000000000000000000000000000000000000000000000000000000000000000000000000000000000000000000000000005900595300000000000000000000000000000000000000000000000000000000000000000000005359005900000000000000000000000000000000000000000000000000000000000000000000000000000000000000000000000000000000000000000000000000000000000000000000000000000000000000000000000000000000000000000000000000000000000000000000000000000000000000000000000000000000000000000000000000000000000000000000000000000000000000000000000000000000000000000000000000000000000000000000
#0333b0:00000000000000000000000000000000000000000000000000000000000000000000000000000000000000000000000000000000000000000000000000000000000000000000005300000000000000000000000000000000000023000000000000000000000000000000000000000000000000000000000000000000000000000000000000000000000000000000000000000000000000000000000000000000
#0423a0:000000000000000000000000000000000000000000000000000000000000000000000000000000000000000000000000000000000000000000000000000000000000000000000000000000000000000000000000000000000000000000000000000000000000000000140000000000000000000000000000540000000000000000000000000000000000000000000000540000000000540000000000000000005400000000000000540000000000000000005400000000000000540000000000
#042360:000000000000000000000000000000000000000000000000000000000000000000000000000000000000000000000000000000000000005400000000000000000000000000000000000054000000000000000000000000000000000000000000
#042340:000000000000000000000000000000000000000000000000000000000000005400005400000000000000000000005400
#042390:00000000000000000000005400000000
#042350:000000000000000000000000000000000000000000000000000000000000000000000000000000000000000000000000000000000000000000000000000000000000000000000000000000000054000000005400000000000000000000000000
#042330:000000000000000000000054
#042380:00000000000000000000000000000000000000000000000000000000000000000000000000000000000000000000000000000000000000000000000000000054
#0433a0:540000000000540000000000540000000000005400000000540000000000540000000000540000000000005400000000540000000000005400000000540000540000000000000000540000000054000000000000540000000000005400000000
#043350:0054005400000000000000000000000000000000000000000000000000000000
#043330:000000005400000000000000000000000054000000000000
#043370:000000000000000000000000000000000000000000540000000000000000000000000000000000000000000000000000000000000000000000000000005400000000000000000000000000000000000000000000000000000000000000000000
#043360:0000000000000000005400540000005400000054000000000000000000000000
#043340:000000000000000000000000000000000000000000000000000000000000000000000000000000000000540000000000000000000000000000000000000000000000000000000000000054000000000000540000000000000054000000540000
#043320:00000000000000000054000000000000
#0443a0:540000005400000000000000540000000000540000000000540000000054000000000000540000000000540000000000540000000000000000000000000000000000000000000000000000000000000000000000000000000000000000000000
#044360:005400000000000000000054000000005400000000000000000000000000000000000000000000000000000000000000
#044340:000000000000000054000000000000000000000000000000000000000000000000000000000000000054000000000000000000000000000000000000000000000000000000000000000000000000000000000000000000000000000000000000
#044350:000000000000000000000000000000005400000000000000000000540000000000000000000000000000000000540000000000000000000000000000000000000000000000000000000000000000000000000000000000000000000000000000
#0443b0:000000000000000000000000000000000000000000000000000000000000000000000000000000000000000000000000000000000000000000000000000000000000000000000000000000000000000000000000000000000000000000000000000000000000000000000000000000000000000000000000000000000000000000000000000000000000000000000000000000000000000000000000000000000000000000000000000000000000000000000000000000000000000000000000000000000000000000000000000000000000000000000000000000000000000000000000000000000000000000000000000000000000000000000000000000000000000000000000000000000000000000000000000000000000000000000000000000000000000000000000000000000000000000000000000000000000000000000000000000000000000000000000000000000000000000000000000000000000000000000000000000000000000000000000000000000000000000000000000000000000000000000000000000000000000000000000000000000000000000000000000000000000000000000000000000000000000000000000000000000000000000000000000000000000000000000000000000000000000000000000000000000000000000000000000000000000000000000000000000000000000000000000000000000000000000000000000000000000000000000000000000000000000000000000000000000000000000000000000000000000000000000000000000000000000000000000000000000000000000000000000000000000000000000000000000000000000000000000000000000000000000000000000000000000000000000000000000000000000000000000000000000000000000000000000000000000000000000000000000000000000000000000000000000000000000000000000000000000000000000000000000000000000000000000000000000000000000000000000000000000000000000000000000000000000000000000000000000000000000000000000000000000000000000000000000000000000000000000000000000000000000000000000000000000000000000000000000000000000000000000000000000000000000000000000000000000000000000000000000000000000000000000000000000000000000000000000000000000000000000000000000000000000000000000000000000000000000000000000000000000000000000000000000000000000000000000000000000000000000000000005100000000000000000000000000000000000000000000000000000000000000000000000000000000000000000000000000000000000000000000000000000000000000000000000000000000000000000000000000000000000000000000000000000000000000000000000000000000000000000000000000000000000000000000000000000000000000000000000000000000000000000000000000000000000000000000000000000000000000000000000000000000000000000000000000000000000000000000000000000000000000000000000000000000000000000000000000000000000000000000000000000000000000000000000000000000000000000000000000000000000000000000000000000000000000000000000000000000000000000000000000000000000000000000000000000000000000000000000000000000000000000000000000000000000000000000000000000000000000000000000000000000000000000000000000000000000000000000000000000000000000000000000000000000000000000000000000000000000000000000000000000000000000000000000000000000000000000000000000000000000000000000000000000000000000000000000000000000000000000000000000000000000000000000000000000000000000000000000000000000000000000000000000000000000000000000000000000000000000000000000000000000000000000000000000000000000000000000000000000000000000000000000000000000000000000000000000000000000000000000000000000000000000000000000000000000000000000000000000000000000000000000000000000000000000000000000000000000000000000000000000000000000000000000000000000000000000000000000000000000000000000000000000000000000000000000000000000000000000000000000000000000000000000000000000000000000000000000000000000000000000000000000000000000000000000000000000000000000000000000000000000000000000000000000000000000000000000000000000000000000000000000000000000000000000000000000000000000000000000000000000000000000000000000000000000000000000000000000000000000000000000000000000000000000000000000000000000000000000000000000000000000000000000000000000000000000000000000000000000000000000000000000000000000000000000000000000000000000000000000
#0483d0:0021
#042321:000000000000000000000000000000000000000000000000000000000000000000000000000000000000000000000000000000000000000000000000000000000000000000000000000000000000000000000000000000000000000000000000000000000000000000140000000000000000000000000000540000000000000000000000000000000000000000000000540000000000540000000000000054000000000000000000540000005400000000000000000000000000540000000000
#042361:000000000000000000000000000000000000000000000000000000000000000000000000000000000000000000000000000000000000000000540000000000000000000000000000000000000000000000540000000000000000005400000000
#042391:0000000000000000000000000000000000000000005400000000000000000000
#042331:000000000000000000000000000000000000000000000000000000000000000000000000000000000000000000000000000000000000000000000000000000000054000000000000000000000000000000000000000000000000000000000000
#042381:0000000000000000000000000000000000000000000000540000540000000000
#042341:000000000000000000000000000000000000000000000000000000000000000000000000000000000000000000000000000000000000000000000000000000000000000000000000005400000000000000000000000000000000000000000000
#042371:000000000000000000000000000000000000000000000000000000000000000000000000000000000000000000000000000000000000000000000000000000000000000000000000000000000000000000000000005400000000000000000000
#042351:000000000000000000000000000000000000000000000000000000000000000000000000000000000000000000000054
#043321:540000000054000000000000540000000000540000000000540000000054000000000000540000005400000000000000540000005400000000000000540000005400000000000000540000000054000000000000540000005400000000000000
#043381:000000005400000000000000000000000000000000000000000000000000000000000000000000000000000000000000000000000000000000000000000000000000000000000000000000540000000000000000000000540000000000000000
#043371:000000000000000054000000000000000000000000000000000000000000000000000000000054000000000000000000000000000000000000000000000000000000000000000000000000000000005400000000000000000000000000000000
#043361:000000000000000000000000000054000000000054000000000000005400005400000000000000000000000000000000000000000000000000000000000000000054000000000000000000000000000000000000000000000000005400000000
#043351:000000000000000000000054000000000000000000000000
#0433a1:000000000000000000000000000000000000000000000000005400005400000000000000000000000000000000000000
#043341:000000000000000000000000000000000000000000000000000000000000005400000000000000000000000000000000
#044321:540000540000540000000000540000000054000000000000540000000000000054000000540000540000000000000000540000000000000000000000000000000000000000000000000000000000000000000000000000000000000000000000
#044361:005400000000000000000000000000000000000000000000000000000000000000000000000000000000005400000000000000000000000000000000000000000000000000000000000000000000000000000000000000000000000000000000
#044371:000000000054000000000000000054000000000000000000000000000000000000005400000000000000000000000000000000000000000000000000000000000000000000000000000000000000000000000000000000000000000000000000
#044391:000000005400000000000000005400000000000000000000000000000000000000000000000000000000000000000000
#044351:000000000000000000005400000000540000000000000000000000000000000000000000000000000000000000000000
#044381:000000000000000000000000000000000000005400000000000000000000000000000000000000000000000000000000
#044341:000000000000000000000000000000000000000000000000000000000000000000000000000000000000000000000000000000000000000000000000000000000000000000000000000000000000000000000000000000000000000000000000000000000000000000000000000000000000000000000000000000000000000000000000000000000000000000000000000000000000000000000000000000000000000000000000000000000000000000000000000000000000000000000000000000000000000000000000000000000000000000000000000000000000000000000000000000000000000000000000000000000000000000000000000000000000000000000000000000000000000000000000000000000000000000000000000000000000000000000000000000000000000000000000000000000000000000000000000000000000000000000000000000000000000000000000000000000000000000000000000000000000000000000000000000000000000000000000000000000000000000000000000000000000000000000000000000000000000000000000000000000000000000000000000000000000000000000000000000000000000000000000000000000000000000000000000000000000000000000000000000000000000000000000000000000000000000000000000000000000000000000000000000000000000000000000000000000000000000000000000000000000000000000000000000000000000000000000000000000000000000000000000000000000000000000000000000000000000000000000000000000000000000000000000000000000000000000000000000000000000000000000000000000000000000000000000000000000000000000000000000000000000000000000000000000000000000000000000000000000000000000000000000000000000000000000000000000000000000000000000000000000000000000000000000000000000000000000000000000000000000000000000000000000000000000000000000000000000000000000000000000000000000000000000000000000000000000000000000000000000000000000000000000000000000000000000000000000000000000000000000000000000000000000000000000000000000000000000000000000000000000000000000000000000000000000000000000000000000000000000000000000000000000000000000000000000000000000000000000000000000000000000000000000000000000000000000000000000000000000005100000000000000000000000000000000000000000000000000000000000000000000000000000000000000000000000000000000000000000000000000000000000000000000000000000000000000000000000000000000000000000000000000000000000000000000000000000000000000000000000000000000000000000000000000000000000000000000000000000000000000000000000000000000000000000000000000000000000000000000000000000000000000000000000000000000000000000000000000000000000000000000000000000000000000000000000000000000000000000000000000000000000000000000000000000000000000000000000000000000000000000000000000000000000000000000000000000000000000000000000000000000000000000000000000000000000000000000000000000000000000000000000000000000000000000000000000000000000000000000000000000000000000000000000000000000000000000000000000000000000000000000000000000000000000000000000000000000000000000000000000000000000000000000000000000000000000000000000000000000000000000000000000000000000000000000000000000000000000000000000000000000000000000000000000000000000000000000000000000000000000000000000000000000000000000000000000000000000000000000000000000000000000000000000000000000000000000000000000000000000000000000000000000000000000000000000000000000000000000000000000000000000000000000000000000000000000000000000000000000000000000000000000000000000000000000000000000000000000000000000000000000000000000000000000000000000000000000000000000000000000000000000000000000000000000000000000000000000000000000000000000000000000000000000000000000000000000000000000000000000000000000000000000000000000000000000000000000000000000000000000000000000000000000000000000000000000000000000000000000000000000000000000000000000000000000000000000000000000000000000000000000000000000000000000000000000000000000000000000000000000000000000000000000000000000000000000000000000000000000000000000000000000000000000000000000000000000000000000000000000000000000000000000000000000000000000000000000000000000000
#048321:0021
#052381:0000000000120000
#0523c1:0000000000000022
#0533c1:0012000000000000
#053381:00000000002200000000000000000000
#053381:0000001200000000
#0533c1:00000000000000000022000000000000
#056361:0000000000120000
#056321:0000000000000022
#057321:0012000000000000
#057361:00000000002200000000000000000000
#057361:0000001200000000
#057321:00000000000000000022000000000000
#0593c1:00000000000000001200000000000000000000000000000000000000000000000000000000520000220000000000000000000000000000000000000000000000
#0593a1:00000000000000000052000032000000005200003200000000000000000000000052000032000000000000000000000000000000000000000000000000000000
#059381:00000000000000000000000000520000320000000052000032000000005200003200000000000000000000000000000000000000000000000000000000000000
#059361:00000000000000000000000000000000000000000000000000520000320000000000000000000000000000000000000000000000000000000000000000000000
#061321:00000000000000001200000000000000000000000000000000000000000000000000000000520000220000000000000000000000000000000000000000000000
#061341:00000000000000000052000032000000005200003200000000000000000000000052000032000000000000000000000000000000000000000000000000000000
#061361:00000000000000000000000000520000320000000052000032000000005200003200000000000000000000000000000000000000000000000000000000000000
#061381:00000000000000000000000000000000000000000000000000520000320000000000000000000000000000000000000000000000000000000000000000000000
#062321:00000000000000000000000000000000000000000000000013000000000000000000000000530000230000000000000000000000000000000000000000000000
#062351:00000000000000000000000000000000000000000000000000530000330000000053000033000000000000000000000000000000000000000000000000000000
#062381:00000000000000000000000000000000000000000000000000000000005300003300000000000000000000000000000000000000000000000000000000000000
#062380:00000000000000000000000000000000000000000000000000000000000000000000000000000000130000000053000023000000000000000000000000000000
#0623b0:00000000000000000000000000000000000000000000000000000000000000000000000000000000005300003300000000000000000000000000000000000000
#062351:00000000000000000000000000000000000000000000000000000000000000000000000000000000000000000000000013000000005300002300000000000000
#062321:00000000000000000000000000000000000000000000000000000000000000000000000000000000000000000000000000530000330000000000000000000000
#063381:0000000000122200
#063360:0000000000001222
#064320:0000000000000000000000000000000000000000000000000000000000000000000000000000000000000000000000000000000000000000000000000000000000000000000000000000000000000000000000000000000000000000000000000000000000000000000000000000000000000000000000000000000000000000000000000000000000000000000000000000000000000000000000000000000000000000000000000000000000000000000000000000000000000000000000000000000000000000000000000000000000000000000000000000000000000000000000000000000000000000000000001200000000000000000000000000000000000000000000000000000000000000000000000000000000000000000000000000000000000000000000000000000000000000000000000000000000000000000000000000000000525c00000000000000000000000000000000000000000000000000000000000000000000000000000000000000000000000000000000000000000000005c00000000000000000000000000000000000000000000000000000000000000000000000000000000000000000000000000000000000000000000000000000000000000000000000000000000000000000000000000000000000000000000000000000000000000000000000000000000000000000000000000000000000000000000000000000000000000000000000000000000000000000000000000000000000000000000000000000000000000000000005c00000000000000000000000000000000000000000000000000000000000000000000000000000000000000000000000000000000000000000000005c00000000000000000000000000000000000000000000000000000000000000000000000000000000000000000000000000000000000000000000000000000000000000000000000000000000000000000000000000000000000000000000000000000000000000000000000000000000000000000000000000000000000000000000000000000000000000000000000000000000000000000000000000000000000000000000000000000000000000000000005c00000000000000000000000000000000000000000000000000000000000000000000000000000000000000000000000000000000000000000000005c00000000000000000000000000000000000000000000000000000000000000000000000000000000000000000000000000000000000000000000000000000000000000000000000000000000000000000000000000000000000000000000000000000000000000000000000000000000000000000000000000000000000000000000000000000000000000000000000000000000000000000000000000000000000000000000000000000000000000000000005c00000000000000000000000000000000000000000000000000000000000000000000000000000000000000000000000000000000000000000000005c5200000000000000000000000000000000000000000000000000000000000000000000000000000000000000000000000000000000000000000000000000000000000000000000000000000000000000000000000000000000220000000000000000000000000000000000000000000000000000000000000000000000000000000000000000000000000000000000000000000000000000000000000000000000000000000000000000000000000000000000000000000000000000000000000000000000000000000000000000000000000000000000000000000000000000000000000000000000000000000000000000000000000000000000000000000000000000000000000000000000000000000000000000000000000000000000000000000000000000000000000000000000000000000000000000000000000000000000000000000000000000000000000000000000000000000000000000000000000000000000000000000000000000000000000000000000000000000000000000000000000000000000000000000000000000000000000000000000000000000000000000000000000000000000000000000000000000000000000000000000000000000000000000000000000000000000000000000000000000000000000000000000000000000000000000000000000000000000000000000000000000000000000000000000000000000000000000000000000000000000000000000000000000000000000000000000000000000000000000000000000000000000000000000000000000000000000000000000000000000000000000000000000000000000000000000000000000000000000000000000000000000000000000000000000000000000000000000000000000000000000000000000000000000000000000000000000000000000000000000000000000000000000000000000000000000000000000000000000000000000000000000000000000000000000000000000000000000000000000000000000000000000000000000000000000000000000000000000000000000000000000000000000000000000000000000000000000000000000000000000
#0643a0:000000000000000000000000000000000000000000000000000000000000000000000000000000000000000000000000000000000000000000000000000000000000000000000000000000000000000000000000000000000000000000000000000000000000000000000000000000000000000000000000000000000000000000000000000000000000000000000000000000000000000000000000000000000000000000000000000000000000000000000000000000000000000000000000000000000000000000000000000000000000000000000000000000000000000000000000000000000000000000000000000000000000000000000000000000000000000000000000000000000000000000000000000000000000000000000000000000000000000000000000000000000000000000000000000000000000000000000000000000000000000000000000000000000000000000000000000000000000000000000000000000000000000000000000000000000000000000000000000000000000005200000000000000000000000000000000000000000000000000000000000000000000000000000000000000000000000000000000000000000000000000000000000000000000000000000000000000000000000000000000320000000000000000000000000000000000000000000000000000000000000000000000000000000000000000000000000000000000000000000000000000000000000000000000000000000000000000000000000000005200000000000000000000000000000000000000000000000000000000000000000000000000000000000000000000000000000000000000000000000000000000000000000000000000000000000000000000000000000000000000000000000000000000000000000000000000000000000000000000000000000000000000000000000000000000000000000000000000000000000000000000000000000000000000000000000000000000000000000000000000000000000000000000000000000000000000000000000000000000000000000000000000000000000000000000000000000000000000000000000000000000000000000000000000000000000000000000000000000000000000000000000000000000000000000000000000000000000000000000000000005200000000000000000000000000000000000000000000000000000000000000000000000000000000000000000000000000000000000000000000000000000000000000000000000000000000000000000000000000000000320000000000000000000000000000000000000000000000000000000000000000000000000000000000000000000000000000000000000000000000000000000000000000000000000000000000000000000000000000000052000000000000000000000000000000000000000000000000000000000000000000000000000000000000000000000000000000000000000000000000000000000000000000000000000000000000000000000000000000000000000000000000000000000000000000000000000000000000000000000000000000000000000000000000000000000000000000000000000000000000000000000000000000000000000000000000000000000000000000000000000000000000000000000000000000000000000000000000000000000000000000000000000000000000000000000000000000000000000000000000000000000000000000000000000000000000000000000000000000000000000000000000000000000000000000000000000000000000000000000000000000000000000000000000000000000000000000000000000000000000000000000000000000000000000000000000000000000000000000000000000000000000000000000000000000000000000000000000000000000000000000000000000000000000000000000000000000000000000000000000000000000000000000000000000000000000000000000000000000000000000000000000000000000000000000000000000000000000000000000000000000000000000000000000000000000000000000000000000000000000000000000000000000000000000000000000000000000000000000000000000000000000000000000000000000000000000000000000000000000000000000000000000000000000000000000000000000000000000000000000000000000000000000000000000000000000000000000000000000000000000000000000000000000000000000000000000000000000000000000000000000000000000000000000000000000000000000000000000000000000000000000000000000000000000000000000000000000000000000000000000000000000000000000000000000000000000000000000000000000000000000000000000000000000000000000000000000000000000000000000000000000000000000000000000000000000000000000000000000000000000000000000000000000000000000000000000000000000000000000000000000000000000000000000000000000000000000000000000000000000
#064340:000000000000000000000000000000000000000000000000000000000000000000000000000000000000000000000000000000000000000000000000000000000000000000000000000000000000005200000000000000000000320000000000000000000052000000000000000000000000000000000000000000000000000000000000000000000000000000000000000000000000000000000000000000000000000000000000000000000000000000000000000000000000000000000000000000000000000000000000000000000000000000000000000000000000000000000000000000000000000000000000
#065360:0012003200323232
#0653a0:00520000
#065320:0052
#065380:00000000000000000000005200000052
#065340:00000000000000000000000000520000
#066360:3222000000000000
#066340:00520000000000000000000000000000
#065381:0012003200323232
#065341:00520000
#0653c1:0052
#065361:00000000000000000000005200000052
#0653a1:00000000000000000000000000520000
#066381:3222000000000000
#0663a1:00520000000000000000000000000000
#0663b1:00000000000000000000000000000000000000000000000013000000000000000000000000530000230000000000000000000000000000000000000000000000
#066381:00000000000000000000000000000000000000000000000000530000330000000053000033000000000000000000000000000000000000000000000000000000
#066351:00000000000000000000000000000000000000000000000000000000005300003300000000000000000000000000000000000000000000000000000000000000
#066350:00000000000000000000000000000000000000000000000000000000000000000000000000000000130000000053000023000000000000000000000000000000
#066320:00000000000000000000000000000000000000000000000000000000000000000000000000000000005300003300000000000000000000000000000000000000
#066381:00000000000000000000000000000000000000000000000000000000000000000000000000000000000000000000000013000000005300002300000000000000
#0663b1:00000000000000000000000000000000000000000000000000000000000000000000000000000000000000000000000000530000330000000000000000000000
#067361:0000000000122200
#067380:0000000000001222
#0683c0:000000000000000000000000000000000000000000000000000000000000000000000000000000000000000000000000000000000000000000000000000000000000000000000000000000000000000000000000000000000000000000000000000000000000000000000000000000000000000000000000000000000000000000000000000000000000000000000000000000000000000000000000000000000000000000000000000000000000000000000000000000000000000000000000000000000000000000000000000000000000000000000000000000000000000000000000000000000000000000000000120000000000000000000000000000000000000000000000000000000000000000000000000000000000000000000000000000000000000000000000000000000000000000000000000000000000000000000000000000000052000000000000000000000000000000000000000000000000000000000000000000000000000000000000000000000000000000000000000000000000000000000000000000000000000000000000000000000000000000000000000000000000000000000000000000000000000000000000000000000000000000000000000000000000000000000000000000000000000000000000000000000000000000000000000000000000000000000000000000000000000000000000000000000000000000000000000000000000000000000000000000000000000000000000000000000000000000000000000000000000000000000000000000000000000000000000000000000000000000000000000000000000000000000000000000000000000000000000000000000000000000000000000000000000000000000000000000000000000000000000000000000000000000000000000000000000000000000000000000000000000000000000000000000000000000000000000000000000000000000000000000000000000000000000000000000000000000000000000000000000000000000000000000000000000000000000000000000000000000000000000000000000000000000000000000000000000000000000000000000000000000000000000000000000000000000000000000000000000000000000000000000000000000000000000000000000000000000000000000000000000000000000000000000000000000000000000000000000000000000000000000000000000000000000000000000000000000000000000000000000000000000000000000000000000000000000000000000000000000000000000000000000000000000000000000000000000000000000000000000000000000000000000000000000000000000000000000000000000000000000000000000000000000000000000000000000000000000000000000000000000000000000000000000000000000000000000000000000000000000000000000000000000000000000000000000000000000000000000000000000005200000000000000000000000000000000000000000000000000000000000000000000000000000000000000000000000000000000000000000000000000000000000000000000000000000000000000000000000000000000220000000000000000000000000000000000000000000000000000000000000000000000000000000000000000000000000000000000000000000000000000000000000000000000000000000000000000000000000000000000000000000000000000000000000000000000000000000000000000000000000000000000000000000000000000000000000000000000000000000000000000000000000000000000000000000000000000000000000000000000000000000000000000000000000000000000000000000000000000000000000000000000000000000000000000000000000000000000000000000000000000000000000000000000000000000000000000000000000000000000000000000000000000000000000000000000000000000000000000000000000000000000000000000000000000000000000000000000000000000000000000000000000000000000000000000000000000000000000000000000000000000000000000000000000000000000000000000000000000000000000000000000000000000000000000000000000000000000000000000000000000000000000000000000000000000000000000000000000000000000000000000000000000000000000000000000000000000000000000000000000000000000000000000000000000000000000000000000000000000000000000000000000000000000000000000000000000000000000000000000000000000000000000000000000000000000000000000000000000000000000000000000000000000000000000000000000000000000000000000000000000000000000000000000000000000000000000000000000000000000000000000000000000000000000000000000000000000000000000000000000000000000000000000000000000000000000000000000000000000000000000000000000000000000000000000000000000000000000000000000
#068320:00000000000000000000005c005c00000000005c005c00000000005c005c00000000005c005c0000000000000000000000000000000000000000000000000000
#068340:000000000000000000000000000000000000000000000000000000000000000000000000000000000000000000000000000000000000000000000000000000000000000000000000000000000000000000000000000000000000000000000000000000000000000000000000000000000000000000000000000000000000000000000000000000000000000000000000000000000000000000000000000000000000000000000000000000000000000000000000000000000000000000000000000000000000000000000000000000000000000000000000000000000000000000000000000000000000000000000000000000000000000000000000000000000000000000000000000000000000000000000000000000000000000000000000000000000000000000000000000000000000000000000000000000000000000000000000000000000000000000000000000000000000000000000000000000000000000000000000000000000000000000000000000000000000000000000000000000000000005200000000000000000000000000000000000000000000000000000000000000000000000000000000000000000000000000000000000000000000000000000000000000000000000000000000000000000000000000000000320000000000000000000000000000000000000000000000000000000000000000000000000000000000000000000000000000000000000000000000000000000000000000000000000000000000000000000000000000005200000000000000000000000000000000000000000000000000000000000000000000000000000000000000000000000000000000000000000000000000000000000000000000000000000000000000000000000000000000000000000000000000000000000000000000000000000000000000000000000000000000000000000000000000000000000000000000000000000000000000000000000000000000000000000000000000000000000000000000000000000000000000000000000000000000000000000000000000000000000000000000000000000000000000000000000000000000000000000000000000000000000000000000000000000000000000000000000000000000000000000000000000000000000000000000000000000000000000000000000000005200000000000000000000000000000000000000000000000000000000000000000000000000000000000000000000000000000000000000000000000000000000000000000000000000000000000000000000000000000000320000000000000000000000000000000000000000000000000000000000000000000000000000000000000000000000000000000000000000000000000000000000000000000000000000000000000000000000000000000052000000000000000000000000000000000000000000000000000000000000000000000000000000000000000000000000000000000000000000000000000000000000000000000000000000000000000000000000000000000000000000000000000000000000000000000000000000000000000000000000000000000000000000000000000000000000000000000000000000000000000000000000000000000000000000000000000000000000000000000000000000000000000000000000000000000000000000000000000000000000000000000000000000000000000000000000000000000000000000000000000000000000000000000000000000000000000000000000000000000000000000000000000000000000000000000000000000000000000000000000000000000000000000000000000000000000000000000000000000000000000000000000000000000000000000000000000000000000000000000000000000000000000000000000000000000000000000000000000000000000000000000000000000000000000000000000000000000000000000000000000000000000000000000000000000000000000000000000000000000000000000000000000000000000000000000000000000000000000000000000000000000000000000000000000000000000000000000000000000000000000000000000000000000000000000000000000000000000000000000000000000000000000000000000000000000000000000000000000000000000000000000000000000000000000000000000000000000000000000000000000000000000000000000000000000000000000000000000000000000000000000000000000000000000000000000000000000000000000000000000000000000000000000000000000000000000000000000000000000000000000000000000000000000000000000000000000000000000000000000000000000000000000000000000000000000000000000000000000000000000000000000000000000000000000000000000000000000000000000000000000000000000000000000000000000000000000000000000000000000000000000000000000000000000000000000000000000000000000000000000000000000000000000000000000000000000000000000000000000000000
#0683a0:000000000000000000000000000000000000000000000000000000000000000000000000000000000000000000000000000000000000000000000000000000000000000000000000000000000000005200000000000000000000320000000000000000000052000000000000000000000000000000000000000000000000000000000000000000000000000000000000000000000000000000000000000000000000000000000000000000000000000000000000000000000000000000000000000000000000000000000000000000000000000000000000000000000000000000000000000000000000000000000000
#069370:0012000000520000
#070340:0028000000000000
#069351:0000000000120000
#069391:00000032
#069341:0000000000000032
#0703b1:32
#070321:0022000000000000
#0703a1:0000000000000014
#071321:00340000
#0713a1:0000000000240000
#072321:0000001400000000
#0723a1:00000034
#073321:0024000000000000
#0733a1:0000000000000014
#074321:00340000
#0743a1:0000000000240000
#075321:0000001400000000
#0753a1:00000024
#076351:00190000000000000000000000000000
#077321:00000000000000000000000000000000000000000000000000000000000000000000000000000000005700000000000000000000000000000000000000000000
#079351:0029000000000000
#076320:0000120052000000000000000000005252000000000000000000005252000000
#076350:0000000000525200000000000052520000525200000000000052520000525200
#076390:0000000000000052520000525200000000000052520000525200000000000052
#0763c0:0000000000000000005252000000000000000000005252000000000000000000
#077390:5200005252000000000000525200005252000000000000525200005252000000
#0773c0:0052520000000000000000000052520000000000000000000052520000000000
#077350:0000000000525200005252000000000000525200005252000000000000525200
#077320:0000000000000052520000000000000000000052520000000000000000000052
#078320:5200000000000000000000525200000000000000000000525200000000000000
#078350:0052520000000000005252000052520000000000005252000052520000000000
#078390:0000005252000052520000000000005252000052520000000000005252000052
#0783c0:0000000000525200000000000000000000525200000000000000000000525200
#079390:52
#079350:0052520000000000000000000000000000000000000000000000000000000000
#079320:0000005222000000000000000000000000000000000000000000000000000000
