This file was generated by Ched 2.7.0.0.
#TITLE ""
#ARTIST ""
#DESIGNER ""
#DIFFICULTY 0
#PLAYLEVEL
#SONGID ""
#WAVE ""
#WAVEOFFSET 0
#JACKET ""
#REQUEST "ticks_per_beat 480"
#00002: 4
#BPM01: 115
#BPM02: 130
#BPM03: 128
#BPM04: 133
#BPM05: 138
#BPM06: 229
#BPM07: 112
#00008: 01
#01808: 00000001
#04908: 00000001
#01408: 02
#03008: 00000003
#03308: 00000004
#03608: 00000005
#03908: 00000006
#07008: 0007000000000000
#TIL00: ""
#HISPEED 00
#MEASUREHS 00
#0001a:14
#00014:00140000
#00018:0014
#00012:00000014
#0011a:14
#00114:00140000
#00212:00140000
#0021a:0014
#00214:00000014
#00318:14
#00312:00140000
#0031a:0014
#00314:00000014
#00418:14
#00412:00140000
#0041a:0014
#00414:00000014
#00518:14
#00512:00140000
#0051a:0014
#00514:00000014
#00618:14140000
#00612:00001414
#00610:41
#0071a:14
#00714:00140000
#0081a:14140000
#00814:00001414
#00918:14
#00912:00140000
#0101a:14
#01014:00140000
#01112:14
#01118:00140000
#0121a:14
#01218:00140000
#01216:0014
#01214:00000014
#04912:00000014
#04918:0000000000000014
#05014:14
#0501a:0014000000000000
#05017:0014
#0501f:0011000000000000
#05112:0014000000000000
#05115:0014
#0521a:0014000000000000
#05217:0014
#05312:0014000000000000
#05315:0014
#0541a:0014000000000000
#05412:0000000000140000
#0551a:0014000000000000
#05512:0000000000140000
#05618:0014000000000000
#05614:0000000000140000
#05718:0014000000000000
#05714:0000000000140000
#05814:0000001400000000
#05818:0000000000140000
#05812:0000000000000014
#0581a:0024000000000000
#0581f:0021000000000000
#0591a:0014000000140000
#05914:00140000
#05918:0000001400000034
#05912:0014
#05919:00000034
#05910:0041000000000000
#06018:0000001400000000
#06014:0000000000140000
#0601a:0000000000000014
#06012:0024000000000000
#06112:0014000000140000
#06118:00140000
#06114:0000001400000034
#0611a:0014
#06113:00000034
#06218:0014000000001400
#06214:0000000000140014
#06318:1400000000140014
#06314:0014000000001400
#06414:1400000000140014
#06418:0014000000000000
#0641a:00000014
#0651a:14
#06514:0014000000000000
#06518:0000000000140014
#06512:00000014
#06612:1400000000000014
#06618:0014000000000000
#06614:0000000000140000
#0661a:00000014
#06718:1400000000140000
#06714:0014000000000000
#06712:00000014
#0671a:0000000000000014
#06814:1400000000000014
#06818:0014000000001400
#06812:0000000000140000
#0691a:1400000000140000
#06914:0014000000001400
#06918:0000000000000014
#07012:14
#07010:0041000000000000
#0211a:1414
#02112:0000001400001400
#02118:0000140000000014
#02114:0014000000000000
#02012:1400000000000014
#02018:00000014
#02013:0000000000140000
#02019:0014
#02014:0000001400000000
#0201a:00140000
#0191a:0000000000000014
#01914:00000014
#01918:0000000000140000
#01912:360000363636000000000000
#02213:14
#02219:0014000000000000
#02210:00000041
#02314:14
#0231a:00141400
#02312:00000014
#02418:14
#02412:00000014
#02512:14
#02518:00141400
#02514:00000014
#0261a:14
#02612:00000014
#02718:14
#0271a:00000014
#02814:14
#02812:00000014
#02914:14
#02916:00140000
#02918:0014
#01812:000000000000000000003636
#01410:0000004100000000
#03110:00410000
#00754:00540000
#00952:00640000
#0505a:0054000000000000
#05057:0024
#05152:0064000000000000
#05155:0024
#0525a:0054000000000000
#05257:0024
#05352:0064000000000000
#05355:0024
#0545a:0054000000000000
#05452:0000000000540000
#0555a:0054000000000000
#05552:0000000000540000
#05658:0054000000000000
#05654:0000000000640000
#05758:0054000000000000
#05754:0000000000640000
#0595a:0000000000540000
#06152:0000000000640000
#06258:0054000000000000
#06354:0064000000000000
#06458:0054000000000000
#06554:0064000000000000
#06658:0054000000000000
#06754:0064000000000000
#06858:0054000000000000
#06954:0064000000000000
#02458:64
#0265a:54
#01352:000000000000000000000014
#0305a:000014
#001380:0014
#002380:24
#007340:00140000
#007320:00000024
#009320:00140000
#009340:00000024
#0103a0:00001424
#011320:00001424
#013320:140000000000000000000024
#0143a0:0000001400000000
#014380:0000000000000024
#015320:14
#015340:0024
#0153a0:0000000000140000
#016380:0024000000000000
#016320:00140000
#016340:00000024
#016380:0000000000000014
#0173a0:0000002400000000
#017340:0014
#018320:24
#018380:0014000000000000
#0183a0:0000000000240000
#018320:000000000000000000163636
#019320:360000363636260000000000
#019350:003636000000000000000000
#022340:00140024
#024380:14
#0243a0:0024
#0263a0:14
#026380:0024
#027320:00142400
#0283a0:00142400
#0293a0:00000014
#0303a0:000024
#031320:00140000
#031340:00000024
#0313a0:0000000000000014
#032380:0000002400000000
#032320:0014
#033340:24
#0333a0:0014000000000000
#033380:0000000000240000
#033320:00000015
#033340:0000000000000035
#034320:35350000
#034340:0035002500000000
#034390:00001535
#034370:0000000000350035
#035390:35
#035370:0025000000000000
#035320:00153535
#035340:0000003500350025
#036390:15353500
#036370:0035003500250000
#036340:00000015
#036320:0000000000000035
#037340:35350000
#037320:0035002500000000
#037370:00001535
#037390:0000000000350035
#038370:35
#038390:0025000000000000
#038340:00153535
#038320:0000003500350025
#039370:15353535
#039390:0035003500350000
#044370:0035
#048390:0025
#0503a0:0014000000000024
#050370:0054
#051320:0014000000000024
#051350:0054
#0523a0:0014000000000024
#052370:0054
#053320:0014000000000024
#053350:0054
#0543a0:0014000000000000
#054380:0000002400000000
#054320:0000000000140000
#054340:0000000000000024
#0553a0:0014000000000000
#055380:0000002400000000
#055320:0000000000140000
#055340:0000000000000024
#056380:0014000000000000
#0563a0:0000002400000000
#056340:0000000000140000
#056320:0000000000000024
#057380:0014000000000000
#0573a0:0000002400000000
#057340:0000000000140000
#057320:0000000000000024
#0593a0:0000000000140000
#059390:00000034
#059380:0000000000000034
#060380:24
#061320:0000000000140000
#061330:00000034
#061340:0000000000000034
#062340:24
#062380:0014000000000000
#0623a0:0000002400000000
#063340:0014000000000000
#063320:0000002400000000
#064380:0014000000000000
#0643a0:0000002400000000
#065340:0014000000000000
#065320:0000002400000000
#066380:0014000000000000
#0663a0:0000002400000000
#067340:0014000000000000
#067320:0000002400000000
#068380:0014000000000000
#0683a0:0000002400000000
#069340:0014000000000000
#069320:0000002400000000
#0703a0:0014000000000034
#070370:0034
#071370:00240000
#071320:0000000000140000
#072350:34000024
#072320:0000003400000000
#073370:0014000000000034
#0733a0:0034
#0743a0:00240000
#074350:0000000000140000
#075320:34000034
#075350:0000003400000000
#076320:00340000000000000000000000000000
#079320:0024000000000000
